osu file format v14

[General]
AudioFilename: audio.ogg
AudioLeadIn: 0
PreviewTime: 5151
Countdown: 0
SampleSet: Normal
StackLeniency: 0.7
Mode: 1
LetterboxInBreaks: 0
WidescreenStoryboard: 1

[Editor]
Bookmarks: 5335,17722,42496,61077,76560
DistanceSpacing: 0.8
BeatDivisor: 4
GridSize: 32
TimelineZoom: 1.8

[Metadata]
Title:Iden Tei Tei Meltdown (TV Size)
TitleUnicode:アイデン貞貞メルトダウン (TV Size)
Artist:Enako feat. Pmarusama.
ArtistUnicode:えなこ feat. P丸様。
Creator:Faputa
Version:Oniichan
Source:お兄ちゃんはおしまい!
Tags:p maru sama. pmaru-sama. p-marusama. p-maru-sama. onii-chan Tyistiana Identity おにまい Onimai Oniichan ha wa Oshimai! PCCG.02195 PCCG.02198 Ver. Version Jpop J-pop pop Japanese Anime オープニングテーマ op opening theme thema
BeatmapID:3942058
BeatmapSetID:1911120

[Difficulty]
HPDrainRate:6.5
CircleSize:2
OverallDifficulty:5.5
ApproachRate:10
SliderMultiplier:1.4
SliderTickRate:1

[Events]
//Background and Video events
0,0,"ari.jpg",0,10
//Break Periods
//Storyboard Layer 0 (Background)
//Storyboard Layer 1 (Fail)
//Storyboard Layer 2 (Pass)
//Storyboard Layer 3 (Foreground)
//Storyboard Layer 4 (Overlay)
//Storyboard Sound Samples

[TimingPoints]
-994,387.096774193548,4,1,0,70,1,0
648,-100.630566209452,4,1,0,70,0,0
938,-102.564102564103,4,1,0,70,0,0
1035,-103.227527340624,4,1,0,70,0,0
1325,-105.263157894737,4,1,0,70,0,0
1422,-105.96207817099,4,1,0,70,0,0
1519,-106.670341786108,4,1,0,70,0,0
1615,-107.380688124306,4,1,0,70,0,0
1809,-108.845450710167,4,1,0,70,0,0
1906,-109.592920353982,4,1,0,70,0,0
2099,-111.111111111111,4,1,0,70,0,0
2196,-108.100558659218,4,1,0,70,0,0
2293,-105.24884416644,4,1,0,70,0,0
2390,-102.543720190779,4,1,0,70,0,0
2486,-100,4,1,0,70,0,0
3454,-111.111111111111,4,1,0,70,0,0
3519,-110.65235342692,4,1,0,70,0,0
3583,-110.204339849434,4,1,0,70,0,0
3648,-109.753024193548,4,1,0,70,0,0
3938,-107.783690137359,4,1,0,70,0,0
4228,-105.883783126672,4,1,0,70,0,0
4422,-104.64976570948,4,1,0,70,0,0
4615,-103.450323653424,4,1,0,70,0,0
4712,-102.857817666509,4,1,0,70,0,0
4809,-102.272060118593,4,1,0,70,0,0
5002,-101.12620457448,4,1,0,70,0,0
5099,-100.559949200485,4,1,0,70,0,0
5150,-100,4,1,0,80,0,0
16135,-100,4,1,0,60,0,0
17489,-133.333333333333,4,1,0,60,0,0
20002,-130.105900151286,4,1,0,60,0,0
20196,-124.038461538462,4,1,0,60,0,0
20293,-121.212121212121,4,1,0,60,0,0
20486,-115.955056179775,4,1,0,60,0,0
20586,-100,4,1,0,70,0,0
20680,-111.111111111111,4,1,0,70,0,0
23731,-111.111111111111,4,1,0,60,0,0
23876,-133.333333333333,4,1,0,60,0,0
26196,-130.07310310058,4,1,0,60,0,0
26293,-126.968503937008,4,1,0,60,0,0
26390,-124.008651766402,4,1,0,60,0,0
26486,-121.212121212121,4,1,0,60,0,0
26583,-118.511713367019,4,1,0,60,0,0
26680,-115.929004718041,4,1,0,60,0,0
26777,-113.456464379947,4,1,0,60,0,0
26828,-100,4,1,0,70,0,0
26873,-111.111111111111,4,1,0,70,0,0
48457,-110.497237569061,4,1,0,70,0,0
48744,-109.589525831564,4,1,0,70,0,0
48841,-109.214655993229,4,1,0,70,0,0
48938,-108.842342025726,4,1,0,70,0,0
49132,-108.105277855348,4,1,0,70,0,0
49519,-106.664370587222,4,1,0,70,0,0
49615,-106.312862586248,4,1,0,70,0,0
49712,-105.96003831942,4,1,0,70,0,0
49906,-105.261369043573,4,1,0,70,0,0
50005,-104.712041884817,4,1,0,70,0,0
50293,-103.894796873427,4,1,0,70,0,0
50390,-103.557814485388,4,1,0,70,0,0
50486,-103.226451569895,4,1,0,70,0,0
50680,-102.563253411048,4,1,0,70,0,0
50873,-101.911876007766,4,1,0,70,0,0
50970,-101.587613986748,4,1,0,70,0,0
51067,-101.26540888729,4,1,0,70,0,0
51261,-100.627091659356,4,1,0,70,0,0
51454,-100,4,1,0,70,0,0
51554,-111.111111111111,4,1,0,70,0,0
51841,-109.589525831564,4,1,0,70,0,0
51938,-109.214655993229,4,1,0,70,0,0
52035,-108.842342025726,4,1,0,70,0,0
52228,-108.109051558627,4,1,0,70,0,0
52328,-107.52688172043,4,1,0,70,0,0
52615,-106.668044361783,4,1,0,70,0,0
52712,-106.312862586248,4,1,0,70,0,0
52809,-105.96003831942,4,1,0,70,0,0
53002,-105.264946806703,4,1,0,70,0,0
53102,-104.712041884817,4,1,0,70,0,0
53390,-103.894796873427,4,1,0,70,0,0
53583,-103.226451569895,4,1,0,70,0,0
53680,-102.893783846639,4,1,0,70,0,0
53777,-102.563253411048,4,1,0,70,0,0
53873,-102.238214710154,4,1,0,70,0,0
53970,-101.911876007766,4,1,0,70,0,0
54164,-101.26540888729,4,1,0,70,0,0
54261,-100.945241199478,4,1,0,70,0,0
54357,-100.630361320509,4,1,0,70,0,0
54551,-100,4,1,0,70,0,0
55035,-100.335257318633,4,1,0,70,0,0
55132,-100.672770148426,4,1,0,70,0,0
55228,-101.009046624913,4,1,0,70,0,0
55325,-101.351115455783,4,1,0,70,0,0
55519,-102.042251045731,4,1,0,70,0,0
55712,-102.739241223103,4,1,0,70,0,0
55809,-103.093149614688,4,1,0,70,0,0
55906,-103.449504668235,4,1,0,70,0,0
56099,-104.165919121605,4,1,0,70,0,0
56293,-104.896115627823,4,1,0,70,0,0
56486,-105.632777818208,4,1,0,70,0,0
56583,-106.006938104802,4,1,0,70,0,0
56680,-106.383758428613,4,1,0,70,0,0
56777,-106.763267257548,4,1,0,70,0,0
56873,-107.141539029341,4,1,0,70,0,0
57067,-107.914203932939,4,1,0,70,0,0
57261,-108.698094132624,4,1,0,70,0,0
57357,-109.090225846454,4,1,0,70,0,0
57454,-109.489326393603,4,1,0,70,0,0
57648,-110.296352583587,4,1,0,70,0,0
57841,-111.111111111111,4,1,0,70,0,0
58228,-108.844254661114,4,1,0,70,0,0
58422,-107.742350710571,4,1,0,70,0,0
58615,-106.668044361783,4,1,0,70,0,0
59002,-104.577149707069,4,1,0,70,0,0
59196,-103.559545902928,4,1,0,70,0,0
59296,-102.564102564103,4,1,0,70,0,0
59583,-101.587613986748,4,1,0,70,0,0
59777,-100.627091659356,4,1,0,70,0,0
59970,-99.6893760159657,4,1,0,70,0,0
60067,-99.2246571831347,4,1,0,70,0,0
60164,-98.7642509766404,4,1,0,70,0,0
60357,-97.8607766928935,4,1,0,70,0,0
60454,-97.4129118502792,4,1,0,70,0,0
60551,-96.9691276848895,4,1,0,70,0,0
60648,-96.5293686786043,4,1,0,70,0,0
60744,-96.0980529051276,4,1,0,70,0,0
60844,-100,4,1,0,80,0,0
60941,-95.2380952380952,4,1,0,80,0,1
75844,-97.5609756097561,4,1,0,80,0,1
76425,387.096774193548,4,1,0,80,1,0
76425,-100,4,1,0,80,0,0
87941,-111.111111111111,4,1,0,60,0,0

[HitObjects]
256,192,554,5,8,0:0:0:0:
256,192,941,1,0,0:0:0:0:
256,192,1328,1,8,0:0:0:0:
256,192,1522,1,8,0:0:0:0:
256,192,1618,1,0,0:0:0:0:
256,192,1812,1,0,0:0:0:0:
256,192,1909,1,8,0:0:0:0:
256,192,2102,1,0,0:0:0:0:
256,192,2199,1,0,0:0:0:0:
256,192,2296,1,0,0:0:0:0:
256,192,2489,1,12,0:0:0:0:
256,192,3457,1,0,0:0:0:0:
256,192,3554,1,0,0:0:0:0:
256,192,3651,1,8,0:0:0:0:
256,192,3941,1,8,0:0:0:0:
256,192,4231,1,8,0:0:0:0:
256,192,4425,1,8,0:0:0:0:
256,192,4618,1,0,0:0:0:0:
256,192,4715,1,0,0:0:0:0:
256,192,4812,1,8,0:0:0:0:
256,192,5005,1,0,0:0:0:0:
256,192,5199,1,12,0:0:0:0:
256,192,5393,1,0,0:0:0:0:
256,192,5489,1,0,0:0:0:0:
256,192,5586,1,8,0:0:0:0:
256,192,5973,1,8,0:0:0:0:
256,192,6167,1,0,0:0:0:0:
256,192,6264,1,0,0:0:0:0:
256,192,6360,1,8,0:0:0:0:
256,192,6457,1,8,0:0:0:0:
256,192,6554,1,0,0:0:0:0:
256,192,6747,1,8,0:0:0:0:
256,192,6941,1,8,0:0:0:0:
256,192,7038,1,0,0:0:0:0:
256,192,7135,1,8,0:0:0:0:
256,192,7522,1,0,0:0:0:0:
256,192,7715,1,8,0:0:0:0:
256,192,7812,1,0,0:0:0:0:
256,192,7909,1,8,0:0:0:0:
256,192,8005,1,0,0:0:0:0:
256,192,8102,1,8,0:0:0:0:
256,192,8296,1,0,0:0:0:0:
256,192,8489,1,8,0:0:0:0:
256,192,8586,1,8,0:0:0:0:
256,192,8683,1,0,0:0:0:0:
256,192,8876,1,0,0:0:0:0:
256,192,9070,1,8,0:0:0:0:
256,192,9264,1,0,0:0:0:0:
256,192,9360,1,8,0:0:0:0:
256,192,9651,1,0,0:0:0:0:
256,192,9747,1,0,0:0:0:0:
256,192,9844,1,8,0:0:0:0:
256,192,10038,1,8,0:0:0:0:
256,192,10231,1,0,0:0:0:0:
256,192,10425,1,8,0:0:0:0:
256,192,10618,1,0,0:0:0:0:
256,192,10909,1,0,0:0:0:0:
256,192,11199,1,0,0:0:0:0:
256,192,11393,1,12,0:0:0:0:
256,192,11586,1,0,0:0:0:0:
256,192,11683,1,8,0:0:0:0:
256,192,11780,1,8,0:0:0:0:
256,192,12167,1,8,0:0:0:0:
256,192,12360,1,0,0:0:0:0:
256,192,12457,1,8,0:0:0:0:
256,192,12554,1,0,0:0:0:0:
256,192,12651,1,8,0:0:0:0:
256,192,12747,1,0,0:0:0:0:
256,192,12941,1,8,0:0:0:0:
256,192,13135,1,8,0:0:0:0:
256,192,13231,1,8,0:0:0:0:
256,192,13328,1,0,0:0:0:0:
256,192,13715,1,0,0:0:0:0:
256,192,13909,1,8,0:0:0:0:
256,192,14005,1,8,0:0:0:0:
256,192,14102,1,0,0:0:0:0:
256,192,14199,1,0,0:0:0:0:
256,192,14296,1,8,0:0:0:0:
256,192,14489,1,4,0:0:0:0:
256,192,14683,1,8,0:0:0:0:
256,192,14780,1,0,0:0:0:0:
256,192,14876,1,8,0:0:0:0:
256,192,15070,1,0,0:0:0:0:
256,192,15264,1,8,0:0:0:0:
256,192,15360,1,0,0:0:0:0:
256,192,15554,1,0,0:0:0:0:
256,192,15651,1,8,0:0:0:0:
256,192,15844,1,0,0:0:0:0:
256,192,16038,1,12,0:0:0:0:
256,192,16231,12,12,17393,0:0:0:0:
256,192,17586,5,4,0:0:0:0:
256,192,19135,1,0,0:0:0:0:
256,192,19328,1,0,0:0:0:0:
256,192,19909,1,8,0:0:0:0:
256,192,20005,1,0,0:0:0:0:
256,192,20199,1,0,0:0:0:0:
256,192,20296,1,8,0:0:0:0:
256,192,20683,1,4,0:0:0:0:
256,192,20876,1,8,0:0:0:0:
256,192,21070,1,8,0:0:0:0:
256,192,21264,1,0,0:0:0:0:
256,192,21457,1,8,0:0:0:0:
256,192,21554,1,0,0:0:0:0:
256,192,21747,1,0,0:0:0:0:
256,192,21844,1,8,0:0:0:0:
256,192,22038,1,0,0:0:0:0:
256,192,22231,1,8,0:0:0:0:
256,192,22425,1,8,0:0:0:0:
256,192,22618,1,0,0:0:0:0:
256,192,22812,1,8,0:0:0:0:
256,192,22909,1,8,0:0:0:0:
256,192,23005,1,0,0:0:0:0:
256,192,23199,1,8,0:0:0:0:
256,192,23296,1,8,0:0:0:0:
256,192,23393,1,8,0:0:0:0:
256,192,23586,1,8,0:0:0:0:
256,192,23780,1,4,0:0:0:0:
256,192,25328,1,0,0:0:0:0:
256,192,25522,1,0,0:0:0:0:
256,192,26102,1,8,0:0:0:0:
256,192,26199,1,8,0:0:0:0:
256,192,26296,1,8,0:0:0:0:
256,192,26393,1,8,0:0:0:0:
256,192,26489,1,0,0:0:0:0:
256,192,26876,1,4,0:0:0:0:
256,192,27070,1,8,0:0:0:0:
256,192,27167,1,8,0:0:0:0:
256,192,27264,1,8,0:0:0:0:
256,192,27457,1,0,0:0:0:0:
256,192,27651,1,8,0:0:0:0:
256,192,27747,1,0,0:0:0:0:
256,192,27941,1,0,0:0:0:0:
256,192,28038,1,8,0:0:0:0:
256,192,28231,1,0,0:0:0:0:
256,192,28425,1,8,0:0:0:0:
256,192,28618,1,0,0:0:0:0:
256,192,28715,1,0,0:0:0:0:
256,192,28812,1,8,0:0:0:0:
256,192,29005,1,0,0:0:0:0:
256,192,29102,1,8,0:0:0:0:
256,192,29296,1,8,0:0:0:0:
256,192,29393,1,0,0:0:0:0:
256,192,29586,1,8,0:0:0:0:
256,192,29973,1,12,0:0:0:0:
256,192,30360,1,8,0:0:0:0:
256,192,30554,1,0,0:0:0:0:
256,192,30651,1,0,0:0:0:0:
256,192,30747,1,8,0:0:0:0:
256,192,30941,1,8,0:0:0:0:
256,192,31135,1,0,0:0:0:0:
256,192,31328,1,8,0:0:0:0:
256,192,31425,1,8,0:0:0:0:
256,192,31522,1,0,0:0:0:0:
256,192,31715,1,0,0:0:0:0:
256,192,31909,1,8,0:0:0:0:
256,192,32102,1,0,0:0:0:0:
256,192,32199,1,0,0:0:0:0:
256,192,32296,1,8,0:0:0:0:
256,192,32489,1,0,0:0:0:0:
256,192,32683,1,8,0:0:0:0:
256,192,32876,1,0,0:0:0:0:
256,192,33070,1,8,0:0:0:0:
256,192,33457,1,0,0:0:0:0:
256,192,33651,1,0,0:0:0:0:
256,192,33844,1,8,0:0:0:0:
256,192,34038,1,0,0:0:0:0:
256,192,34135,1,0,0:0:0:0:
256,192,34231,1,8,0:0:0:0:
256,192,34425,1,0,0:0:0:0:
256,192,34618,1,8,0:0:0:0:
256,192,34909,1,0,0:0:0:0:
256,192,35005,1,8,0:0:0:0:
256,192,35199,1,8,0:0:0:0:
256,192,35393,1,0,0:0:0:0:
256,192,35586,1,8,0:0:0:0:
256,192,35780,1,8,0:0:0:0:
256,192,35973,1,0,0:0:0:0:
256,192,36167,1,12,0:0:0:0:
256,192,36554,1,0,0:0:0:0:
256,192,36747,1,0,0:0:0:0:
256,192,36941,1,8,0:0:0:0:
256,192,37135,1,0,0:0:0:0:
256,192,37231,1,0,0:0:0:0:
256,192,37328,1,8,0:0:0:0:
256,192,37522,1,0,0:0:0:0:
256,192,37715,1,8,0:0:0:0:
256,192,38102,1,8,0:0:0:0:
256,192,38296,1,0,0:0:0:0:
256,192,38489,1,8,0:0:0:0:
256,192,38586,1,8,0:0:0:0:
256,192,38683,1,0,0:0:0:0:
256,192,38876,1,8,0:0:0:0:
256,192,39070,1,0,0:0:0:0:
256,192,39264,1,8,0:0:0:0:
256,192,39457,1,0,0:0:0:0:
256,192,39554,1,0,0:0:0:0:
256,192,39651,1,8,0:0:0:0:
256,192,39844,1,8,0:0:0:0:
256,192,40038,1,0,0:0:0:0:
256,192,40231,1,8,0:0:0:0:
256,192,40328,1,8,0:0:0:0:
256,192,40425,1,8,0:0:0:0:
256,192,40618,1,8,0:0:0:0:
256,192,40812,1,0,0:0:0:0:
256,192,40909,1,8,0:0:0:0:
256,192,41102,1,8,0:0:0:0:
256,192,41199,1,0,0:0:0:0:
256,192,41393,1,8,0:0:0:0:
256,192,41586,1,0,0:0:0:0:
256,192,41683,1,0,0:0:0:0:
256,192,41780,1,0,0:0:0:0:
256,192,41973,1,8,0:0:0:0:
256,192,42360,1,4,0:0:0:0:
256,192,42747,1,8,0:0:0:0:
256,192,43135,1,0,0:0:0:0:
256,192,43328,1,0,0:0:0:0:
256,192,43425,1,0,0:0:0:0:
256,192,43522,1,8,0:0:0:0:
256,192,43715,1,8,0:0:0:0:
256,192,43909,1,0,0:0:0:0:
256,192,44296,1,8,0:0:0:0:
256,192,44489,1,0,0:0:0:0:
256,192,44780,1,8,0:0:0:0:
256,192,44876,1,0,0:0:0:0:
256,192,45070,1,8,0:0:0:0:
256,192,45264,1,8,0:0:0:0:
256,192,45457,1,4,0:0:0:0:
256,192,45844,1,8,0:0:0:0:
256,192,46231,1,0,0:0:0:0:
256,192,46425,1,0,0:0:0:0:
256,192,46522,1,0,0:0:0:0:
256,192,46618,1,8,0:0:0:0:
256,192,46812,1,0,0:0:0:0:
256,192,47005,1,12,0:0:0:0:
256,192,47296,1,0,0:0:0:0:
256,192,47393,1,8,0:0:0:0:
256,192,47586,1,0,0:0:0:0:
256,192,47780,1,8,0:0:0:0:
256,192,47876,1,8,0:0:0:0:
256,192,47973,1,0,0:0:0:0:
256,192,48167,1,8,0:0:0:0:
256,192,48360,1,4,0:0:0:0:
256,192,48747,1,0,0:0:0:0:
256,192,48844,1,0,0:0:0:0:
256,192,48941,1,0,0:0:0:0:
256,192,49135,1,8,0:0:0:0:
256,192,49522,1,8,0:0:0:0:
256,192,49618,1,8,0:0:0:0:
256,192,49715,1,8,0:0:0:0:
256,192,49909,1,0,0:0:0:0:
256,192,50296,1,8,0:0:0:0:
256,192,50393,1,8,0:0:0:0:
256,192,50489,1,8,0:0:0:0:
256,192,50683,1,0,0:0:0:0:
256,192,50876,1,8,0:0:0:0:
256,192,50973,1,8,0:0:0:0:
256,192,51070,1,0,0:0:0:0:
256,192,51264,1,0,0:0:0:0:
256,192,51457,1,12,0:0:0:0:
256,192,51844,1,0,0:0:0:0:
256,192,51941,1,0,0:0:0:0:
256,192,52038,1,8,0:0:0:0:
256,192,52231,1,0,0:0:0:0:
256,192,52618,1,8,0:0:0:0:
256,192,52715,1,0,0:0:0:0:
256,192,52812,1,8,0:0:0:0:
256,192,53005,1,4,0:0:0:0:
256,192,53393,1,8,0:0:0:0:
256,192,53586,1,0,0:0:0:0:
256,192,53780,1,8,0:0:0:0:
256,192,53876,1,8,0:0:0:0:
256,192,53973,1,0,0:0:0:0:
256,192,54167,1,8,0:0:0:0:
256,192,54360,1,0,0:0:0:0:
256,192,54554,1,12,0:0:0:0:
256,192,54941,1,8,0:0:0:0:
256,192,55038,1,8,0:0:0:0:
256,192,55135,1,8,0:0:0:0:
256,192,55328,1,0,0:0:0:0:
256,192,55522,1,8,0:0:0:0:
256,192,55715,1,0,0:0:0:0:
256,192,55812,1,0,0:0:0:0:
256,192,55909,1,8,0:0:0:0:
256,192,56102,1,8,0:0:0:0:
256,192,56296,1,0,0:0:0:0:
256,192,56489,1,8,0:0:0:0:
256,192,56586,1,8,0:0:0:0:
256,192,56683,1,8,0:0:0:0:
256,192,56876,1,8,0:0:0:0:
256,192,57070,1,0,0:0:0:0:
256,192,57264,1,8,0:0:0:0:
256,192,57360,1,8,0:0:0:0:
256,192,57457,1,0,0:0:0:0:
256,192,57651,1,0,0:0:0:0:
256,192,57844,1,12,0:0:0:0:
256,192,58231,1,0,0:0:0:0:
256,192,58425,1,4,0:0:0:0:
256,192,58618,1,12,0:0:0:0:
256,192,59005,1,0,0:0:0:0:
256,192,59199,1,12,0:0:0:0:
256,192,59586,1,0,0:0:0:0:
256,192,59780,1,8,0:0:0:0:
256,192,59973,1,0,0:0:0:0:
256,192,60167,1,8,0:0:0:0:
256,192,60360,1,0,0:0:0:0:
256,192,60554,1,8,0:0:0:0:
256,192,60651,1,8,0:0:0:0:
256,192,60747,1,8,0:0:0:0:
256,192,60941,1,4,0:0:0:0:
256,192,61135,1,8,0:0:0:0:
256,192,61328,1,8,0:0:0:0:
256,192,61522,1,0,0:0:0:0:
256,192,61715,1,8,0:0:0:0:
256,192,61812,1,8,0:0:0:0:
256,192,61909,1,0,0:0:0:0:
256,192,62102,1,8,0:0:0:0:
256,192,62296,1,0,0:0:0:0:
256,192,62393,1,0,0:0:0:0:
256,192,62489,1,0,0:0:0:0:
256,192,62683,1,8,0:0:0:0:
256,192,62876,1,8,0:0:0:0:
256,192,63070,1,0,0:0:0:0:
256,192,63264,1,8,0:0:0:0:
256,192,63360,1,0,0:0:0:0:
256,192,63457,1,8,0:0:0:0:
256,192,63651,1,8,0:0:0:0:
256,192,63844,1,0,0:0:0:0:
256,192,64231,1,8,0:0:0:0:
256,192,64328,1,0,0:0:0:0:
256,192,64425,1,8,0:0:0:0:
256,192,64618,1,0,0:0:0:0:
256,192,64812,1,8,0:0:0:0:
256,192,65005,1,0,0:0:0:0:
256,192,65102,1,8,0:0:0:0:
256,192,65199,1,0,0:0:0:0:
256,192,65393,1,8,0:0:0:0:
256,192,65586,1,4,0:0:0:0:
256,192,65973,1,12,0:0:0:0:
256,192,66360,1,0,0:0:0:0:
256,192,66554,1,4,0:0:0:0:
256,192,66747,1,12,0:0:0:0:
256,192,67135,1,4,0:0:0:0:
256,192,67328,1,8,0:0:0:0:
256,192,67522,1,8,0:0:0:0:
256,192,67715,1,0,0:0:0:0:
256,192,67909,1,8,0:0:0:0:
256,192,68005,1,8,0:0:0:0:
256,192,68102,1,0,0:0:0:0:
256,192,68296,1,0,0:0:0:0:
256,192,68489,1,8,0:0:0:0:
256,192,68586,1,8,0:0:0:0:
256,192,68683,1,8,0:0:0:0:
256,192,68876,1,0,0:0:0:0:
256,192,69070,1,8,0:0:0:0:
256,192,69264,1,0,0:0:0:0:
256,192,69457,1,8,0:0:0:0:
256,192,69554,1,0,0:0:0:0:
256,192,69651,1,8,0:0:0:0:
256,192,69844,1,0,0:0:0:0:
256,192,70038,1,8,0:0:0:0:
256,192,70425,1,0,0:0:0:0:
256,192,70522,1,8,0:0:0:0:
256,192,70618,1,0,0:0:0:0:
256,192,70812,1,12,0:0:0:0:
256,192,71005,1,0,0:0:0:0:
256,192,71199,1,8,0:0:0:0:
256,192,71296,1,8,0:0:0:0:
256,192,71393,1,0,0:0:0:0:
256,192,71586,1,12,0:0:0:0:
256,192,71780,1,4,0:0:0:0:
256,192,71973,1,8,0:0:0:0:
256,192,72167,1,8,0:0:0:0:
256,192,72360,1,0,0:0:0:0:
256,192,72457,1,0,0:0:0:0:
256,192,72554,1,8,0:0:0:0:
256,192,72651,1,8,0:0:0:0:
256,192,72747,1,0,0:0:0:0:
256,192,72941,1,8,0:0:0:0:
256,192,73328,1,4,0:0:0:0:
256,192,73522,1,8,0:0:0:0:
256,192,73618,1,8,0:0:0:0:
256,192,73715,1,8,0:0:0:0:
256,192,73909,1,0,0:0:0:0:
256,192,74102,1,8,0:0:0:0:
256,192,74296,1,0,0:0:0:0:
256,192,74393,1,8,0:0:0:0:
256,192,74683,1,0,0:0:0:0:
256,192,74876,1,8,0:0:0:0:
256,192,75070,1,0,0:0:0:0:
256,192,75167,1,0,0:0:0:0:
256,192,75264,1,8,0:0:0:0:
256,192,75457,1,8,0:0:0:0:
256,192,75651,1,0,0:0:0:0:
256,192,76038,1,4,0:0:0:0:
256,192,76425,1,12,0:0:0:0:
256,192,76619,1,0,0:0:0:0:
256,192,76715,1,0,0:0:0:0:
256,192,76812,1,8,0:0:0:0:
256,192,77199,1,8,0:0:0:0:
256,192,77393,1,0,0:0:0:0:
256,192,77490,1,0,0:0:0:0:
256,192,77586,1,8,0:0:0:0:
256,192,77683,1,8,0:0:0:0:
256,192,77780,1,0,0:0:0:0:
256,192,77973,1,8,0:0:0:0:
256,192,78167,1,8,0:0:0:0:
256,192,78264,1,0,0:0:0:0:
256,192,78361,1,8,0:0:0:0:
256,192,78748,1,0,0:0:0:0:
256,192,78941,1,8,0:0:0:0:
256,192,79038,1,0,0:0:0:0:
256,192,79135,1,8,0:0:0:0:
256,192,79231,1,0,0:0:0:0:
256,192,79328,1,8,0:0:0:0:
256,192,79522,1,0,0:0:0:0:
256,192,79715,1,8,0:0:0:0:
256,192,79812,1,8,0:0:0:0:
256,192,79909,1,0,0:0:0:0:
256,192,80102,1,0,0:0:0:0:
256,192,80296,1,8,0:0:0:0:
256,192,80490,1,0,0:0:0:0:
256,192,80586,1,8,0:0:0:0:
256,192,80877,1,0,0:0:0:0:
256,192,80973,1,0,0:0:0:0:
256,192,81070,1,8,0:0:0:0:
256,192,81264,1,8,0:0:0:0:
256,192,81457,1,0,0:0:0:0:
256,192,81651,1,8,0:0:0:0:
256,192,81844,1,0,0:0:0:0:
256,192,82135,1,0,0:0:0:0:
256,192,82425,1,0,0:0:0:0:
256,192,82619,1,12,0:0:0:0:
256,192,82812,1,0,0:0:0:0:
256,192,82909,1,8,0:0:0:0:
256,192,83006,1,8,0:0:0:0:
256,192,83393,1,8,0:0:0:0:
256,192,83586,1,0,0:0:0:0:
256,192,83683,1,8,0:0:0:0:
256,192,83780,1,0,0:0:0:0:
256,192,83877,1,8,0:0:0:0:
256,192,83973,1,0,0:0:0:0:
256,192,84167,1,8,0:0:0:0:
256,192,84361,1,8,0:0:0:0:
256,192,84457,1,8,0:0:0:0:
256,192,84554,1,0,0:0:0:0:
256,192,84941,1,0,0:0:0:0:
256,192,85135,1,8,0:0:0:0:
256,192,85231,1,8,0:0:0:0:
256,192,85328,1,0,0:0:0:0:
256,192,85425,1,0,0:0:0:0:
256,192,85522,1,8,0:0:0:0:
256,192,85715,1,4,0:0:0:0:
256,192,85909,1,8,0:0:0:0:
256,192,86006,1,0,0:0:0:0:
256,192,86102,1,8,0:0:0:0:
256,192,86296,1,0,0:0:0:0:
256,192,86490,1,8,0:0:0:0:
256,192,86586,1,0,0:0:0:0:
256,192,86779,1,0,0:0:0:0:
256,192,86876,1,8,0:0:0:0:
256,192,87070,1,0,0:0:0:0:
256,192,87264,1,12,0:0:0:0:
256,192,88038,5,0,0:0:0:0:
256,192,88328,1,0,0:0:0:0:
256,192,88618,1,0,0:0:0:0:
