osu file format v14

[General]
AudioFilename: audio.mp3
AudioLeadIn: 0
PreviewTime: 60885
Countdown: 0
SampleSet: Soft
StackLeniency: 0.4
Mode: 0
LetterboxInBreaks: 0
WidescreenStoryboard: 1

[Editor]
DistanceSpacing: 1.1
BeatDivisor: 4
GridSize: 32
TimelineZoom: 1

[Metadata]
Title:Iden Tei Tei Meltdown (TV Size)
TitleUnicode:アイデン貞貞メルトダウン (TV Size)
Artist:Enako feat. Pmarusama.
ArtistUnicode:えなこ feat. P丸様。
Creator:-Yua
Version:Yuuma's Normal
Source:お兄ちゃんはおしまい!
Tags:anime Japanese pop jpop j-pop opening op oniichan wa oshimai I'm Now Your Sister! おにまい onimai onii-chan im identity pmaru-sama. p-maru-sama. yua cclemon yuuma ogura yui kanui _karaage karaage wen
BeatmapID:3941232
BeatmapSetID:1910726

[Difficulty]
HPDrainRate:3
CircleSize:3
OverallDifficulty:4
ApproachRate:6
SliderMultiplier:1
SliderTickRate:1

[Events]
//Background and Video events
0,0,"BG.jpg",0,0
//Break Periods
2,17827,19674
2,24020,25867
//Storyboard Layer 0 (Background)
//Storyboard Layer 1 (Fail)
//Storyboard Layer 2 (Pass)
//Storyboard Layer 3 (Foreground)
//Storyboard Layer 4 (Overlay)
//Storyboard Sound Samples

[TimingPoints]
595,387.096774193548,4,2,1,50,1,0
5240,-100,4,2,1,60,0,0
17627,-100,4,2,1,50,0,0
42401,-100,4,2,1,40,0,0
51498,-100,4,2,1,50,0,0
54594,-100,4,2,1,60,0,0
57885,-100,4,2,1,55,0,0
60982,-100,4,2,1,70,0,1
76465,-100,4,2,1,60,0,0
87304,-100,4,2,1,45,0,0
89046,-100,4,2,1,5,0,0

[Colours]
Combo1 : 255,255,187
Combo2 : 222,210,205
Combo3 : 255,207,185

[HitObjects]
16,228,595,5,8,0:0:0:0:
108,189,982,1,8,0:0:0:0:
173,264,1369,2,0,L|155:352,2,75,8|8|8,0:0|0:0|0:0,0:0:0:0:
210,230,2143,1,8,0:0:0:0:
275,307,2530,6,0,P|330:310|380:190,1,200,4|0,1:0|0:0,0:0:0:0:
364,147,3498,1,8,0:0:0:0:
364,147,3691,2,0,L|448:131,2,75,8|8|8,0:0|0:0|0:0,0:0:0:0:
321,121,4465,2,0,L|200:105,1,100,8|8,0:0|0:3,0:0:0:0:
149,38,5240,6,0,P|114:42|94:48,1,50,4|2,1:0|0:0,0:0:0:0:
60,77,5627,1,8,0:0:0:0:
8,163,6014,2,0,L|20:216,1,50,2|2,1:2|3:2,0:0:0:0:
38,257,6401,2,0,P|79:292|128:288,1,100,10|0,0:0|1:2,0:0:0:0:
171,277,6982,1,2,3:2:0:0:
171,277,7175,1,10,0:0:0:0:
240,348,7562,2,0,L|303:334,1,50,2|2,1:2|3:2,0:0:0:0:
336,322,7949,1,10,0:0:0:0:
433,297,8336,6,0,P|442:261|438:229,1,50,0|2,1:2|3:2,0:0:0:0:
420,205,8724,1,10,0:0:0:0:
330,162,9111,2,0,P|326:131|328:107,1,50,2|2,1:2|3:2,0:0:0:0:
350,67,9498,2,0,L|410:57,1,50,8|2,0:0|3:2,0:0:0:0:
449,52,9885,1,2,1:2:0:0:
497,140,10272,1,10,0:0:0:0:
419,205,10659,2,0,L|334:221,2,75,2|2|2,1:2|3:2|3:2,0:0:0:0:
457,237,11433,6,0,L|442:298,1,50,4|2,1:0|3:2,0:0:0:0:
430,334,11820,1,10,0:0:0:0:
335,368,12207,2,0,L|318:302,1,50,2|2,1:2|3:2,0:0:0:0:
290,283,12594,2,0,P|256:255|194:256,1,100,10|0,0:0|1:2,0:0:0:0:
159,280,13175,1,2,3:2:0:0:
159,280,13369,1,10,0:0:0:0:
87,350,13756,2,0,P|64:324|59:303,1,50,2|2,1:2|3:2,0:0:0:0:
44,262,14143,1,10,0:0:0:0:
40,163,14530,6,0,L|93:152,1,50,4|2,1:2|3:2,0:0:0:0:
137,143,14917,1,10,0:0:0:0:
236,158,15304,2,0,L|315:171,2,75,2|2|2,1:2|3:2|3:2,0:0:0:0:
219,110,16078,2,0,P|251:51|455:91,1,300,6|4,1:0|0:3,0:0:0:0:
498,164,17627,5,4,0:0:0:0:
67,41,20724,6,0,L|54:106,1,50,6|2,1:0|3:2,0:0:0:0:
47,139,21111,1,10,0:0:0:0:
17,233,21498,2,0,P|51:237|117:208,1,100,2|8,1:2|0:0,0:0:0:0:
196,157,22272,2,0,P|223:147|260:149,1,50,2|2,1:2|3:2,0:0:0:0:
288,169,22659,2,0,L|276:228,2,50,10|2|0,0:0|3:2|1:2,0:0:0:0:
336,153,23240,1,2,3:2:0:0:
336,153,23433,2,0,P|371:164|432:189,1,100,10|4,0:0|1:0,0:0:0:0:
95,327,26917,6,0,L|86:274,1,50,6|2,1:0|0:0,0:0:0:0:
77,228,27304,1,10,0:0:0:0:
14,152,27691,2,0,P|53:129|124:141,1,100,2|8,1:2|0:0,0:0:0:0:
199,168,28465,2,0,P|239:183|268:180,1,50,2|2,1:2|3:2,0:0:0:0:
287,154,28853,2,0,L|280:97,2,50,10|2|0,0:0|3:2|1:2,0:0:0:0:
329,181,29433,1,4,0:3:0:0:
329,181,29627,1,10,0:0:0:0:
427,190,30014,6,0,P|455:152|449:91,1,100,6|0,1:0|1:2,0:0:0:0:
419,6,30788,2,0,L|360:15,1,50,0|2,1:2|0:0,0:0:0:0:
320,20,31175,2,0,L|261:29,1,50,10|2,0:0|0:0,0:0:0:0:
220,35,31562,1,0,1:2:0:0:
134,85,31949,1,0,1:2:0:0:
101,184,32336,1,0,1:2:0:0:
101,184,32530,2,0,L|35:172,2,50,2|10|2,0:0|0:0|0:0,0:0:0:0:
135,221,33111,6,0,P|165:249|225:246,1,100,2|2,1:2|1:2,0:0:0:0:
306,193,33885,2,0,P|347:162|408:175,1,100,2|10,1:2|0:0,0:0:0:0:
474,224,34659,2,0,L|487:149,2,75,2|2|2,1:2|0:0|0:0,0:0:0:0:
383,257,35627,2,0,L|364:361,1,100,2|2,0:0|0:0,0:0:0:0:
315,360,36207,6,0,P|267:337|211:331,1,100,6|2,1:2|1:2,0:0:0:0:
174,346,36788,2,0,P|132:363|71:367,1,100,2|0,0:0|0:0,0:0:0:0:
35,341,37369,1,8,0:0:0:0:
108,276,37756,2,0,P|121:223|115:165,1,100,2|2,1:2|1:2,0:0:0:0:
18,187,38530,2,0,P|5:134|11:76,1,100,2|10,1:2|0:0,0:0:0:0:
89,29,39304,6,0,L|205:45,1,100,2|2,1:2|1:2,0:0:0:0:
220,81,39885,1,2,0:0:0:0:
220,81,40078,2,0,L|320:98,1,100,0|8,1:2|0:0,0:0:0:0:
372,14,40853,2,0,P|413:52|419:113,2,100,2|8|8,1:2|0:3|0:3,0:0:0:0:
318,97,42014,1,8,0:0:0:0:
370,182,42401,6,0,P|408:207|473:204,1,100,6|8,1:0|0:0,0:0:0:0:
468,305,43175,2,0,P|447:323|419:328,1,50,2|2,1:2|1:2,0:0:0:0:
378,314,43562,2,0,P|342:305|319:303,1,50,10|2,0:0|0:0,0:0:0:0:
281,319,43949,2,0,P|249:331|173:339,1,100,0|8,1:2|0:0,0:0:0:0:
138,320,44530,1,0,1:2:0:0:
90,232,44917,2,0,P|60:225|36:215,2,50,0|10|2,1:2|0:0|0:0,0:0:0:0:
134,207,45498,6,0,L|123:105,1,100,6|10,1:2|0:0,0:0:0:0:
213,66,46272,2,0,L|223:165,1,100,2|10,1:2|0:0,0:0:0:0:
240,262,47046,2,0,P|263:275|320:277,1,75,6|2,1:0|0:0,0:0:0:0:
382,252,47627,2,0,P|432:221|451:133,1,150,2|8,1:2|0:0,0:0:0:0:
437,88,48401,5,6,1:0:0:0:
350,130,48788,2,0,P|313:126|299:122,1,50,2|10,1:2|0:0,0:0:0:0:
254,103,49175,1,2,1:2:0:0:
188,34,49562,2,0,P|151:39|121:49,1,50,2|10,1:2|0:0,0:0:0:0:
98,74,49949,2,0,L|78:191,1,100,2|2,1:2|1:2,0:0:0:0:
71,221,50530,1,10,0:0:0:0:
71,221,50724,2,0,L|84:324,1,100,2|0,0:0|1:2,0:0:0:0:
92,369,51304,1,8,0:0:0:0:
92,369,51498,5,6,1:0:0:0:
179,314,51885,2,0,P|210:300|242:299,1,50,2|10,1:2|0:0,0:0:0:0:
273,315,52272,1,2,1:2:0:0:
368,353,52659,2,0,P|408:347|427:337,1,50,2|10,1:2|0:0,0:0:0:0:
451,308,53046,1,6,1:2:0:0:
486,216,53433,2,0,L|478:164,1,50,0|8,1:2|0:0,0:0:0:0:
458,121,53820,2,0,P|417:99|360:109,1,100,2|0,0:0|1:2,0:0:0:0:
323,132,54401,1,10,0:0:0:0:
323,132,54594,6,0,P|283:156|210:168,1,100,6|0,1:0|1:2,0:0:0:0:
185,149,55175,1,8,0:0:0:0:
122,71,55562,2,0,P|155:55|180:50,1,50,8|0,0:0|1:2,0:0:0:0:
211,25,55949,2,0,P|248:25|275:36,1,50,8|0,0:0|1:2,0:0:0:0:
310,30,56336,1,8,0:0:0:0:
403,73,56724,1,8,0:0:0:0:
446,167,57111,1,8,0:0:0:0:
446,167,57304,2,0,P|486:155|506:141,2,50,2|10|2,1:2|0:0|1:2,0:0:0:0:
412,203,57885,6,0,P|372:193|302:188,1,100,6|10,1:0|0:0,0:0:0:0:
269,212,58465,1,2,1:2:0:0:
269,212,58659,2,0,P|198:233|169:235,1,100,6|10,1:2|0:0,0:0:0:0:
124,218,59240,1,6,1:2:0:0:
43,192,59627,1,2,1:2:0:0:
43,192,59820,2,0,P|28:237|27:254,1,50,2|2,1:2|0:0,0:0:0:0:
46,280,60207,2,0,P|72:329|129:347,1,100,10|2,0:0|1:2,0:0:0:0:
199,330,60982,6,0,L|254:319,1,50,6|2,1:0|0:0,0:0:0:0:
290,304,61369,1,10,0:0:0:0:
365,255,61756,2,0,L|424:265,2,50,2|2|10,1:2|0:0|0:0,0:0:0:0:
325,234,62336,2,0,P|305:192|317:137,1,100,2|2,0:0|0:0,0:0:0:0:
337,96,62917,1,10,0:0:0:0:
421,40,63304,2,0,P|435:70|439:90,1,50,2|2,1:2|0:0,0:0:0:0:
446,140,63691,1,10,0:0:0:0:
446,140,63885,1,2,0:0:0:0:
445,240,64272,6,0,P|493:236|513:228,2,50,2|10|2,0:0|0:0|0:0,0:0:0:0:
396,251,64853,2,0,P|354:238|312:233,2,75,2|2|2,1:2|0:0|0:0,0:0:0:0:
418,295,65627,1,2,1:2:0:0:
330,342,66014,1,10,0:0:0:0:
235,309,66401,2,0,P|205:300|184:297,1,50,2|2,1:2|0:0,0:0:0:0:
141,319,66788,1,12,0:0:0:0:
49,283,67175,6,0,P|37:251|36:230,1,50,6|2,1:0|0:0,0:0:0:0:
44,186,67562,1,10,0:0:0:0:
122,124,67949,2,0,P|116:88|106:68,2,50,2|2|10,1:2|0:0|0:0,0:0:0:0:
140,170,68530,2,0,P|174:195|236:195,1,100,2|2,0:0|0:0,0:0:0:0:
275,175,69111,1,10,0:0:0:0:
360,125,69498,2,0,P|387:116|416:118,1,50,2|2,1:2|0:0,0:0:0:0:
461,133,69885,1,10,0:0:0:0:
461,133,70078,1,2,0:0:0:0:
424,227,70465,6,0,L|437:289,2,50,2|10|2,0:0|0:0|0:0,0:0:0:0:
337,278,71240,2,0,L|350:340,2,50,2|10|2,0:0|0:0|0:0,0:0:0:0:
294,251,71820,2,0,L|236:239,1,50,6|2,1:2|0:0,0:0:0:0:
210,204,72207,2,0,L|152:192,1,50,10|2,0:0|0:0,0:0:0:0:
125,159,72594,1,2,1:2:0:0:
180,77,72982,1,10,0:0:0:0:
276,109,73369,6,0,P|317:121|337:122,1,50,4|2,1:0|0:0,0:0:0:0:
369,101,73756,1,10,0:0:0:0:
444,37,74143,2,0,P|469:70|466:134,1,100,10|8,0:0|0:0,0:0:0:0:
449,173,74724,1,2,1:2:0:0:
449,173,74917,2,0,P|437:214|433:236,1,50,10|2,0:0|0:0,0:0:0:0:
456,265,75304,2,0,P|471:300|483:370,2,100,10|10|6,0:0|0:0|0:0,0:0:0:0:
378,328,76465,6,0,L|322:316,1,50,6|2,1:0|3:2,0:0:0:0:
279,304,76853,1,8,0:0:0:0:
245,207,77240,2,0,L|177:217,1,50,2|2,1:2|3:2,0:0:0:0:
146,223,77627,2,0,P|87:214|51:165,1,100,10|0,0:0|1:2,0:0:0:0:
47,144,78207,1,2,3:2:0:0:
47,144,78401,1,10,0:0:0:0:
108,62,78788,2,0,P|154:72|172:81,1,50,2|2,1:2|3:2,0:0:0:0:
201,96,79175,1,10,0:0:0:0:
299,110,79562,6,0,L|314:54,1,50,0|2,1:2|3:2,0:0:0:0:
351,32,79949,1,10,0:0:0:0:
417,109,80336,2,0,L|404:165,1,50,2|2,1:2|3:2,0:0:0:0:
393,206,80724,2,0,L|380:262,1,50,8|2,0:0|3:2,0:0:0:0:
367,303,81111,1,2,1:2:0:0:
272,267,81498,1,10,0:0:0:0:
177,290,81885,2,0,L|191:382,2,75,2|2|2,1:2|3:2|3:2,0:0:0:0:
142,254,82659,6,0,P|135:226|138:197,1,50,4|2,1:0|3:2,0:0:0:0:
148,157,83046,1,10,0:0:0:0:
251,168,83433,2,0,P|256:140|252:114,1,50,2|2,1:2|3:2,0:0:0:0:
247,69,83820,2,0,P|222:49|138:49,1,100,10|0,0:0|1:2,0:0:0:0:
113,64,84401,1,2,3:2:0:0:
113,64,84594,1,10,0:0:0:0:
34,126,84982,2,0,L|23:194,1,50,2|2,1:2|3:2,0:0:0:0:
44,221,85369,1,10,0:0:0:0:
53,317,85756,6,0,P|81:330|110:328,1,50,4|2,1:0|3:2,0:0:0:0:
149,317,86143,1,10,0:0:0:0:
237,264,86530,2,0,P|283:242|322:240,2,75,2|2|2,1:2|3:2|3:2,0:0:0:0:
237,315,87304,1,6,1:2:0:0:
