osu file format v14

[General]
AudioFilename: audio.mp3
AudioLeadIn: 0
PreviewTime: 60885
Countdown: 0
SampleSet: Soft
StackLeniency: 0.4
Mode: 0
LetterboxInBreaks: 0
WidescreenStoryboard: 1

[Editor]
DistanceSpacing: 1
BeatDivisor: 4
GridSize: 32
TimelineZoom: 1

[Metadata]
Title:Iden Tei Tei Meltdown (TV Size)
TitleUnicode:アイデン貞貞メルトダウン (TV Size)
Artist:Enako feat. Pmarusama.
ArtistUnicode:えなこ feat. P丸様。
Creator:-Yua
Version:Kanui's Insane
Source:お兄ちゃんはおしまい!
Tags:anime Japanese pop jpop j-pop opening op oniichan wa oshimai I'm Now Your Sister! おにまい onimai onii-chan im identity pmaru-sama. p-maru-sama. yua cclemon yuuma ogura yui kanui _karaage karaage wen
BeatmapID:3943575
BeatmapSetID:1910726

[Difficulty]
HPDrainRate:5
CircleSize:4
OverallDifficulty:7.8
ApproachRate:8.7
SliderMultiplier:1.7
SliderTickRate:1

[Events]
//Background and Video events
0,0,"BG.jpg",0,0
//Break Periods
2,17827,18530
2,24020,24724
//Storyboard Layer 0 (Background)
//Storyboard Layer 1 (Fail)
//Storyboard Layer 2 (Pass)
//Storyboard Layer 3 (Foreground)
//Storyboard Layer 4 (Overlay)
//Storyboard Sound Samples

[TimingPoints]
595,387.096774193548,4,2,1,50,1,0
2143,-111.111111111111,4,2,1,50,0,0
2530,-142.857142857143,4,2,1,50,0,0
3498,-117.647058823529,4,2,1,50,0,0
4659,-111.111111111111,4,2,1,50,0,0
5240,-100,4,2,1,60,0,0
6594,-133.333333333333,4,2,2,60,0,0
6788,-100,4,2,1,60,0,0
8143,-133.333333333333,4,2,2,60,0,0
8336,-100,4,2,1,60,0,0
12788,-133.333333333333,4,2,2,60,0,0
12981,-100,4,2,1,60,0,0
14336,-133.333333333333,4,2,2,60,0,0
14530,-100,4,2,1,60,0,0
17627,-111.111111111111,4,2,1,50,0,0
20724,-111.111111111111,4,2,1,50,0,0
30014,-125,4,2,1,50,0,0
42401,-199.999999999999,4,2,1,40,0,0
42788,-90.9090909090908,4,2,1,40,0,0
43175,-111.111111111111,4,2,1,40,0,0
45498,-90.9090909090908,4,2,1,40,0,0
47046,-83.3333333333333,4,2,1,40,0,0
47820,-111.111111111111,4,2,1,40,0,0
48401,-90.9090909090909,4,2,1,40,0,0
48982,-111.111111111111,4,2,1,40,0,0
49175,-90.9090909090909,4,2,1,40,0,0
49756,-111.111111111111,4,2,1,40,0,0
49949,-76.9230769230769,4,2,1,40,0,0
51111,-111.111111111111,4,2,1,40,0,0
51498,-83.3333333333333,4,2,1,50,0,0
51885,-111.111111111111,4,2,1,50,0,0
52272,-83.3333333333333,4,2,1,50,0,0
52659,-111.111111111111,4,2,1,50,0,0
53046,-76.9230769230769,4,2,1,50,0,0
53433,-100,4,2,1,50,0,0
54594,-100,4,2,1,60,0,0
57885,-100,4,2,1,55,0,0
60982,-125,4,2,1,70,0,1
61369,-76.9230769230769,4,2,1,70,0,1
61756,-95.2380952380952,4,2,1,70,0,1
66788,-76.9230769230769,4,2,1,70,0,0
67175,-95.2380952380952,4,2,1,70,0,1
76078,-133.333333333333,4,2,1,70,0,1
76465,-100,4,2,1,60,0,0
77820,-133.333333333333,4,2,2,60,0,0
78014,-100,4,2,1,60,0,0
79369,-133.333333333333,4,2,2,60,0,0
79562,-100,4,2,1,60,0,0
84014,-133.333333333333,4,2,2,60,0,0
84207,-100,4,2,1,60,0,0
85562,-133.333333333333,4,2,2,60,0,0
85756,-100,4,2,1,60,0,0
87304,-100,4,2,1,45,0,0

[Colours]
Combo1 : 255,255,187
Combo2 : 222,210,205
Combo3 : 255,207,185

[HitObjects]
157,214,595,5,0,1:2:0:0:
167,211,691,1,0,1:2:0:0:
357,173,982,5,0,1:2:0:0:
347,176,1078,1,0,1:2:0:0:
241,213,1369,5,8,0:0:0:0:
234,176,1465,1,8,0:0:0:0:
271,170,1562,1,8,0:0:0:0:
278,207,1659,1,8,0:0:0:0:
282,324,1853,5,8,0:0:0:0:
275,287,1949,1,8,0:0:0:0:
173,368,2143,6,0,L|206:349,1,38.2499988327027,8|0,0:0|1:0,0:0:0:0:
400,330,2336,2,0,L|363:319,1,38.2499988327027,8|4,0:3|0:3,0:0:0:0:
256,192,2530,5,4,1:0:0:0:
256,192,3498,6,0,L|248:160,2,24.0833337926865,8|8|8,0:0|0:0|0:0,0:0:0:0:
352,215,3691,5,8,0:0:0:0:
186,261,3982,1,8,0:0:0:0:
235,96,4272,1,8,0:0:0:0:
256,192,4465,5,8,0:0:0:0:
319,95,4659,5,2,0:0:0:0:
319,95,4756,2,0,L|328:44,1,38.2499988327027,0|8,1:0|0:0,0:0:0:0:
162,126,4949,5,2,0:0:0:0:
162,126,5046,2,0,L|121:99,1,38.2499988327027,0|0,1:0|0:0,0:0:0:0:
256,192,5240,5,4,1:2:0:0:
441,137,5433,1,2,3:2:0:0:
441,137,5530,1,0,3:2:0:0:
441,137,5627,2,0,L|422:225,1,85,8|0,0:0|3:0,0:0:0:0:
306,79,6014,1,2,1:2:0:0:
230,183,6207,1,2,3:2:0:0:
243,188,6304,1,0,3:2:0:0:
256,192,6400,1,10,0:0:0:0:
357,162,6594,6,0,L|316:153,1,31.8750012159348,2|0,3:1|3:2,0:0:0:0:
156,227,6788,6,0,P|112:246|51:258,1,85,0|2,1:2|3:2,0:0:0:0:
104,335,7078,1,0,3:2:0:0:
104,335,7175,2,0,P|150:316|211:303,1,85,10|0,0:0|3:2,0:0:0:0:
374,366,7562,1,2,1:2:0:0:
273,295,7756,1,2,3:2:0:0:
286,298,7853,1,0,3:2:0:0:
298,302,7949,1,10,0:0:0:0:
426,274,8143,6,0,B|443:274|443:274|461:258,1,31.8750012159348,2|0,3:1|0:0,0:0:0:0:
447,172,8336,6,0,P|405:174|369:202,1,85,0|2,1:2|3:2,0:0:0:0:
303,129,8627,1,0,3:2:0:0:
303,129,8724,2,0,L|264:90,1,42.5,10|0,0:0|0:0,0:0:0:0:
333,46,8917,2,0,L|365:79,1,42.5,2|0,3:2|3:2,0:0:0:0:
232,161,9111,2,0,B|166:179|166:179|177:146,1,85,2|2,1:2|3:2,0:0:0:0:
209,48,9401,1,2,3:2:0:0:
209,48,9498,2,0,B|197:102,1,42.5,8|0,0:0|0:0,0:0:0:0:
102,243,9691,1,2,3:2:0:0:
57,231,9788,1,2,3:2:0:0:
31,193,9885,5,2,1:2:0:0:
195,134,10078,1,2,3:2:0:0:
214,215,10272,5,10,0:0:0:0:
69,118,10465,1,2,3:2:0:0:
280,56,10659,5,2,1:2:0:0:
280,56,10756,2,0,P|267:94|259:127,1,42.5,0|0,0:0|3:2,0:0:0:0:
165,61,10949,5,2,3:2:0:0:
165,61,11046,2,0,P|178:23|186:-10,1,42.5,8|0,0:0|0:0,0:0:0:0:
69,118,11240,5,2,3:2:0:0:
90,155,11336,1,8,0:0:0:0:
127,176,11433,1,4,1:0:0:0:
3,294,11627,1,2,3:2:0:0:
3,294,11723,1,0,3:2:0:0:
3,294,11820,2,0,P|39:266|93:260,1,85,10|0,0:0|3:2,0:0:0:0:
231,327,12207,1,2,1:2:0:0:
184,228,12401,1,2,3:2:0:0:
180,240,12498,1,0,3:2:0:0:
176,253,12594,1,10,0:0:0:0:
217,104,12788,6,0,L|226:134,1,31.8750012159348,2|0,3:1|0:0,0:0:0:0:
361,220,12982,6,0,P|314:218|263:188,1,85,0|2,1:2|3:2,0:0:0:0:
304,107,13272,1,0,3:2:0:0:
304,107,13369,2,0,P|351:109|401:137,1,85,10|0,0:0|3:2,0:0:0:0:
475,166,13756,1,2,1:2:0:0:
449,68,13949,1,2,3:2:0:0:
450,51,14046,1,0,3:2:0:0:
459,37,14143,1,10,0:0:0:0:
475,166,14336,6,0,L|464:213,1,31.8750012159348,2|0,3:1|0:0,0:0:0:0:
345,267,14530,5,4,1:2:0:0:
449,341,14724,2,0,L|440:298,1,42.5,2|0,3:2|3:0,0:0:0:0:
274,226,14917,2,0,P|230:226|183:258,1,85,10|0,0:0|3:0,0:0:0:0:
297,332,15207,1,0,3:0:0:0:
297,332,15304,2,0,P|259:351|217:351,1,85,2|0,1:2|3:0,0:0:0:0:
150,312,15594,1,2,3:2:0:0:
150,312,15691,1,8,0:0:0:0:
32,335,15885,6,0,B|96:320,1,42.5,2|0,3:2|3:2,0:0:0:0:
345,267,16078,1,4,1:2:0:0:
256,192,16175,12,4,17627,1:2:0:0:
142,382,19175,5,2,1:2:0:0:
125,304,19369,1,0,1:2:0:0:
139,368,19949,5,10,0:0:0:0:
129,324,20046,1,8,0:0:0:0:
238,292,20240,5,8,0:3:0:0:
243,269,20337,1,2,0:0:0:0:
354,251,20530,5,0,1:0:0:0:
360,241,20627,1,0,1:0:0:0:
366,234,20724,6,0,P|409:223|455:216,1,76.4999976654053,6|2,1:0|3:2,0:0:0:0:
420,122,21014,1,0,3:2:0:0:
420,122,21111,2,0,P|377:133|331:140,1,76.4999976654053,10|0,0:0|3:2,0:0:0:0:
503,152,21498,1,2,1:2:0:0:
266,28,21788,1,2,3:2:0:0:
266,28,21885,2,0,P|269:74|270:121,1,76.4999976654053,8|0,0:0|3:2,0:0:0:0:
184,218,22272,6,0,L|135:228,1,38.2499988327027,2|0,1:2|0:0,0:0:0:0:
133,151,22465,2,0,L|173:142,1,38.2499988327027,2|0,3:2|3:2,0:0:0:0:
266,218,22659,2,0,L|358:237,1,76.4999976654053,10|2,0:0|3:2,0:0:0:0:
416,254,22949,1,2,3:2:0:0:
416,254,23046,1,0,1:2:0:0:
301,304,23240,6,0,L|242:291,1,38.2499988327027,2|0,3:2|3:2,0:0:0:0:
146,225,23433,2,0,P|121:265|123:300,1,76.4999976654053,10|0,0:0|3:2,0:0:0:0:
173,350,23724,1,8,0:0:0:0:
197,344,23820,5,4,1:0:0:0:
370,382,25369,5,0,1:2:0:0:
387,304,25563,1,0,1:2:0:0:
375,363,26143,5,10,0:0:0:0:
377,353,26240,1,8,0:0:0:0:
378,343,26336,1,8,0:0:0:0:
380,333,26433,1,8,0:0:0:0:
381,323,26529,1,10,0:3:0:0:
465,249,26724,1,8,0:3:0:0:
297,169,26917,6,0,P|309:217|318:262,1,76.4999976654053,6|2,1:0|0:0,0:0:0:0:
372,146,27207,1,0,0:0:0:0:
372,146,27304,2,0,P|384:194|393:239,1,76.4999976654053,10|0,0:0|3:2,0:0:0:0:
497,322,27691,1,2,1:2:0:0:
246,356,27982,1,2,3:2:0:0:
246,356,28079,2,0,P|243:310|242:263,1,76.4999976654053,8|0,0:0|3:2,0:0:0:0:
160,143,28465,6,0,P|144:161|136:186,1,38.2499988327027,2|0,1:2|0:0,0:0:0:0:
64,202,28659,2,0,P|71:224|89:244,1,38.2499988327027,2|0,3:2|3:2,0:0:0:0:
217,196,28853,2,0,P|270:181|323:174,1,76.4999976654053,10|2,0:0|3:2,0:0:0:0:
369,164,29143,1,10,0:0:0:0:
369,164,29240,2,0,P|402:156|420:148,1,38.2499988327027,0|8,1:2|0:3,0:0:0:0:
487,137,29433,6,0,P|479:104|471:86,1,38.2499988327027,4|0,0:3|0:0,0:0:0:0:
450,232,29627,2,0,P|404:240|360:257,1,76.4999976654053,10|0,0:0|1:2,0:0:0:0:
401,328,29917,1,0,0:0:0:0:
374,332,30014,6,0,B|301:323|320:281|242:272,2,136,6|0|0,1:0|1:2|1:2,0:0:0:0:
479,309,30982,1,2,0:0:0:0:
503,195,31175,1,10,0:0:0:0:
410,124,31369,5,2,0:0:0:0:
410,124,31465,1,0,0:0:0:0:
410,124,31562,2,0,B|343:131|362:173|289:182,2,136,0|0|0,1:2|1:2|1:2,0:0:0:0:
384,223,32530,1,2,0:0:0:0:
277,162,32724,1,10,0:0:0:0:
133,153,32917,5,2,0:0:0:0:
133,153,33014,1,0,0:0:0:0:
133,153,33111,2,0,P|125:101|101:-2,2,136,2|2|2,1:2|1:2|1:2,0:0:0:0:
78,212,34078,1,0,0:0:0:0:
226,248,34272,2,0,P|235:284|239:321,1,68,10|0,0:0|0:0,0:0:0:0:
325,332,34562,5,0,0:0:0:0:
336,316,34659,2,0,P|321:253|316:196,1,102,2|2,1:2|0:0,0:0:0:0:
309,143,35046,1,0,1:2:0:0:
474,217,35240,1,2,0:0:0:0:
474,217,35336,1,0,0:0:0:0:
474,217,35433,1,0,1:2:0:0:
469,70,35627,2,0,P|462:103|454:136,1,68,2|8,0:0|0:0,0:0:0:0:
388,180,36014,1,2,0:0:0:0:
470,308,36207,6,0,B|426:338|386:347|386:347|350:326|335:304,1,136,6|2,1:2|1:2,0:0:0:0:
218,236,36788,1,2,0:0:0:0:
149,291,36982,2,0,P|98:302|60:314,1,68,0|0,1:2|0:0,0:0:0:0:
44,141,37369,2,0,P|95:130|133:118,1,68,8|2,0:0|0:0,0:0:0:0:
221,190,37756,6,0,B|143:185|166:217|79:213,1,136,2|2,1:2|1:2,0:0:0:0:
243,338,38336,1,0,0:0:0:0:
243,338,38433,1,0,0:0:0:0:
243,338,38530,2,0,P|244:299|260:261,1,68,2|0,1:2|0:0,0:0:0:0:
407,299,38917,2,0,P|406:332|395:365,1,68,10|0,0:0|0:0,0:0:0:0:
339,255,39304,5,2,1:2:0:0:
173,98,39691,2,0,L|221:87,1,34,2|0,1:2|0:0,0:0:0:0:
292,66,39885,2,0,P|231:56|136:41,1,136,2|0,0:0|0:0,0:0:0:0:
336,150,40465,2,0,P|298:159|258:172,1,68,8|0,0:0|0:0,0:0:0:0:
428,79,40853,5,2,1:2:0:0:
413,109,40949,1,8,0:3:0:0:
405,191,41143,5,4,0:3:0:0:
414,207,41240,1,8,0:3:0:0:
482,238,41433,5,0,3:2:0:0:
336,150,41627,5,8,0:3:0:0:
336,150,41724,1,8,0:3:0:0:
336,150,41821,1,8,0:3:0:0:
336,150,41917,1,4,0:3:0:0:
336,150,42014,2,0,P|289:143|209:131,1,102,8|0,0:0|0:0,0:0:0:0:
153,94,42401,6,0,P|141:53|127:19,1,63.75,6|0,1:0|0:0,0:0:0:0:
237,20,42788,6,0,P|190:66|154:214,1,187.000005706787,8|2,0:0|1:2,0:0:0:0:
133,267,43369,1,2,1:2:0:0:
212,355,43562,1,10,0:0:0:0:
339,317,43756,5,2,0:0:0:0:
359,286,43853,1,0,0:0:0:0:
352,250,43949,2,0,P|310:240|263:229,1,76.4999976654053,0|0,1:2|0:0,0:0:0:0:
163,239,44336,1,8,0:0:0:0:
344,130,44530,2,0,P|269:147|195:165,1,152.999995330811,0|0,1:2|1:2,0:0:0:0:
66,283,45111,2,0,P|34:272|17:269,1,38.2499988327027,10|0,0:0|0:0,0:0:0:0:
51,196,45304,2,0,P|83:207|100:210,1,38.2499988327027,2|0,0:0|0:0,0:0:0:0:
227,296,45498,6,0,B|246:262|296:246|342:268|342:268|303:280|281:320,1,187.000005706787,6|10,1:2|0:0,0:0:0:0:
369,351,46078,1,0,0:0:0:0:
369,351,46175,1,0,0:0:0:0:
369,351,46272,1,2,1:2:0:0:
447,352,46465,1,0,1:2:0:0:
512,281,46659,1,10,0:0:0:0:
487,173,46853,5,0,0:0:0:0:
448,149,46949,1,0,0:0:0:0:
407,148,47046,2,0,B|319:171|359:207|269:229,1,152.999995330811,6|2,1:0|0:0,0:0:0:0:
261,242,47433,1,8,0:0:0:0:
106,247,47627,1,2,1:2:0:0:
106,247,47724,1,0,0:0:0:0:
106,247,47820,2,0,P|53:228|18:221,1,76.4999976654053,0|0,0:0|1:2,0:0:0:0:
133,154,48111,1,0,0:0:0:0:
148,165,48207,2,0,P|123:114|117:104,1,38.2499988327027,8|0,0:0|0:0,0:0:0:0:
257,36,48401,6,0,B|244:77|244:77|263:166|211:252,1,187.000005706787,6|2,1:0|1:2,0:0:0:0:
310,290,48982,1,10,0:0:0:0:
340,34,49175,6,0,B|352:75|352:75|333:164|385:250,1,187.000005706787,2|2,1:2|1:2,0:0:0:0:
298,291,49756,1,10,0:0:0:0:
411,129,49949,6,0,B|312:103|191:130|191:130,1,220.999989883423,2|2,1:2|1:2,0:0:0:0:
303,22,50530,1,10,0:0:0:0:
310,179,50724,1,2,0:0:0:0:
310,179,50820,1,0,0:0:0:0:
310,179,50917,1,0,1:2:0:0:
236,214,51111,6,0,P|250:253|254:268,1,38.2499988327027,0|0,1:2|0:0,0:0:0:0:
382,213,51304,2,0,P|368:252|364:267,1,38.2499988327027,8|0,0:0|0:0,0:0:0:0:
196,308,51498,6,0,B|146:306|109:350|109:350|65:360|41:332,1,152.999995330811,6|0,1:0|0:0,0:0:0:0:
42,268,51885,2,0,P|61:268|79:274,1,38.2499988327027,2|0,1:2|0:0,0:0:0:0:
182,384,52078,1,10,0:0:0:0:
312,302,52272,6,0,B|362:300|398:344|398:344|443:354|466:326,1,152.999995330811,2|0,1:2|0:0,0:0:0:0:
466,262,52659,2,0,P|446:262|428:268,1,38.2499988327027,2|0,1:2|0:0,0:0:0:0:
327,382,52852,1,10,0:0:0:0:
233,85,53046,6,0,B|251:166|248:263|248:263,1,165.749992412568,6|0,1:2|0:0,0:0:0:0:
217,334,53433,1,0,1:2:0:0:
69,276,53627,1,8,0:0:0:0:
164,167,53821,1,2,0:0:0:0:
164,167,53917,1,0,1:2:0:0:
164,167,54014,1,0,1:2:0:0:
90,200,54207,1,0,1:2:0:0:
241,176,54401,2,0,L|249:128,1,42.5,10|0,0:0|0:0,0:0:0:0:
275,6,54594,5,6,1:0:0:0:
481,264,54982,1,0,1:2:0:0:
481,264,55078,1,0,1:2:0:0:
481,264,55175,5,8,0:0:0:0:
398,283,55369,1,0,1:2:0:0:
399,115,55562,5,8,0:0:0:0:
420,207,55756,1,0,1:2:0:0:
235,206,55949,5,8,0:0:0:0:
336,182,56143,1,0,1:2:0:0:
338,372,56336,6,0,P|326:328|312:280,1,85,8|0,0:0|1:2,0:0:0:0:
307,263,56627,1,0,1:2:0:0:
307,263,56724,5,8,0:0:0:0:
197,294,56917,1,0,1:2:0:0:
203,77,57111,5,8,0:0:0:0:
235,206,57304,1,2,1:2:0:0:
8,207,57498,5,10,0:0:0:0:
152,165,57691,1,2,1:2:0:0:
139,383,57885,6,0,P|116:302|100:248,1,127.5,6|0,1:0|0:0,0:0:0:0:
80,186,58272,1,10,0:0:0:0:
232,299,58465,1,2,1:2:0:0:
291,91,58659,6,0,P|313:167|336:237,1,127.5,6|0,1:2|0:0,0:0:0:0:
355,287,59046,1,10,0:0:0:0:
182,191,59240,6,0,P|125:176|-4:153,1,170,6|2,1:2|1:2,0:0:0:0:
250,321,59820,2,0,P|221:313|156:302,1,85,2|2,1:2|0:0,0:0:0:0:
416,231,60207,1,10,0:0:0:0:
416,231,60401,1,2,0:0:0:0:
269,201,60594,5,2,1:2:0:0:
298,189,60690,1,2,0:0:0:0:
329,180,60787,1,2,0:0:0:0:
360,171,60884,1,2,0:0:0:0:
421,127,60982,6,0,P|427:86|443:42,1,68,6|2,1:0|0:0,0:0:0:0:
510,112,61272,1,0,0:0:0:0:
510,112,61369,2,0,P|406:85|323:73,1,165.749992412568,10|0,0:0|0:0,0:0:0:0:
273,60,61756,1,2,1:2:0:0:
169,170,61949,1,2,0:0:0:0:
169,170,62046,1,0,0:0:0:0:
169,170,62143,1,10,0:0:0:0:
81,23,62336,6,0,P|89:69|99:113,1,89.2499972763062,2|0,0:0|1:2,0:0:0:0:
239,248,62724,1,2,0:0:0:0:
235,122,62917,1,10,0:0:0:0:
63,235,63111,1,2,0:0:0:0:
173,290,63304,6,0,P|140:276|130:258,1,44.6249986381531,2|0,1:2|0:0,0:0:0:0:
132,192,63498,2,0,P|160:170|181:170,1,44.6249986381531,2|0,0:0|0:0,0:0:0:0:
237,205,63691,2,0,P|241:240|230:258,1,44.6249986381531,10|0,0:0|0:0,0:0:0:0:
247,331,63885,5,2,0:0:0:0:
247,331,63982,1,0,0:0:0:0:
247,331,64078,2,0,L|352:308,1,89.2499972763062,0|2,1:2|0:0,0:0:0:0:
386,323,64369,1,2,0:0:0:0:
432,297,64465,1,10,0:0:0:0:
328,189,64659,1,2,0:0:0:0:
461,97,64853,1,2,1:2:0:0:
497,208,65046,1,2,0:0:0:0:
497,208,65143,2,0,L|446:197,1,44.6249986381531,2|8,0:0|0:0,0:0:0:0:
305,172,65433,5,2,0:0:0:0:
362,10,65627,2,0,B|363:38|360:70|360:70|378:94|390:173,1,133.874995914459,2|0,1:2|0:0,0:0:0:0:
281,153,66014,2,0,B|280:125|283:93|283:93|265:69|253:-10,1,133.874995914459,10|0,0:0|0:0,0:0:0:0:
157,117,66401,1,2,1:2:0:0:
157,117,66594,6,0,L|206:108,1,44.6249986381531,2|0,0:0|0:0,0:0:0:0:
386,80,66788,2,0,P|304:83|287:170,1,165.749992412568,12|8,0:0|0:0,0:0:0:0:
340,212,67175,6,0,P|270:205|190:181,1,133.874995914459,6|0,1:0|0:0,0:0:0:0:
214,281,67562,2,0,P|264:285|318:301,1,89.2499972763062,10|2,0:0|0:0,0:0:0:0:
140,382,67949,1,2,1:2:0:0:
48,298,68143,1,2,0:0:0:0:
48,298,68240,1,0,0:0:0:0:
48,298,68336,1,10,0:0:0:0:
139,171,68530,6,0,P|146:121|152:78,1,89.2499972763062,2|0,0:0|1:2,0:0:0:0:
309,32,68917,1,2,0:0:0:0:
353,138,69111,1,10,0:0:0:0:
302,15,69304,1,2,0:0:0:0:
385,64,69498,6,0,P|404:82|427:96,1,44.6249986381531,2|0,1:2|0:0,0:0:0:0:
403,203,69691,2,0,P|376:210|353:223,1,44.6249986381531,2|0,0:0|0:0,0:0:0:0:
272,149,69885,2,0,P|278:122|278:95,1,44.6249986381531,10|0,0:0|0:0,0:0:0:0:
309,22,70078,5,2,0:0:0:0:
309,22,70175,1,0,0:0:0:0:
309,22,70272,2,0,P|252:37|200:50,1,89.2499972763062,6|2,1:2|0:0,0:0:0:0:
181,57,70562,1,2,0:0:0:0:
139,67,70659,1,10,0:0:0:0:
51,199,70853,1,2,0:0:0:0:
51,199,71046,1,0,1:2:0:0:
220,176,71240,1,2,0:0:0:0:
171,161,71337,1,2,0:0:0:0:
122,148,71433,1,10,0:0:0:0:
189,317,71627,1,2,0:0:0:0:
34,288,71820,6,0,P|77:276|122:258,1,89.2499972763062,6|2,1:2|0:0,0:0:0:0:
342,347,72207,2,0,P|299:359|254:377,1,89.2499972763062,10|2,0:2|0:0,0:0:0:0:
257,375,72498,1,2,0:0:0:0:
257,375,72594,5,2,1:2:0:0:
303,231,72788,1,2,0:0:0:0:
339,79,72982,1,10,0:0:0:0:
489,184,73272,5,8,0:0:0:0:
477,191,73369,2,0,P|467:246|461:280,1,89.2499972763062,4|2,1:0|0:0,0:0:0:0:
448,359,73659,1,2,0:0:0:0:
448,359,73756,1,10,0:0:0:0:
382,255,73949,1,2,0:0:0:0:
208,323,74143,6,0,P|163:326|122:304,1,89.2499972763062,10|0,0:0|1:2,0:0:0:0:
60,260,74433,1,2,0:0:0:0:
60,260,74530,1,8,0:0:0:0:
183,237,74724,1,2,1:2:0:0:
51,87,74917,6,0,L|59:142,1,44.6249986381531,10|0,0:0|0:0,0:0:0:0:
112,195,75111,1,2,0:0:0:0:
248,42,75304,6,0,L|257:97,1,44.6249986381531,10|0,0:0|0:0,0:0:0:0:
234,167,75498,1,2,0:0:0:0:
140,5,75691,5,10,0:0:0:0:
140,5,76078,6,0,B|148:48|148:48|144:67|144:67|153:108,1,95.6250036478044,6|0,0:0|0:0,0:0:0:0:
234,167,76465,5,6,1:0:0:0:
349,87,76659,1,2,3:2:0:0:
349,87,76756,1,0,3:2:0:0:
349,87,76853,2,0,P|403:76|453:62,1,85,8|0,0:0|3:2,0:0:0:0:
322,176,77240,1,2,1:2:0:0:
495,142,77433,1,2,3:2:0:0:
499,128,77530,1,0,3:2:0:0:
503,114,77627,1,10,0:0:0:0:
493,261,77820,6,0,L|462:254,1,31.8750012159348,2|0,3:1|3:2,0:0:0:0:
322,176,78014,6,0,P|364:189|406:195,1,85,0|2,1:2|3:2,0:0:0:0:
388,280,78304,1,0,3:2:0:0:
388,280,78401,2,0,P|348:268|305:262,1,85,10|0,0:0|3:2,0:0:0:0:
121,304,78788,1,2,1:2:0:0:
221,380,78982,1,2,3:2:0:0:
217,366,79079,1,0,3:2:0:0:
213,352,79176,1,10,0:0:0:0:
132,220,79369,6,0,L|137:189,1,31.8750012159348,2|0,3:1|0:0,0:0:0:0:
228,146,79562,6,0,P|217:203|210:246,1,85,0|2,1:2|3:2,0:0:0:0:
303,299,79853,1,0,3:2:0:0:
303,299,79949,2,0,P|326:282|347:277,1,42.5,10|0,0:0|0:0,0:0:0:0:
375,178,80143,2,0,P|392:201|397:222,1,42.5,2|0,3:2|3:2,0:0:0:0:
441,374,80336,2,0,L|344:352,1,85,2|2,1:2|3:2,0:0:0:0:
461,297,80627,1,2,3:2:0:0:
461,297,80724,2,0,L|419:287,1,42.5,8|0,0:0|0:0,0:0:0:0:
297,172,80917,1,2,3:2:0:0:
309,127,81014,1,2,3:2:0:0:
347,101,81111,5,2,1:2:0:0:
190,199,81304,1,2,3:2:0:0:
228,324,81498,5,10,0:0:0:0:
74,261,81691,1,2,3:2:0:0:
219,85,81885,5,2,1:2:0:0:
219,85,81982,2,0,P|227:127|231:145,1,42.5,0|0,0:0|3:2,0:0:0:0:
126,150,82175,5,2,3:2:0:0:
126,150,82272,2,0,P|118:108|114:90,1,42.5,8|0,0:0|0:0,0:0:0:0:
274,225,82465,5,2,3:2:0:0:
232,212,82561,1,8,0:0:0:0:
190,199,82659,1,4,1:0:0:0:
299,322,82853,1,2,3:2:0:0:
299,322,82949,1,0,3:2:0:0:
299,322,83046,2,0,P|339:308|382:294,1,85,10|0,0:0|3:2,0:0:0:0:
484,319,83433,1,2,1:2:0:0:
382,196,83627,1,2,3:2:0:0:
396,200,83724,1,0,3:2:0:0:
410,204,83821,1,10,0:0:0:0:
286,46,84014,6,0,B|277:60|277:60|277:74,1,31.8750012159348,2|0,3:1|0:0,0:0:0:0:
371,118,84207,6,0,P|389:80|385:38,1,85,0|2,1:2|3:2,0:0:0:0:
302,171,84498,1,0,3:2:0:0:
302,171,84594,2,0,P|298:212|316:250,1,85,10|0,0:0|3:2,0:0:0:0:
95,231,84982,1,2,1:2:0:0:
222,258,85175,1,2,3:2:0:0:
226,272,85272,1,0,3:2:0:0:
230,286,85369,1,10,0:0:0:0:
128,358,85562,6,0,L|133:326,1,31.8750012159348,2|0,3:1|0:0,0:0:0:0:
154,171,85756,5,4,1:2:0:0:
21,287,85949,2,0,L|12:242,1,42.5,2|0,3:2|3:0,0:0:0:0:
173,154,86143,2,0,P|220:164|270:182,1,85,10|0,0:0|3:0,0:0:0:0:
280,91,86433,1,0,3:0:0:0:
280,91,86530,2,0,P|238:83|197:67,1,85,2|0,1:2|3:0,0:0:0:0:
124,91,86820,1,2,3:2:0:0:
124,91,86917,1,8,0:0:0:0:
7,53,87111,6,0,L|50:66,1,42.5,2|0,3:2|3:0,0:0:0:0:
330,155,87304,1,6,0:0:0:0:
