osu file format v14

[General]
AudioFilename: audio.mp3
AudioLeadIn: 0
PreviewTime: 69005
Countdown: 0
SampleSet: Normal
StackLeniency: 0.7
Mode: 1
LetterboxInBreaks: 0
WidescreenStoryboard: 1

[Editor]
DistanceSpacing: 0.4
BeatDivisor: 4
GridSize: 32
TimelineZoom: 1.299999

[Metadata]
Title:Iden Tei Tei Meltdown (Imaginary Reality remix)
TitleUnicode:アイデン貞貞メルトダウン (Imaginary Reality remix)
Artist:Enako feat. Pmarusama.
ArtistUnicode:えなこ feat. P丸様。
Creator:Raytoly
Version:Inner Oni
Source:お兄ちゃんはおしまい!
Tags:takehirotei p maru sama. pmaru-sama. p-marusama. p-maru-sama. onii-chan Identity おにまい Onimai Oniichan ha wa Oshimai! big brother is done for! onimai: i'm now your sister! 緒山みはり 石原夏織 緒山まひろ 高野麻里佳 oyama mahiro mihari ishihara kaori kouno marika PCCG.02195 PCCG.02198 Ver. Version Jpop J-pop pop Japanese Electronic Anime オープニングテーマ op opening theme thema
BeatmapID:4111716
BeatmapSetID:1978817

[Difficulty]
HPDrainRate:5
CircleSize:5
OverallDifficulty:6
ApproachRate:10
SliderMultiplier:1.4
SliderTickRate:1

[Events]
//Background and Video events
0,0,"onimai.png",0,80
//Break Periods
//Storyboard Layer 0 (Background)
//Storyboard Layer 1 (Fail)
//Storyboard Layer 2 (Pass)
//Storyboard Layer 3 (Foreground)
//Storyboard Layer 4 (Overlay)
//Storyboard Sound Samples

[TimingPoints]
380,375,4,1,0,100,1,0
1880,-90.9090909090909,4,1,0,100,0,0
3380,375,4,1,0,100,1,0
3380,-95.2380952380952,4,1,0,100,0,1
9380,-90.9090909090909,4,1,0,100,0,1
15380,-90.9090909090909,4,1,0,100,0,0
15755,-111.111111111111,4,1,0,100,0,0
16973,-105.263157894737,4,1,0,100,0,0
18473,-100,4,1,0,100,0,0
21380,-80,4,1,0,100,0,0
21755,-111.111111111111,4,1,0,100,0,0
23067,-105.263157894737,4,1,0,100,0,0
24473,-100,4,1,0,100,0,0
27380,-111.111111111111,4,1,0,100,0,1
39005,-111.111111111111,4,1,0,100,0,1
39380,-95.2380952380952,4,1,0,100,0,0
52880,-90.9090909090909,4,1,0,100,0,0
54380,375,4,1,0,100,1,0
54380,-105.263157894737,4,1,0,100,0,1
60380,-100,4,1,0,100,0,1
66380,-90.9090909090909,4,1,0,100,0,0
69005,-100,4,1,0,100,0,0
69380,375,4,1,0,100,1,0
69380,-95.2380952380952,4,1,0,100,0,1
79411,-95.2380952380952,4,1,0,100,0,1
81380,-90.9090909090909,4,1,0,100,0,1
96380,375,4,1,0,100,1,1
96380,-90.9090909090909,4,1,0,100,0,1
96473,-95.2380952380952,4,1,0,100,0,1
106880,-90.9090909090909,4,1,0,100,0,1
108380,-100,4,1,0,100,0,0

[HitObjects]
197,162,380,5,4,0:0:0:0:
220,148,567,1,8,0:0:0:0:
220,148,661,1,8,0:0:0:0:
220,148,755,1,8,0:0:0:0:
220,148,942,1,8,0:0:0:0:
220,148,1130,1,8,0:0:0:0:
220,148,1411,1,8,0:0:0:0:
220,148,1692,1,0,0:0:0:0:
316,156,1880,1,8,0:0:0:0:
246,126,1973,1,8,0:0:0:0:
229,187,2161,1,0,0:0:0:0:
246,126,2255,1,8,0:0:0:0:
229,187,2442,1,0,0:0:0:0:
246,126,2536,1,0,0:0:0:0:
229,187,2723,1,8,0:0:0:0:
246,126,2817,1,0,0:0:0:0:
316,156,3005,1,8,0:0:0:0:
316,156,3380,1,4,0:0:0:0:
215,133,3567,1,8,0:0:0:0:
276,168,3661,1,8,0:0:0:0:
215,133,3755,1,0,0:0:0:0:
276,168,3942,1,8,0:0:0:0:
228,126,4130,1,0,0:0:0:0:
410,183,4223,1,0,0:0:0:0:
215,133,4317,1,8,0:0:0:0:
226,156,4411,1,0,0:0:0:0:
233,156,4505,1,8,0:0:0:0:
439,181,4692,1,0,0:0:0:0:
251,151,4880,1,8,0:0:0:0:
226,133,5067,1,8,0:0:0:0:
275,168,5161,1,0,0:0:0:0:
226,132,5255,1,8,0:0:0:0:
275,168,5442,1,0,0:0:0:0:
251,151,5630,1,8,0:0:0:0:
190,131,5723,1,0,0:0:0:0:
226,133,5817,1,8,0:0:0:0:
171,157,5911,1,8,0:0:0:0:
252,162,6005,1,0,0:0:0:0:
125,171,6192,1,8,0:0:0:0:
251,151,6380,1,0,0:0:0:0:
226,133,6567,1,8,0:0:0:0:
174,115,6661,1,0,0:0:0:0:
201,151,6755,1,8,0:0:0:0:
266,125,6942,1,0,0:0:0:0:
251,151,7130,1,8,0:0:0:0:
264,81,7223,1,0,0:0:0:0:
266,125,7317,1,8,0:0:0:0:
226,133,7411,1,8,0:0:0:0:
161,160,7598,1,0,0:0:0:0:
266,125,7692,1,8,0:0:0:0:
266,125,7786,1,8,0:0:0:0:
251,151,7880,1,8,0:0:0:0:
252,143,8067,1,8,0:0:0:0:
211,154,8161,1,0,0:0:0:0:
252,143,8255,1,8,0:0:0:0:
252,143,8442,1,8,0:0:0:0:
256,146,8630,1,8,0:0:0:0:
165,160,8723,1,0,0:0:0:0:
245,168,8817,1,0,0:0:0:0:
263,165,8911,1,8,0:0:0:0:
192,163,9005,1,0,0:0:0:0:
245,168,9098,1,0,0:0:0:0:
263,165,9192,1,8,0:0:0:0:
251,151,9380,1,4,0:0:0:0:
257,200,9567,1,8,0:0:0:0:
263,140,9661,1,8,0:0:0:0:
257,200,9755,1,0,0:0:0:0:
263,140,9942,1,0,0:0:0:0:
251,151,10130,1,8,0:0:0:0:
282,145,10223,1,8,0:0:0:0:
251,151,10317,1,0,0:0:0:0:
189,123,10411,1,8,0:0:0:0:
189,123,10505,1,0,0:0:0:0:
330,123,10692,1,8,0:0:0:0:
251,151,10880,1,0,0:0:0:0:
224,176,11067,1,8,0:0:0:0:
263,140,11161,1,0,0:0:0:0:
224,176,11255,1,8,0:0:0:0:
263,140,11442,1,8,0:0:0:0:
246,181,11630,1,0,0:0:0:0:
246,181,11723,1,0,0:0:0:0:
224,176,11817,1,8,0:0:0:0:
243,124,11911,1,8,0:0:0:0:
255,129,12005,1,0,0:0:0:0:
261,131,12192,1,8,0:0:0:0:
251,151,12380,1,0,0:0:0:0:
219,109,12473,1,0,0:0:0:0:
240,141,12567,1,8,0:0:0:0:
251,151,12661,1,0,0:0:0:0:
263,140,12755,1,8,0:0:0:0:
263,140,12942,1,0,0:0:0:0:
240,114,13130,1,8,0:0:0:0:
310,169,13223,1,0,0:0:0:0:
218,165,13317,1,0,0:0:0:0:
310,169,13411,1,8,0:0:0:0:
310,169,13505,1,0,0:0:0:0:
310,169,13598,1,0,0:0:0:0:
183,161,13692,1,8,0:0:0:0:
251,151,13880,1,4,0:0:0:0:
265,148,14067,1,4,0:0:0:0:
269,153,14255,1,4,0:0:0:0:
270,154,14442,1,4,0:0:0:0:
270,154,14630,1,4,0:0:0:0:
270,154,14911,1,4,0:0:0:0:
269,153,15192,1,4,0:0:0:0:
221,117,15380,1,12,0:0:0:0:
237,125,15755,1,8,0:0:0:0:
308,154,15942,1,0,0:0:0:0:
310,163,16036,1,0,0:0:0:0:
310,163,16130,1,0,0:0:0:0:
329,174,16223,1,8,0:0:0:0:
297,162,16317,1,0,0:0:0:0:
237,125,16505,1,8,0:0:0:0:
291,147,16692,1,8,0:0:0:0:
182,158,16880,1,0,0:0:0:0:
243,153,17161,1,8,0:0:0:0:
243,153,17442,1,8,0:0:0:0:
226,147,17723,1,0,0:0:0:0:
293,157,17817,1,0,0:0:0:0:
221,124,18005,1,8,0:0:0:0:
239,157,18192,1,8,0:0:0:0:
239,157,18286,1,8,0:0:0:0:
221,124,18380,1,0,0:0:0:0:
246,128,18567,1,8,0:0:0:0:
322,193,18661,1,0,0:0:0:0:
246,128,18755,1,8,0:0:0:0:
270,184,18942,1,0,0:0:0:0:
218,169,19130,1,8,0:0:0:0:
204,168,19223,1,0,0:0:0:0:
246,154,19317,1,0,0:0:0:0:
237,111,19411,1,8,0:0:0:0:
267,155,19692,1,0,0:0:0:0:
218,169,19880,1,8,0:0:0:0:
293,157,20067,1,8,0:0:0:0:
267,155,20161,1,0,0:0:0:0:
218,169,20255,1,8,0:0:0:0:
293,157,20442,1,0,0:0:0:0:
227,92,20536,1,0,0:0:0:0:
119,142,20723,1,0,0:0:0:0:
218,169,20817,1,8,0:0:0:0:
227,128,21005,1,8,0:0:0:0:
333,176,21380,1,12,0:0:0:0:
177,120,21755,1,8,0:0:0:0:
267,146,21942,1,0,0:0:0:0:
267,146,22036,1,8,0:0:0:0:
267,146,22130,1,0,0:0:0:0:
219,128,22223,1,8,0:0:0:0:
293,157,22317,1,0,0:0:0:0:
177,120,22505,1,8,0:0:0:0:
176,175,22692,1,8,0:0:0:0:
221,106,22880,1,0,0:0:0:0:
206,147,23161,1,8,0:0:0:0:
206,147,23442,1,8,0:0:0:0:
206,147,23723,1,0,0:0:0:0:
230,203,23817,1,0,0:0:0:0:
222,106,24005,1,8,0:0:0:0:
227,127,24192,1,8,0:0:0:0:
227,127,24286,1,8,0:0:0:0:
227,127,24380,1,0,0:0:0:0:
225,125,24567,1,8,0:0:0:0:
276,115,24661,1,0,0:0:0:0:
225,125,24755,1,8,0:0:0:0:
306,177,24942,1,0,0:0:0:0:
188,143,25130,1,8,0:0:0:0:
306,177,25223,1,0,0:0:0:0:
260,152,25317,1,8,0:0:0:0:
175,129,25411,1,8,0:0:0:0:
206,127,25692,1,0,0:0:0:0:
188,143,25880,1,12,0:0:0:0:
242,142,26067,1,0,0:0:0:0:
210,86,26255,1,8,0:0:0:0:
275,165,26348,1,8,0:0:0:0:
242,142,26442,1,0,0:0:0:0:
224,136,26536,1,8,0:0:0:0:
290,113,26723,1,0,0:0:0:0:
224,136,26817,1,8,0:0:0:0:
224,136,27005,1,0,0:0:0:0:
224,128,27380,1,12,0:0:0:0:
224,128,27567,1,0,0:0:0:0:
224,128,27755,1,0,0:0:0:0:
224,128,27942,1,0,0:0:0:0:
224,128,28130,1,8,0:0:0:0:
224,128,28317,1,0,0:0:0:0:
224,128,28505,1,8,0:0:0:0:
224,128,28692,1,8,0:0:0:0:
224,128,28880,1,0,0:0:0:0:
224,128,29067,1,0,0:0:0:0:
224,128,29255,1,8,0:0:0:0:
224,128,29442,1,0,0:0:0:0:
224,128,29630,1,8,0:0:0:0:
224,128,29817,1,8,0:0:0:0:
224,128,30005,1,0,0:0:0:0:
224,128,30192,1,0,0:0:0:0:
224,128,30380,1,8,0:0:0:0:
256,128,30567,1,8,0:0:0:0:
256,128,30755,1,0,0:0:0:0:
256,128,30942,1,0,0:0:0:0:
256,128,31130,1,8,0:0:0:0:
256,128,31317,1,8,0:0:0:0:
256,128,31505,1,0,0:0:0:0:
256,128,31692,1,0,0:0:0:0:
256,128,31880,1,8,0:0:0:0:
256,128,32067,1,0,0:0:0:0:
256,128,32255,1,0,0:0:0:0:
256,128,32442,1,8,0:0:0:0:
256,128,32630,1,8,0:0:0:0:
256,128,32817,1,0,0:0:0:0:
224,96,32911,1,8,0:0:0:0:
256,128,33005,1,0,0:0:0:0:
320,192,33098,1,0,0:0:0:0:
256,128,33192,1,8,0:0:0:0:
256,160,33380,1,4,0:0:0:0:
256,160,33567,1,8,0:0:0:0:
256,160,33755,1,0,0:0:0:0:
96,128,33942,1,8,0:0:0:0:
128,160,34130,1,0,0:0:0:0:
128,160,34317,1,0,0:0:0:0:
128,160,34505,1,8,0:0:0:0:
128,160,34692,1,0,0:0:0:0:
192,128,34880,1,8,0:0:0:0:
192,160,35067,1,8,0:0:0:0:
192,160,35255,1,0,0:0:0:0:
192,160,35442,1,0,0:0:0:0:
192,160,35630,1,8,0:0:0:0:
192,160,35817,1,8,0:0:0:0:
192,160,36005,1,0,0:0:0:0:
192,160,36192,1,0,0:0:0:0:
192,160,36380,1,8,0:0:0:0:
256,192,36567,1,0,0:0:0:0:
256,192,36755,1,8,0:0:0:0:
160,192,36942,1,0,0:0:0:0:
160,192,37130,1,8,0:0:0:0:
160,192,37317,1,8,0:0:0:0:
192,160,37411,1,8,0:0:0:0:
160,192,37505,1,0,0:0:0:0:
216,116,37692,1,8,0:0:0:0:
216,116,37880,1,0,0:0:0:0:
301,153,38067,5,0,0:0:0:0:
218,154,38255,1,8,0:0:0:0:
220,142,38442,1,8,0:0:0:0:
218,154,38630,1,0,0:0:0:0:
212,149,38723,1,0,0:0:0:0:
220,142,38817,1,0,0:0:0:0:
72,120,38911,1,0,0:0:0:0:
165,169,39005,1,8,0:0:0:0:
165,169,39380,1,4,0:0:0:0:
259,98,39567,1,0,0:0:0:0:
259,98,39661,1,0,0:0:0:0:
204,174,39755,1,8,0:0:0:0:
208,144,39942,1,0,0:0:0:0:
308,145,40130,1,8,0:0:0:0:
221,181,40317,1,0,0:0:0:0:
294,132,40411,1,8,0:0:0:0:
308,145,40598,1,8,0:0:0:0:
219,74,40692,1,0,0:0:0:0:
202,125,40880,1,8,0:0:0:0:
254,136,41067,1,0,0:0:0:0:
254,136,41161,1,0,0:0:0:0:
218,119,41255,1,8,0:0:0:0:
227,130,41442,1,0,0:0:0:0:
214,97,41630,1,8,0:0:0:0:
218,118,41817,1,0,0:0:0:0:
228,84,41911,1,8,0:0:0:0:
308,145,42098,1,8,0:0:0:0:
214,97,42192,1,8,0:0:0:0:
308,145,42380,1,0,0:0:0:0:
151,134,42567,1,8,0:0:0:0:
151,134,42661,1,8,0:0:0:0:
151,134,42755,1,0,0:0:0:0:
206,161,42942,1,8,0:0:0:0:
308,145,43130,1,0,0:0:0:0:
206,161,43317,1,0,0:0:0:0:
206,161,43411,1,0,0:0:0:0:
195,136,43598,1,8,0:0:0:0:
180,144,43692,1,0,0:0:0:0:
308,145,43880,1,8,0:0:0:0:
226,167,44067,1,0,0:0:0:0:
236,115,44161,1,0,0:0:0:0:
308,145,44255,1,8,0:0:0:0:
175,140,44442,1,0,0:0:0:0:
218,101,44630,1,8,0:0:0:0:
218,101,44817,1,8,0:0:0:0:
218,101,44911,1,8,0:0:0:0:
218,101,45098,1,0,0:0:0:0:
190,122,45192,1,8,0:0:0:0:
364,160,45286,1,8,0:0:0:0:
364,160,45380,1,0,0:0:0:0:
320,206,45567,1,8,0:0:0:0:
197,97,45755,1,8,0:0:0:0:
197,97,45942,1,0,0:0:0:0:
290,190,46036,1,0,0:0:0:0:
212,162,46130,1,0,0:0:0:0:
212,162,46223,1,0,0:0:0:0:
183,123,46317,1,8,0:0:0:0:
243,103,46505,1,8,0:0:0:0:
311,150,46692,1,8,0:0:0:0:
280,156,46786,1,8,0:0:0:0:
280,156,46880,1,0,0:0:0:0:
280,156,46973,1,0,0:0:0:0:
187,125,47067,1,8,0:0:0:0:
187,125,47255,1,8,0:0:0:0:
187,125,47442,1,8,0:0:0:0:
198,135,47536,1,8,0:0:0:0:
199,135,47630,1,0,0:0:0:0:
199,135,47817,1,8,0:0:0:0:
199,135,48005,1,8,0:0:0:0:
242,68,48192,1,8,0:0:0:0:
310,197,48286,1,8,0:0:0:0:
310,197,48380,1,0,0:0:0:0:
310,197,48473,1,8,0:0:0:0:
199,133,48567,1,0,0:0:0:0:
199,133,48755,1,8,0:0:0:0:
199,133,48942,1,0,0:0:0:0:
47,142,49036,1,0,0:0:0:0:
47,142,49130,1,8,0:0:0:0:
47,142,49223,1,8,0:0:0:0:
222,138,49317,1,0,0:0:0:0:
213,139,49505,1,8,0:0:0:0:
222,138,49692,1,8,0:0:0:0:
251,131,49786,1,8,0:0:0:0:
271,152,49880,1,0,0:0:0:0:
207,185,50067,1,0,0:0:0:0:
267,155,50255,1,8,0:0:0:0:
217,97,50442,1,8,0:0:0:0:
165,142,50536,1,8,0:0:0:0:
165,142,50630,1,8,0:0:0:0:
282,135,50723,1,8,0:0:0:0:
195,115,50817,1,0,0:0:0:0:
204,117,51005,1,8,0:0:0:0:
204,117,51192,1,8,0:0:0:0:
195,115,51380,1,8,0:0:0:0:
283,93,51473,1,8,0:0:0:0:
242,159,51567,1,0,0:0:0:0:
88,142,51755,1,8,0:0:0:0:
286,116,51848,1,8,0:0:0:0:
220,123,51942,1,0,0:0:0:0:
245,139,52130,1,8,0:0:0:0:
220,123,52223,1,8,0:0:0:0:
294,157,52317,1,0,0:0:0:0:
294,157,52411,1,0,0:0:0:0:
245,139,52505,1,8,0:0:0:0:
198,117,52880,1,4,0:0:0:0:
149,115,53067,1,4,0:0:0:0:
149,115,53255,1,4,0:0:0:0:
149,115,53442,1,4,0:0:0:0:
198,117,54380,1,4,0:0:0:0:
194,145,54661,1,8,0:0:0:0:
240,131,54848,1,0,0:0:0:0:
258,123,54942,1,8,0:0:0:0:
278,212,55130,1,0,0:0:0:0:
240,131,55317,1,0,0:0:0:0:
212,120,55411,1,8,0:0:0:0:
231,152,55598,1,0,0:0:0:0:
194,145,55692,1,8,0:0:0:0:
278,212,55880,1,0,0:0:0:0:
194,145,56161,1,8,0:0:0:0:
240,131,56348,1,0,0:0:0:0:
238,142,56442,1,8,0:0:0:0:
278,212,56630,1,0,0:0:0:0:
236,112,56723,1,8,0:0:0:0:
236,112,56817,1,8,0:0:0:0:
236,112,56911,1,8,0:0:0:0:
231,98,57005,1,0,0:0:0:0:
137,149,57098,1,0,0:0:0:0:
194,145,57192,1,8,0:0:0:0:
278,212,57380,1,0,0:0:0:0:
194,145,57661,1,8,0:0:0:0:
208,149,57848,1,0,0:0:0:0:
157,153,57942,1,8,0:0:0:0:
278,212,58130,1,0,0:0:0:0:
208,149,58317,1,0,0:0:0:0:
189,172,58411,1,8,0:0:0:0:
198,126,58598,1,0,0:0:0:0:
194,145,58692,1,8,0:0:0:0:
278,212,58880,1,8,0:0:0:0:
259,157,59161,1,8,0:0:0:0:
192,131,59348,1,0,0:0:0:0:
194,145,59442,1,8,0:0:0:0:
278,212,59630,1,8,0:0:0:0:
241,104,59817,1,0,0:0:0:0:
309,150,59911,1,0,0:0:0:0:
309,150,60005,1,8,0:0:0:0:
320,189,60098,1,8,0:0:0:0:
320,189,60192,1,8,0:0:0:0:
278,212,60380,1,4,0:0:0:0:
272,103,60661,1,8,0:0:0:0:
272,103,60755,1,0,0:0:0:0:
386,202,60848,1,0,0:0:0:0:
163,143,60942,1,8,0:0:0:0:
135,170,61130,1,0,0:0:0:0:
253,102,61317,1,0,0:0:0:0:
312,197,61411,1,8,0:0:0:0:
241,127,61505,1,0,0:0:0:0:
242,141,61598,1,0,0:0:0:0:
211,120,61692,1,8,0:0:0:0:
236,167,61880,1,0,0:0:0:0:
136,133,62161,1,8,0:0:0:0:
281,167,62255,1,0,0:0:0:0:
281,167,62348,1,0,0:0:0:0:
236,167,62442,1,8,0:0:0:0:
213,135,62630,1,0,0:0:0:0:
213,135,62723,1,8,0:0:0:0:
224,109,62817,1,8,0:0:0:0:
213,135,62911,1,8,0:0:0:0:
213,135,63005,1,0,0:0:0:0:
252,117,63098,1,0,0:0:0:0:
224,109,63192,1,8,0:0:0:0:
236,167,63380,1,0,0:0:0:0:
192,123,63661,1,8,0:0:0:0:
134,121,63755,1,0,0:0:0:0:
134,121,63848,1,0,0:0:0:0:
134,121,63942,1,8,0:0:0:0:
236,167,64130,1,8,0:0:0:0:
127,174,64317,1,0,0:0:0:0:
217,70,64411,1,8,0:0:0:0:
154,172,64505,1,0,0:0:0:0:
207,126,64598,1,0,0:0:0:0:
192,123,64692,1,8,0:0:0:0:
236,167,64880,1,8,0:0:0:0:
250,170,65161,1,8,0:0:0:0:
110,155,65255,1,0,0:0:0:0:
110,155,65348,1,0,0:0:0:0:
271,98,65442,1,8,0:0:0:0:
236,167,65630,1,0,0:0:0:0:
224,125,65817,1,8,0:0:0:0:
271,128,65911,1,8,0:0:0:0:
236,167,66005,1,0,0:0:0:0:
271,128,66098,1,0,0:0:0:0:
224,125,66192,1,8,0:0:0:0:
232,129,66380,1,4,0:0:0:0:
273,111,66567,1,4,0:0:0:0:
232,129,67130,1,4,0:0:0:0:
232,129,67317,1,4,0:0:0:0:
232,129,67692,1,4,0:0:0:0:
232,129,68067,1,12,0:0:0:0:
232,129,68255,1,4,0:0:0:0:
232,129,68442,1,12,0:0:0:0:
232,129,68630,1,4,0:0:0:0:
126,161,69005,1,8,0:0:0:0:
221,99,69380,1,4,0:0:0:0:
289,196,69567,1,0,0:0:0:0:
269,159,69661,1,0,0:0:0:0:
221,99,69755,1,8,0:0:0:0:
221,99,69942,1,0,0:0:0:0:
203,161,70130,1,8,0:0:0:0:
225,138,70223,1,8,0:0:0:0:
176,126,70317,1,0,0:0:0:0:
278,187,70411,1,0,0:0:0:0:
203,161,70505,1,8,0:0:0:0:
234,165,70598,1,0,0:0:0:0:
203,161,70692,1,8,0:0:0:0:
264,167,70880,1,0,0:0:0:0:
246,133,71067,1,8,0:0:0:0:
239,157,71161,1,0,0:0:0:0:
314,202,71255,1,8,0:0:0:0:
113,136,71442,1,0,0:0:0:0:
113,136,71536,1,8,0:0:0:0:
113,136,71630,1,8,0:0:0:0:
113,136,71723,1,8,0:0:0:0:
213,145,71817,1,0,0:0:0:0:
213,145,71911,1,0,0:0:0:0:
203,161,72005,1,8,0:0:0:0:
109,101,72098,1,0,0:0:0:0:
246,133,72192,1,8,0:0:0:0:
246,144,72380,1,0,0:0:0:0:
247,146,72567,1,8,0:0:0:0:
251,182,72661,1,8,0:0:0:0:
251,182,72755,1,8,0:0:0:0:
251,182,72942,1,0,0:0:0:0:
203,161,73130,1,8,0:0:0:0:
240,122,73223,1,0,0:0:0:0:
241,162,73317,1,8,0:0:0:0:
203,161,73411,1,8,0:0:0:0:
207,122,73598,1,0,0:0:0:0:
258,114,73692,1,8,0:0:0:0:
203,161,73880,1,4,0:0:0:0:
249,109,74161,1,4,0:0:0:0:
217,127,74442,1,4,0:0:0:0:
249,109,74630,1,12,0:0:0:0:
221,47,74911,1,0,0:0:0:0:
237,76,75005,1,0,0:0:0:0:
247,102,75192,1,0,0:0:0:0:
203,161,75380,1,4,0:0:0:0:
280,179,75567,1,0,0:0:0:0:
149,116,75661,1,0,0:0:0:0:
206,148,75755,1,8,0:0:0:0:
206,148,75942,1,0,0:0:0:0:
235,80,76130,1,8,0:0:0:0:
231,132,76223,1,8,0:0:0:0:
6,120,76317,1,0,0:0:0:0:
170,133,76411,1,8,0:0:0:0:
203,161,76505,1,0,0:0:0:0:
322,179,76598,1,0,0:0:0:0:
208,131,76692,1,8,0:0:0:0:
221,139,76880,1,8,0:0:0:0:
208,131,77067,1,0,0:0:0:0:
191,136,77161,1,0,0:0:0:0:
208,131,77255,1,8,0:0:0:0:
126,132,77442,1,8,0:0:0:0:
199,183,77536,1,8,0:0:0:0:
203,161,77630,1,0,0:0:0:0:
277,195,77723,1,0,0:0:0:0:
222,117,77817,1,8,0:0:0:0:
243,131,77911,1,0,0:0:0:0:
243,131,78005,1,8,0:0:0:0:
243,131,78098,1,0,0:0:0:0:
243,131,78192,1,8,0:0:0:0:
203,161,78380,1,4,0:0:0:0:
238,115,78567,1,4,0:0:0:0:
233,123,78942,1,4,0:0:0:0:
175,136,79317,1,4,0:0:0:0:
201,134,79505,1,8,0:0:0:0:
302,200,79598,1,8,0:0:0:0:
302,200,79692,1,8,0:0:0:0:
302,200,79786,1,8,0:0:0:0:
203,161,79880,1,0,0:0:0:0:
201,134,80067,1,0,0:0:0:0:
263,129,80255,1,8,0:0:0:0:
263,129,80442,1,0,0:0:0:0:
140,135,80630,1,8,0:0:0:0:
136,160,80723,1,8,0:0:0:0:
136,160,80817,1,0,0:0:0:0:
136,160,80911,1,0,0:0:0:0:
136,160,81005,1,8,0:0:0:0:
140,135,81380,1,4,0:0:0:0:
239,143,81567,1,0,0:0:0:0:
313,192,81661,1,0,0:0:0:0:
231,148,81755,1,8,0:0:0:0:
231,148,81942,1,0,0:0:0:0:
313,192,82036,1,0,0:0:0:0:
140,135,82130,1,8,0:0:0:0:
226,139,82223,1,0,0:0:0:0:
226,139,82317,1,8,0:0:0:0:
226,139,82411,1,8,0:0:0:0:
140,135,82505,1,0,0:0:0:0:
313,192,82598,1,0,0:0:0:0:
207,122,82692,1,8,0:0:0:0:
331,154,82880,1,0,0:0:0:0:
180,122,83067,1,8,0:0:0:0:
336,154,83161,1,0,0:0:0:0:
140,135,83255,1,8,0:0:0:0:
178,182,83442,1,8,0:0:0:0:
201,140,83536,1,8,0:0:0:0:
140,135,83630,1,0,0:0:0:0:
265,175,83723,1,8,0:0:0:0:
231,128,83817,1,0,0:0:0:0:
176,159,83911,1,0,0:0:0:0:
140,135,84005,1,8,0:0:0:0:
154,158,84098,1,0,0:0:0:0:
231,128,84192,1,8,0:0:0:0:
263,136,84380,1,0,0:0:0:0:
204,120,84567,1,8,0:0:0:0:
110,154,84661,1,0,0:0:0:0:
110,154,84755,1,8,0:0:0:0:
179,138,84942,1,0,0:0:0:0:
262,73,85036,1,0,0:0:0:0:
217,174,85130,1,8,0:0:0:0:
273,128,85223,1,0,0:0:0:0:
179,138,85317,1,8,0:0:0:0:
239,105,85411,1,8,0:0:0:0:
86,148,85598,1,0,0:0:0:0:
217,174,85692,1,8,0:0:0:0:
217,174,85880,1,4,0:0:0:0:
277,126,86161,1,4,0:0:0:0:
277,126,86442,1,4,0:0:0:0:
277,126,86630,1,12,0:0:0:0:
259,142,86817,1,0,0:0:0:0:
236,134,86911,1,0,0:0:0:0:
236,134,87005,1,0,0:0:0:0:
236,134,87192,1,0,0:0:0:0:
201,175,87380,1,4,0:0:0:0:
291,123,87567,1,0,0:0:0:0:
243,152,87661,1,0,0:0:0:0:
257,141,87755,1,8,0:0:0:0:
257,141,87942,1,8,0:0:0:0:
295,152,88036,1,0,0:0:0:0:
185,138,88130,1,8,0:0:0:0:
185,138,88223,1,8,0:0:0:0:
291,123,88317,1,0,0:0:0:0:
214,45,88411,1,8,0:0:0:0:
298,167,88505,1,0,0:0:0:0:
295,152,88598,1,0,0:0:0:0:
257,141,88692,1,8,0:0:0:0:
170,148,88880,1,0,0:0:0:0:
286,151,89067,1,8,0:0:0:0:
188,149,89161,1,0,0:0:0:0:
207,117,89255,1,8,0:0:0:0:
247,150,89442,1,0,0:0:0:0:
302,175,89536,1,0,0:0:0:0:
228,126,89630,1,8,0:0:0:0:
184,132,89723,1,0,0:0:0:0:
226,112,89817,1,8,0:0:0:0:
167,149,89911,1,8,0:0:0:0:
167,149,90005,1,0,0:0:0:0:
167,149,90098,1,0,0:0:0:0:
226,112,90192,1,8,0:0:0:0:
228,126,90380,1,4,0:0:0:0:
266,133,90567,1,4,0:0:0:0:
234,166,90848,1,0,0:0:0:0:
194,161,90942,1,0,0:0:0:0:
234,166,91223,1,0,0:0:0:0:
234,166,91317,1,0,0:0:0:0:
53,108,91411,1,0,0:0:0:0:
228,126,91505,1,8,0:0:0:0:
121,78,91692,1,0,0:0:0:0:
121,78,91786,1,0,0:0:0:0:
228,126,91880,1,8,0:0:0:0:
265,133,92067,1,0,0:0:0:0:
235,83,92255,1,8,0:0:0:0:
235,83,92442,1,0,0:0:0:0:
231,165,92630,1,8,0:0:0:0:
231,166,92723,1,8,0:0:0:0:
231,166,92817,1,0,0:0:0:0:
231,166,92911,1,0,0:0:0:0:
231,166,93005,1,8,0:0:0:0:
221,167,93192,1,8,0:0:0:0:
228,126,93380,1,4,0:0:0:0:
229,113,93567,1,8,0:0:0:0:
298,165,93661,1,0,0:0:0:0:
229,113,93755,1,8,0:0:0:0:
298,165,93942,1,0,0:0:0:0:
229,113,94130,1,8,0:0:0:0:
288,123,94223,1,0,0:0:0:0:
83,157,94317,1,0,0:0:0:0:
229,113,94411,1,8,0:0:0:0:
113,159,94598,1,8,0:0:0:0:
229,113,94692,1,0,0:0:0:0:
171,189,94880,1,8,0:0:0:0:
208,97,94973,1,8,0:0:0:0:
227,127,95067,1,0,0:0:0:0:
208,97,95161,1,0,0:0:0:0:
171,189,95255,1,8,0:0:0:0:
227,127,95442,1,8,0:0:0:0:
171,189,95630,1,0,0:0:0:0:
100,159,95723,1,0,0:0:0:0:
149,162,95817,1,0,0:0:0:0:
156,162,95911,1,0,0:0:0:0:
171,189,96005,1,8,0:0:0:0:
170,159,96098,1,8,0:0:0:0:
170,159,96192,1,8,0:0:0:0:
316,156,96380,1,4,0:0:0:0:
215,133,96567,1,8,0:0:0:0:
215,133,96755,1,0,0:0:0:0:
276,168,96848,1,8,0:0:0:0:
276,168,97036,1,8,0:0:0:0:
228,126,97130,1,0,0:0:0:0:
215,133,97223,1,8,0:0:0:0:
226,156,97317,1,0,0:0:0:0:
138,173,97411,1,0,0:0:0:0:
233,156,97505,1,8,0:0:0:0:
138,173,97692,1,8,0:0:0:0:
251,151,97880,1,0,0:0:0:0:
226,133,98067,1,8,0:0:0:0:
275,168,98161,1,0,0:0:0:0:
226,132,98255,1,8,0:0:0:0:
275,168,98442,1,0,0:0:0:0:
251,151,98630,1,8,0:0:0:0:
154,151,98723,1,8,0:0:0:0:
171,157,98817,1,0,0:0:0:0:
132,160,98911,1,0,0:0:0:0:
252,162,99005,1,8,0:0:0:0:
199,100,99098,1,0,0:0:0:0:
132,160,99192,1,8,0:0:0:0:
392,232,99380,1,0,0:0:0:0:
226,133,99567,1,8,0:0:0:0:
174,115,99661,1,0,0:0:0:0:
201,151,99755,1,8,0:0:0:0:
266,125,99942,1,0,0:0:0:0:
251,151,100130,1,8,0:0:0:0:
174,85,100223,1,8,0:0:0:0:
266,125,100317,1,0,0:0:0:0:
226,133,100411,1,8,0:0:0:0:
123,117,100598,1,0,0:0:0:0:
266,125,100692,1,8,0:0:0:0:
266,125,100786,1,0,0:0:0:0:
251,151,100880,1,8,0:0:0:0:
252,143,101067,1,0,0:0:0:0:
317,182,101161,1,0,0:0:0:0:
252,143,101255,1,8,0:0:0:0:
252,143,101442,1,8,0:0:0:0:
166,120,101630,1,8,0:0:0:0:
201,148,101723,1,0,0:0:0:0:
228,136,101817,1,0,0:0:0:0:
263,165,101911,1,8,0:0:0:0:
145,148,102005,1,0,0:0:0:0:
199,91,102098,1,0,0:0:0:0:
263,165,102192,1,8,0:0:0:0:
251,151,102380,1,4,0:0:0:0:
257,200,102567,1,8,0:0:0:0:
257,200,102755,1,0,0:0:0:0:
263,140,102848,1,8,0:0:0:0:
263,140,103036,1,0,0:0:0:0:
251,151,103130,1,8,0:0:0:0:
297,149,103223,1,8,0:0:0:0:
251,151,103317,1,0,0:0:0:0:
189,123,103411,1,0,0:0:0:0:
189,123,103505,1,8,0:0:0:0:
154,143,103692,1,8,0:0:0:0:
251,151,103880,1,0,0:0:0:0:
224,176,104067,1,8,0:0:0:0:
263,140,104161,1,0,0:0:0:0:
224,176,104255,1,8,0:0:0:0:
263,140,104442,1,0,0:0:0:0:
251,151,104630,1,8,0:0:0:0:
259,155,104723,1,0,0:0:0:0:
224,176,104817,1,8,0:0:0:0:
243,124,104911,1,8,0:0:0:0:
255,129,105005,1,0,0:0:0:0:
259,155,105098,1,0,0:0:0:0:
259,155,105192,1,8,0:0:0:0:
251,151,105380,1,0,0:0:0:0:
240,141,105567,1,8,0:0:0:0:
251,151,105661,1,0,0:0:0:0:
263,140,105755,1,8,0:0:0:0:
263,140,105942,1,0,0:0:0:0:
240,114,106130,1,8,0:0:0:0:
280,151,106223,1,0,0:0:0:0:
218,165,106317,1,0,0:0:0:0:
240,114,106411,1,8,0:0:0:0:
269,148,106505,1,0,0:0:0:0:
351,210,106598,1,0,0:0:0:0:
183,161,106692,5,8,0:0:0:0:
165,164,106880,1,4,0:0:0:0:
175,126,107067,1,4,0:0:0:0:
175,126,107255,1,4,0:0:0:0:
175,126,107442,1,4,0:0:0:0:
175,126,107630,1,4,0:0:0:0:
175,126,107911,1,4,0:0:0:0:
175,126,108192,1,12,0:0:0:0:
100,168,108380,1,0,0:0:0:0:
172,168,108473,1,8,0:0:0:0:
201,164,108661,1,8,0:0:0:0:
201,164,108755,1,8,0:0:0:0:
277,165,108942,1,0,0:0:0:0:
277,165,109130,1,8,0:0:0:0:
277,165,109317,1,8,0:0:0:0:
277,165,109505,1,8,0:0:0:0:
329,181,109598,1,0,0:0:0:0:
329,181,109692,1,0,0:0:0:0:
181,162,109786,1,8,0:0:0:0:
181,162,109880,1,8,0:0:0:0:
236,136,109973,1,8,0:0:0:0:
181,162,110067,1,8,0:0:0:0:
181,162,110255,1,8,0:0:0:0:
181,162,110442,1,0,0:0:0:0:
181,162,110630,1,0,0:0:0:0:
181,162,110817,1,0,0:0:0:0:
46,91,111005,1,8,0:0:0:0:
196,137,111098,1,0,0:0:0:0:
