osu file format v14

[General]
AudioFilename: audio.mp3
AudioLeadIn: 0
PreviewTime: 69005
Countdown: 0
SampleSet: Normal
StackLeniency: 0.7
Mode: 1
LetterboxInBreaks: 0
WidescreenStoryboard: 1

[Editor]
DistanceSpacing: 0.4
BeatDivisor: 4
GridSize: 32
TimelineZoom: 0.8999999

[Metadata]
Title:Iden Tei Tei Meltdown (Imaginary Reality remix)
TitleUnicode:アイデン貞貞メルトダウン (Imaginary Reality remix)
Artist:Enako feat. Pmarusama.
ArtistUnicode:えなこ feat. P丸様。
Creator:Raytoly
Version:Futsuu
Source:お兄ちゃんはおしまい!
Tags:takehirotei p maru sama. pmaru-sama. p-marusama. p-maru-sama. onii-chan Identity おにまい Onimai Oniichan ha wa Oshimai! big brother is done for! onimai: i'm now your sister! 緒山みはり 石原夏織 緒山まひろ 高野麻里佳 oyama mahiro mihari ishihara kaori kouno marika PCCG.02195 PCCG.02198 Ver. Version Jpop J-pop pop Japanese Electronic Anime オープニングテーマ op opening theme thema
BeatmapID:4108846
BeatmapSetID:1978817

[Difficulty]
HPDrainRate:6.5
CircleSize:5
OverallDifficulty:4
ApproachRate:10
SliderMultiplier:1.2
SliderTickRate:1

[Events]
//Background and Video events
0,0,"onimai.png",0,80
//Break Periods
//Storyboard Layer 0 (Background)
//Storyboard Layer 1 (Fail)
//Storyboard Layer 2 (Pass)
//Storyboard Layer 3 (Foreground)
//Storyboard Layer 4 (Overlay)
//Storyboard Sound Samples

[TimingPoints]
380,375,4,1,0,100,1,0
1880,-100,4,1,0,100,0,0
3380,375,4,1,0,100,1,0
3380,-100,4,1,0,100,0,1
15380,-100,4,1,0,100,0,0
27380,-100,4,1,0,100,0,1
39380,-100,4,1,0,100,0,0
54380,375,4,1,0,100,1,0
54380,-100,4,1,0,100,0,1
66380,-100,4,1,0,100,0,0
69380,375,4,1,0,100,1,0
69380,-100,4,1,0,100,0,1
96380,375,4,1,0,100,1,1
108380,-100,4,1,0,100,0,0

[HitObjects]
197,162,380,5,4,0:0:0:0:
316,156,1880,1,0,0:0:0:0:
229,187,2161,1,0,0:0:0:0:
229,187,2442,1,0,0:0:0:0:
229,187,2723,1,0,0:0:0:0:
316,156,3005,1,8,0:0:0:0:
316,156,3380,1,4,0:0:0:0:
215,133,3567,1,8,0:0:0:0:
215,133,3755,1,0,0:0:0:0:
228,126,4130,1,8,0:0:0:0:
215,133,4317,1,0,0:0:0:0:
251,151,4880,1,0,0:0:0:0:
226,133,5067,1,8,0:0:0:0:
226,132,5255,1,0,0:0:0:0:
251,151,5630,1,8,0:0:0:0:
226,133,5817,1,0,0:0:0:0:
251,151,6380,1,0,0:0:0:0:
226,133,6567,1,8,0:0:0:0:
201,151,6755,1,0,0:0:0:0:
251,151,7130,1,8,0:0:0:0:
226,133,7411,1,0,0:0:0:0:
171,136,7692,1,0,0:0:0:0:
251,151,7880,1,8,0:0:0:0:
256,146,8630,1,8,0:0:0:0:
263,165,8911,1,8,0:0:0:0:
263,165,9192,1,8,0:0:0:0:
251,151,9380,1,4,0:0:0:0:
257,200,9567,1,8,0:0:0:0:
257,200,9755,1,0,0:0:0:0:
251,151,10130,1,8,0:0:0:0:
251,151,10317,1,0,0:0:0:0:
251,151,10880,1,0,0:0:0:0:
224,176,11067,1,8,0:0:0:0:
224,176,11255,1,0,0:0:0:0:
251,151,11630,1,8,0:0:0:0:
224,176,11817,1,0,0:0:0:0:
251,151,12380,1,0,0:0:0:0:
240,141,12567,1,8,0:0:0:0:
251,151,12755,1,0,0:0:0:0:
240,114,13130,1,8,0:0:0:0:
240,114,13411,1,0,0:0:0:0:
183,161,13692,1,0,0:0:0:0:
251,151,13880,1,8,0:0:0:0:
221,117,15380,1,12,0:0:0:0:
237,125,15755,1,8,0:0:0:0:
237,125,16505,1,8,0:0:0:0:
182,158,16880,1,0,0:0:0:0:
226,147,17161,1,0,0:0:0:0:
226,147,17442,1,8,0:0:0:0:
226,147,17723,1,8,0:0:0:0:
221,124,18005,1,8,0:0:0:0:
221,124,18380,1,4,0:0:0:0:
246,128,18567,1,8,0:0:0:0:
246,128,18755,1,0,0:0:0:0:
218,169,19130,1,0,0:0:0:0:
237,111,19411,1,8,0:0:0:0:
218,169,19880,1,0,0:0:0:0:
218,169,20255,1,8,0:0:0:0:
227,92,20536,1,0,0:0:0:0:
218,169,20817,1,0,0:0:0:0:
227,128,21005,1,8,0:0:0:0:
333,176,21380,1,12,0:0:0:0:
177,120,21755,1,8,0:0:0:0:
177,120,22505,1,8,0:0:0:0:
221,106,22880,1,0,0:0:0:0:
206,147,23161,1,8,0:0:0:0:
206,147,23442,1,8,0:0:0:0:
206,147,23723,1,0,0:0:0:0:
222,106,24005,1,8,0:0:0:0:
222,106,24380,1,4,0:0:0:0:
225,125,24567,1,8,0:0:0:0:
225,125,24755,1,0,0:0:0:0:
188,143,25130,1,8,0:0:0:0:
175,129,25411,1,0,0:0:0:0:
188,143,25880,1,12,0:0:0:0:
210,86,26255,1,8,0:0:0:0:
224,136,26536,1,0,0:0:0:0:
224,136,26817,1,0,0:0:0:0:
224,136,27005,1,8,0:0:0:0:
188,143,27380,1,4,0:0:0:0:
230,131,28130,1,8,0:0:0:0:
230,131,28505,1,8,0:0:0:0:
165,168,28880,1,0,0:0:0:0:
214,125,29255,1,0,0:0:0:0:
214,125,29630,1,8,0:0:0:0:
214,125,30005,1,0,0:0:0:0:
165,169,30380,1,8,0:0:0:0:
214,125,31130,1,8,0:0:0:0:
214,125,31505,1,8,0:0:0:0:
165,169,31880,1,0,0:0:0:0:
214,125,32255,1,0,0:0:0:0:
247,119,32630,1,8,0:0:0:0:
206,152,32911,1,8,0:0:0:0:
206,152,33192,1,8,0:0:0:0:
165,169,33380,1,4,0:0:0:0:
218,154,34130,1,0,0:0:0:0:
218,154,34505,1,0,0:0:0:0:
165,169,34880,1,8,0:0:0:0:
218,154,35255,1,0,0:0:0:0:
218,154,35630,1,8,0:0:0:0:
218,154,36005,1,8,0:0:0:0:
165,169,36380,1,0,0:0:0:0:
218,154,37130,1,8,0:0:0:0:
218,154,37505,1,0,0:0:0:0:
165,169,37880,1,8,0:0:0:0:
218,154,38255,1,0,0:0:0:0:
220,142,38442,1,0,0:0:0:0:
218,154,38630,1,0,0:0:0:0:
172,108,38817,1,0,0:0:0:0:
165,169,39005,1,8,0:0:0:0:
165,169,39380,1,4,0:0:0:0:
308,145,40130,1,8,0:0:0:0:
308,145,40505,1,8,0:0:0:0:
219,74,40692,1,8,0:0:0:0:
202,125,40880,1,0,0:0:0:0:
214,97,41630,1,0,0:0:0:0:
218,118,41817,1,0,0:0:0:0:
308,145,42005,1,8,0:0:0:0:
214,97,42192,1,8,0:0:0:0:
308,145,42380,1,0,0:0:0:0:
195,136,42755,1,0,0:0:0:0:
308,145,43130,1,8,0:0:0:0:
195,136,43505,1,0,0:0:0:0:
308,145,43880,1,8,0:0:0:0:
308,145,44161,1,8,0:0:0:0:
245,122,44442,1,8,0:0:0:0:
190,122,44630,1,0,0:0:0:0:
190,122,45192,1,8,0:0:0:0:
308,145,45380,1,4,0:0:0:0:
197,97,45755,1,8,0:0:0:0:
197,97,45942,1,0,0:0:0:0:
183,123,46317,1,0,0:0:0:0:
243,103,46505,1,0,0:0:0:0:
311,150,46692,1,8,0:0:0:0:
187,125,47067,1,0,0:0:0:0:
187,125,47255,1,0,0:0:0:0:
187,125,47442,1,8,0:0:0:0:
242,68,48192,1,8,0:0:0:0:
199,133,48567,1,0,0:0:0:0:
199,133,48755,1,8,0:0:0:0:
199,133,48942,1,0,0:0:0:0:
222,138,49317,1,0,0:0:0:0:
213,139,49505,1,8,0:0:0:0:
222,138,49692,1,8,0:0:0:0:
271,152,49880,1,0,0:0:0:0:
217,97,50442,1,8,0:0:0:0:
195,115,50817,1,0,0:0:0:0:
204,117,51005,1,0,0:0:0:0:
204,117,51192,1,0,0:0:0:0:
195,115,51380,1,8,0:0:0:0:
88,142,51755,1,8,0:0:0:0:
245,139,52130,1,8,0:0:0:0:
245,139,52505,1,8,0:0:0:0:
198,117,52880,1,0,0:0:0:0:
149,115,53067,1,0,0:0:0:0:
149,115,53255,1,0,0:0:0:0:
149,115,53442,1,0,0:0:0:0:
198,117,54380,1,4,0:0:0:0:
194,145,54755,1,8,0:0:0:0:
278,212,55130,1,0,0:0:0:0:
194,145,55505,1,8,0:0:0:0:
278,212,55880,1,0,0:0:0:0:
194,145,56255,1,8,0:0:0:0:
278,212,56630,1,0,0:0:0:0:
194,145,56817,1,0,0:0:0:0:
278,212,57005,1,8,0:0:0:0:
194,145,57192,1,8,0:0:0:0:
278,212,57380,1,0,0:0:0:0:
194,145,57755,1,8,0:0:0:0:
278,212,58130,1,0,0:0:0:0:
194,145,58505,1,8,0:0:0:0:
278,212,58880,1,8,0:0:0:0:
256,85,59067,1,8,0:0:0:0:
194,145,59255,1,0,0:0:0:0:
278,212,59630,1,8,0:0:0:0:
278,212,60380,1,4,0:0:0:0:
211,120,60755,1,8,0:0:0:0:
135,170,61130,1,0,0:0:0:0:
211,120,61505,1,8,0:0:0:0:
236,167,61880,1,0,0:0:0:0:
136,133,62255,1,8,0:0:0:0:
236,167,62630,1,8,0:0:0:0:
224,109,62817,1,0,0:0:0:0:
236,167,63005,1,8,0:0:0:0:
224,109,63192,1,8,0:0:0:0:
236,167,63380,1,0,0:0:0:0:
192,123,63755,1,0,0:0:0:0:
236,167,64130,1,8,0:0:0:0:
217,70,64317,1,8,0:0:0:0:
192,123,64505,1,0,0:0:0:0:
236,167,64880,1,8,0:0:0:0:
236,167,65630,1,0,0:0:0:0:
224,125,65817,1,8,0:0:0:0:
236,167,66005,1,8,0:0:0:0:
224,125,66192,1,8,0:0:0:0:
232,129,66380,1,0,0:0:0:0:
232,129,67130,1,0,0:0:0:0:
232,129,67692,1,0,0:0:0:0:
232,129,68255,1,0,0:0:0:0:
232,129,68630,1,0,0:0:0:0:
221,99,69380,1,4,0:0:0:0:
221,99,69755,1,0,0:0:0:0:
221,99,69942,1,0,0:0:0:0:
203,161,70130,1,8,0:0:0:0:
203,161,70505,1,0,0:0:0:0:
203,161,70692,1,0,0:0:0:0:
246,133,71067,1,0,0:0:0:0:
246,133,71255,1,8,0:0:0:0:
203,161,71630,1,0,0:0:0:0:
203,161,72005,1,8,0:0:0:0:
246,133,72192,1,8,0:0:0:0:
247,146,72567,1,0,0:0:0:0:
247,146,72755,1,8,0:0:0:0:
203,161,73130,1,8,0:0:0:0:
203,161,73411,1,8,0:0:0:0:
258,114,73692,1,8,0:0:0:0:
203,161,73880,1,0,0:0:0:0:
249,109,74630,1,8,0:0:0:0:
265,120,74817,1,8,0:0:0:0:
203,161,75380,1,4,0:0:0:0:
206,148,75755,1,0,0:0:0:0:
206,148,75942,1,0,0:0:0:0:
203,161,76130,1,8,0:0:0:0:
203,161,76505,1,8,0:0:0:0:
208,131,76692,1,0,0:0:0:0:
208,131,77067,1,0,0:0:0:0:
208,131,77255,1,8,0:0:0:0:
203,161,77630,1,8,0:0:0:0:
203,161,78005,1,8,0:0:0:0:
169,30,78192,1,8,0:0:0:0:
203,161,78380,1,0,0:0:0:0:
233,123,78942,1,0,0:0:0:0:
203,161,79505,1,8,0:0:0:0:
203,161,79880,1,0,0:0:0:0:
140,135,80630,1,8,0:0:0:0:
267,139,80817,1,8,0:0:0:0:
267,139,81005,1,8,0:0:0:0:
140,135,81380,1,4,0:0:0:0:
231,148,81755,1,0,0:0:0:0:
231,148,81942,1,0,0:0:0:0:
140,135,82130,1,8,0:0:0:0:
140,135,82505,1,0,0:0:0:0:
207,122,82692,1,0,0:0:0:0:
180,122,83067,1,0,0:0:0:0:
140,135,83255,1,8,0:0:0:0:
140,135,83630,1,0,0:0:0:0:
140,135,84005,1,8,0:0:0:0:
231,128,84192,1,0,0:0:0:0:
204,120,84567,1,0,0:0:0:0:
140,135,84755,1,8,0:0:0:0:
217,174,85130,1,8,0:0:0:0:
239,105,85411,1,8,0:0:0:0:
217,174,85692,1,8,0:0:0:0:
217,174,85880,1,0,0:0:0:0:
277,126,86630,1,8,0:0:0:0:
216,98,86817,1,8,0:0:0:0:
201,175,87380,1,4,0:0:0:0:
257,141,87755,1,0,0:0:0:0:
257,141,87942,1,0,0:0:0:0:
228,126,88130,1,8,0:0:0:0:
228,126,88505,1,0,0:0:0:0:
257,141,88692,1,8,0:0:0:0:
207,117,89067,1,8,0:0:0:0:
207,117,89255,1,0,0:0:0:0:
228,126,89630,1,8,0:0:0:0:
228,126,90005,1,8,0:0:0:0:
226,112,90192,1,8,0:0:0:0:
228,126,90380,1,0,0:0:0:0:
194,161,90942,1,0,0:0:0:0:
228,126,91505,1,8,0:0:0:0:
228,126,91880,1,0,0:0:0:0:
222,147,92630,1,8,0:0:0:0:
192,156,92817,1,8,0:0:0:0:
192,156,93005,1,8,0:0:0:0:
228,126,93380,1,4,0:0:0:0:
229,113,93567,1,8,0:0:0:0:
229,113,93755,1,0,0:0:0:0:
229,113,94130,1,8,0:0:0:0:
229,113,94411,1,0,0:0:0:0:
229,113,94692,1,0,0:0:0:0:
171,189,94880,1,8,0:0:0:0:
171,189,95630,1,0,0:0:0:0:
171,189,96005,1,8,0:0:0:0:
316,156,96380,1,4,0:0:0:0:
215,133,96567,1,8,0:0:0:0:
215,133,96755,1,0,0:0:0:0:
228,126,97130,1,8,0:0:0:0:
215,133,97317,1,0,0:0:0:0:
251,151,97880,1,0,0:0:0:0:
226,133,98067,1,8,0:0:0:0:
226,132,98255,1,0,0:0:0:0:
251,151,98630,1,8,0:0:0:0:
226,133,98817,1,0,0:0:0:0:
251,151,99380,1,0,0:0:0:0:
226,133,99567,1,8,0:0:0:0:
201,151,99755,1,0,0:0:0:0:
251,151,100130,1,8,0:0:0:0:
226,133,100411,1,0,0:0:0:0:
171,136,100692,1,0,0:0:0:0:
251,151,100880,1,8,0:0:0:0:
256,146,101630,1,8,0:0:0:0:
263,165,101911,1,8,0:0:0:0:
263,165,102192,1,8,0:0:0:0:
251,151,102380,1,4,0:0:0:0:
257,200,102567,1,8,0:0:0:0:
257,200,102755,1,0,0:0:0:0:
251,151,103130,1,8,0:0:0:0:
251,151,103317,1,0,0:0:0:0:
251,151,103880,1,0,0:0:0:0:
224,176,104067,1,8,0:0:0:0:
224,176,104255,1,0,0:0:0:0:
251,151,104630,1,8,0:0:0:0:
224,176,104817,1,0,0:0:0:0:
251,151,105380,1,0,0:0:0:0:
240,141,105567,1,8,0:0:0:0:
251,151,105755,1,0,0:0:0:0:
240,114,106130,1,8,0:0:0:0:
240,114,106411,1,0,0:0:0:0:
183,161,106692,1,0,0:0:0:0:
251,151,106880,1,8,0:0:0:0:
175,126,107630,1,0,0:0:0:0:
175,126,107911,1,0,0:0:0:0:
175,126,108192,1,0,0:0:0:0:
196,137,111098,1,4,0:0:0:0:
