osu file format v14

[General]
AudioFilename: audio.mp3
AudioLeadIn: 0
PreviewTime: 44000
Countdown: 1
SampleSet: Soft
StackLeniency: 0.7
Mode: 0
LetterboxInBreaks: 0
WidescreenStoryboard: 1

[Editor]
Bookmarks: 16358,17281,83743
DistanceSpacing: 0.5
BeatDivisor: 4
GridSize: 4
TimelineZoom: 2.3

[Metadata]
Title:Pneumatic Tokyo
TitleUnicode:Pneumatic Tokyo
Artist:EnV
ArtistUnicode:EnV
Creator:were491
Version:remap (shitmap) 2
Source:uhhhhhh the internet (jk Newgrounds)
Tags:this is not meant for rank, just bored and wanted to test smth out
BeatmapID:1825176
BeatmapSetID:873176

[Difficulty]
HPDrainRate:5.5
CircleSize:3.3
OverallDifficulty:7.7
ApproachRate:8.7
SliderMultiplier:1.4
SliderTickRate:1

[Events]
//Background and Video events
//Break Periods
//Storyboard Layer 0 (Background)
//Storyboard Layer 1 (Fail)
//Storyboard Layer 2 (Pass)
//Storyboard Layer 3 (Foreground)
//Storyboard Sound Samples

[TimingPoints]
204,461.538461538462,4,2,0,100,1,0
7589,-90.9090909090909,4,2,0,100,0,0
11281,-83.3333333333333,4,2,0,100,0,0
20743,-76.9230769230769,4,2,0,100,0,0
28358,-66.6666666666667,4,2,0,100,0,0
28820,-58.8235294117647,4,2,0,100,0,0
29281,-142.857142857143,4,2,0,100,0,0
29743,-52.6315789473684,4,2,0,100,0,0
36204,-47.6190476190476,4,2,0,100,0,0
44051,-43.4782608695652,4,2,0,100,0,0
74512,-40,4,2,0,100,0,0
76358,-37.037037037037,4,2,0,100,0,0
78204,-34.4827586206897,4,2,0,100,0,0
80051,-32.258064516129,4,2,0,100,0,0
80512,-30.3030303030303,4,2,0,100,0,0
80974,-28.5714285714286,4,2,0,100,0,0
81435,-34.4827586206897,4,2,0,100,0,0
86974,-100,4,2,0,100,0,0
87435,-66.6666666666667,4,2,0,100,0,0
87897,-50,4,2,0,100,0,0
88358,-40,4,2,0,100,0,0
88820,-200,4,2,0,100,0,0
90666,-33.3333333333333,4,2,0,100,0,0
94820,-30.3030303030303,4,2,0,100,0,0
95281,-27.7777777777778,4,2,0,100,0,0
95743,-25.6410256410256,4,2,0,100,0,0
96204,-27.027027027027,4,2,0,100,0,0
96666,-28.5714285714286,4,2,0,100,0,0
98051,-30.3030303030303,4,2,0,100,0,0
98512,-32.258064516129,4,2,0,100,0,0
99897,-38.4615384615385,4,2,0,100,0,0
100358,-45.4545454545455,4,2,0,100,0,0
101743,-55.5555555555556,4,2,0,100,0,0
102204,-71.4285714285714,4,2,0,100,0,0
102666,-100,4,2,0,100,0,0

[HitObjects]
254,169,204,6,0,P|335:221|429:163,1,210
398,34,1128,1,0,0:0:0:0:
423,186,1358,1,0,0:0:0:0:
398,34,1589,1,0,0:0:0:0:
345,174,1820,1,0,0:0:0:0:
398,34,2051,2,0,P|311:-16|226:35,1,210
346,310,2974,5,0,0:0:0:0:
253,114,3204,1,0,0:0:0:0:
346,310,3435,1,0,0:0:0:0:
444,117,3666,1,0,0:0:0:0:
346,310,3897,2,0,B|213:326|262:281|134:288,1,210
114,102,4820,5,0,0:0:0:0:
325,215,5051,1,0,0:0:0:0:
114,102,5281,1,0,0:0:0:0:
341,44,5512,1,0,0:0:0:0:
114,102,5743,2,0,B|221:163|200:59|322:130,1,210
395,129,6666,6,0,P|343:166|314:162,1,70
271,118,7128,6,0,P|293:91|326:80,1,70
482,157,7589,6,0,P|388:245|260:227,1,231.000007049561
185,200,8512,5,0,0:0:0:0:
385,103,8743,1,0,0:0:0:0:
140,117,8974,1,0,0:0:0:0:
431,172,9204,1,0,0:0:0:0:
140,117,9435,2,0,P|121:215|29:173,1,231.000007049561
27,38,10358,5,0,0:0:0:0:
255,78,10589,1,0,0:0:0:0:
20,146,10820,1,0,0:0:0:0:
262,207,11051,1,0,0:0:0:0:
20,146,11281,2,0,P|183:123|270:66,1,251.999992309571
48,41,12204,5,0,0:0:0:0:
281,112,12435,1,0,0:0:0:0:
48,173,12666,1,0,0:0:0:0:
280,255,12897,1,0,0:0:0:0:
48,40,13128,6,0,P|50:82|78:112,1,83.9999974365235
163,122,13589,6,0,P|135:52|100:43,1,83.9999974365235
78,112,14051,6,0,P|106:182|141:191,1,83.9999974365235
214,191,14512,5,0,0:0:0:0:
358,37,14743,1,0,0:0:0:0:
467,334,14974,5,0,0:0:0:0:
468,180,15204,1,0,0:0:0:0:
228,257,15435,2,0,P|275:271|313:257,1,83.9999974365235
468,180,15897,5,0,0:0:0:0:
419,63,16128,1,0,0:0:0:0:
315,257,16358,1,0,0:0:0:0:
276,135,16589,1,0,0:0:0:0:
161,256,16820,5,0,0:0:0:0:
315,257,17050,1,0,0:0:0:0:
238,17,17281,2,0,P|224:64|238:102,1,83.9999974365235
315,257,17743,5,0,0:0:0:0:
191,308,17974,1,0,0:0:0:0:
433,355,18204,1,0,0:0:0:0:
191,308,18435,1,0,0:0:0:0:
434,216,18666,5,0,0:0:0:0:
314,258,18897,1,0,0:0:0:0:
401,48,19128,2,0,P|326:45|291:65,1,83.9999974365235
211,202,19589,5,0,0:0:0:0:
418,287,19820,1,0,0:0:0:0:
211,202,20051,1,0,0:0:0:0:
350,162,20281,1,0,0:0:0:0:
211,202,20512,1,0,0:0:0:0:
350,162,20743,6,0,P|398:109|376:72,1,90.9999958343508
244,43,21204,1,0,0:0:0:0:
211,202,21435,6,0,P|282:250|322:246,1,90.9999958343508
365,215,21897,2,0,P|294:167|254:171,1,90.9999958343508
96,177,22358,1,0,0:0:0:0:
336,99,22589,2,0,P|381:55|376:20,1,90.9999958343508
286,336,23051,5,0,0:0:0:0:
311,214,23281,1,0,0:0:0:0:
74,212,23512,1,0,0:0:0:0:
191,350,23743,1,0,0:0:0:0:
311,214,23974,5,0,0:0:0:0:
189,63,24204,1,0,0:0:0:0:
191,350,24435,1,0,0:0:0:0:
311,214,24666,2,0,P|310:124|286:105,1,90.9999958343508
235,32,25128,5,0,0:0:0:0:
101,184,25358,1,0,0:0:0:0:
311,214,25589,1,0,0:0:0:0:
191,350,25820,1,0,0:0:0:0:
311,214,26051,1,0,0:0:0:0:
101,184,26281,1,0,0:0:0:0:
235,32,26512,2,0,P|259:99|298:113,1,90.9999958343508
386,134,26974,5,0,0:0:0:0:
367,8,27204,1,0,0:0:0:0:
320,216,27435,1,0,0:0:0:0:
295,80,27666,1,0,0:0:0:0:
367,8,27897,2,0,P|441:37|462:76,1,90.9999958343508
367,8,28358,6,0,P|441:37|462:76,1,105.000004005432
367,8,28820,6,0,P|441:37|462:76,1,119.000002269745
470,289,29281,2,0,P|459:330|440:352,1,48.9999985046387
280,182,29743,6,0,P|193:183|145:250,1,132.999996448517
239,255,30204,5,0,0:0:0:0:
197,60,30435,1,0,0:0:0:0:
328,139,30666,5,0,0:0:0:0:
101,177,30897,1,0,0:0:0:0:
414,124,31128,1,0,0:0:0:0:
18,192,31358,1,0,0:0:0:0:
327,138,31589,2,0,P|379:169|350:222,1,132.999996448517,0|0,3:0|3:0,3:0:0:0:
18,192,32051,5,0,0:0:0:0:
212,159,32281,1,0,0:0:0:0:
140,274,32512,5,0,0:0:0:0:
98,77,32743,1,0,0:0:0:0:
156,352,32974,1,0,0:0:0:0:
83,0,33204,1,0,0:0:0:0:
140,274,33435,2,0,P|223:259|194:225,1,132.999996448517
83,0,33897,5,0,0:0:0:0:
114,137,34128,1,0,0:0:0:0:
311,265,34358,5,0,0:0:0:0:
394,106,34589,1,0,0:0:0:0:
270,341,34820,1,0,0:0:0:0:
426,29,35051,1,0,0:0:0:0:
311,265,35281,2,0,P|262:300|225:252,1,132.999996448517
426,29,35743,5,0,0:0:0:0:
367,138,35974,1,0,0:0:0:0:
304,37,36204,6,0,P|221:45|185:103,1,146.999995513916
152,171,36666,6,0,P|235:163|271:105,1,146.999995513916
187,92,37128,6,0,P|104:100|68:158,1,146.999995513916
152,171,37589,5,0,0:0:0:0:
84,19,37820,1,0,0:0:0:0:
187,92,38051,5,0,0:0:0:0:
118,250,38281,1,0,0:0:0:0:
152,171,38512,5,0,0:0:0:0:
214,331,38742,1,0,0:0:0:0:
188,251,38974,2,0,P|232:142|184:92,1,146.999995513916
152,171,39435,5,0,0:0:0:0:
214,331,39666,1,0,0:0:0:0:
188,251,39897,5,0,0:0:0:0:
271,62,40128,1,0,0:0:0:0:
232,155,40358,5,0,0:0:0:0:
306,347,40589,1,0,0:0:0:0:
270,247,40820,5,0,0:0:0:0:
270,247,41051,1,0,0:0:0:0:
407,112,41281,5,0,0:0:0:0:
461,247,41512,1,0,0:0:0:0:
495,153,41743,5,0,0:0:0:0:
303,227,41974,1,0,0:0:0:0:
398,189,42204,5,0,0:0:0:0:
209,105,42435,1,0,0:0:0:0:
338,182,42666,2,0,P|322:102|386:33,1,146.999995513916
402,124,43128,5,0,0:0:0:0:
209,105,43358,1,0,0:0:0:0:
338,182,43589,6,0,P|322:102|386:33,1,146.999995513916
355,49,44051,6,0,P|320:144|406:218,1,161.000003070831
486,201,44512,6,0,P|466:276|397:311,1,161.000003070831
399,233,44974,1,0,0:0:0:0:
267,65,45204,1,0,0:0:0:0:
489,236,45435,1,0,0:0:0:0:
166,70,45666,1,0,0:0:0:0:
399,233,45897,1,0,0:0:0:0:
267,65,46128,1,0,0:0:0:0:
399,233,46358,6,0,B|346:311|305:180|203:325,1,161.000003070831
92,286,46820,1,0,0:0:0:0:
318,136,47051,1,0,0:0:0:0:
136,360,47281,1,0,0:0:0:0:
267,65,47512,1,0,0:0:0:0:
92,286,47743,1,0,0:0:0:0:
318,136,47974,1,0,0:0:0:0:
92,286,48204,6,0,P|87:368|182:331,1,161.000003070831
301,313,48666,1,0,0:0:0:0:
393,63,48897,1,0,0:0:0:0:
463,314,49128,1,0,0:0:0:0:
313,61,49358,1,0,0:0:0:0:
379,314,49589,1,0,0:0:0:0:
393,63,49820,1,0,0:0:0:0:
379,314,50051,6,0,P|176:280|166:268,1,161.000003070831
287,255,50512,1,0,0:0:0:0:
393,63,50743,1,0,0:0:0:0:
287,255,50974,6,0,P|201:318|127:311,1,161.000003070831
193,234,51435,6,0,P|279:171|353:178,1,161.000003070831
423,191,51897,6,0,P|337:254|263:247,1,161.000003070831
322,170,52358,5,0,0:0:0:0:
371,323,52589,1,0,0:0:0:0:
196,93,52820,1,0,0:0:0:0:
482,379,53051,1,0,0:0:0:0:
322,170,53281,1,0,0:0:0:0:
371,323,53512,1,0,0:0:0:0:
434,179,53743,6,0,P|387:244|371:323,1,161.000003070831
475,296,54204,1,0,0:0:0:0:
322,170,54435,1,0,0:0:0:0:
482,379,54666,1,0,0:0:0:0:
323,86,54897,1,0,0:0:0:0:
475,296,55128,1,0,0:0:0:0:
322,170,55358,1,0,0:0:0:0:
469,195,55589,6,0,P|467:78|394:26,1,161.000003070831
382,125,56051,1,0,0:0:0:0:
186,161,56281,1,0,0:0:0:0:
469,195,56512,1,0,0:0:0:0:
114,81,56743,1,0,0:0:0:0:
382,125,56974,1,0,0:0:0:0:
186,161,57204,1,0,0:0:0:0:
388,288,57435,6,0,P|463:166|444:112,1,161.000003070831
42,113,57897,1,0,0:0:0:0:
382,125,58128,1,0,0:0:0:0:
42,113,58358,6,0,P|144:193|208:190,1,161.000003070831
283,175,58820,5,0,0:0:0:0:
317,153,58935,1,0,0:0:0:0:
343,123,59051,1,0,0:0:0:0:
360,86,59166,1,0,0:0:0:0:
374,48,59281,2,0,P|429:105|440:190,1,161.000003070831
271,75,59743,5,0,0:0:0:0:
441,183,59974,1,0,0:0:0:0:
365,20,60204,1,0,0:0:0:0:
362,255,60435,1,0,0:0:0:0:
271,75,60666,1,0,0:0:0:0:
441,183,60897,1,0,0:0:0:0:
271,75,61128,6,0,P|169:73|127:149,1,161.000003070831
216,143,61589,1,0,0:0:0:0:
93,205,61820,1,0,0:0:0:0:
236,312,62051,1,0,0:0:0:0:
81,37,62281,1,0,0:0:0:0:
216,143,62512,1,0,0:0:0:0:
93,205,62743,1,0,0:0:0:0:
216,143,62974,6,0,P|353:172|380:236,1,161.000003070831
272,225,63435,1,0,0:0:0:0:
317,37,63666,1,0,0:0:0:0:
364,219,63897,1,0,0:0:0:0:
178,41,64128,1,0,0:0:0:0:
272,225,64358,1,0,0:0:0:0:
317,37,64589,1,0,0:0:0:0:
272,225,64820,6,0,P|331:301|407:301,1,161.000003070831
364,219,65281,1,0,0:0:0:0:
279,366,65512,1,0,0:0:0:0:
272,225,65743,6,0,P|193:149|127:174,1,161.000003070831
189,231,66204,6,0,P|267:306|333:281,1,161.000003070831
391,292,66666,6,0,P|312:216|246:241,1,161.000003070831
153,291,67128,1,0,0:0:0:0:
127,40,67358,1,0,0:0:0:0:
271,224,67589,1,0,0:0:0:0:
10,102,67820,1,0,0:0:0:0:
153,291,68051,1,0,0:0:0:0:
127,40,68281,1,0,0:0:0:0:
153,291,68512,6,0,P|58:212|81:179,1,161.000003070831
143,128,68974,1,0,0:0:0:0:
403,112,69204,1,0,0:0:0:0:
54,133,69435,1,0,0:0:0:0:
487,106,69666,1,0,0:0:0:0:
143,128,69897,1,0,0:0:0:0:
403,112,70128,1,0,0:0:0:0:
143,128,70358,6,0,L|325:117,1,161.000003070831
403,112,70820,1,0,0:0:0:0:
400,278,71051,1,0,0:0:0:0:
406,26,71281,1,0,0:0:0:0:
398,363,71512,1,0,0:0:0:0:
403,196,71743,6,0,P|257:165|217:202,1,161.000003070831
268,254,72204,6,0,P|175:169|193:95,1,161.000003070831
194,27,72666,1,0,0:0:0:0:
194,27,72897,1,0,0:0:0:0:
340,183,73128,5,0,0:0:0:0:
340,183,73243,5,0,0:0:0:0:
340,183,73358,5,0,0:0:0:0:
428,190,73589,6,0,P|342:266|252:206,1,161.000003070831
113,237,74051,6,0,P|159:146|223:140,1,161.000003070831
113,237,74512,2,0,P|159:146|223:140,1,175
197,217,74974,5,0,0:0:0:0:
76,94,75204,1,0,0:0:0:0:
261,280,75435,1,0,0:0:0:0:
13,32,75666,1,0,0:0:0:0:
261,280,75897,6,0,L|78:325,1,175
261,280,76358,6,0,L|78:325,1,189.000000720978
197,217,76820,5,0,0:0:0:0:
77,325,77051,1,0,0:0:0:0:
345,260,77281,1,0,0:0:0:0:
0,346,77512,1,0,0:0:0:0:
345,260,77743,6,0,B|213:260|264:216|139:218,1,189.000000720978
345,260,78204,6,0,B|213:260|264:216|139:218,1,203.000006195069
148,295,78666,5,0,0:0:0:0:
350,171,78897,1,0,0:0:0:0:
345,260,79128,1,0,0:0:0:0:
143,204,79358,1,0,0:0:0:0:
350,171,79589,6,0,P|180:63|151:62,1,203.000006195069
350,171,80051,2,0,P|180:63|151:62,1,217.000001655579
350,171,80512,2,0,P|268:91|157:61,1,231.000002202988
350,171,80974,2,0,P|264:85|146:60,1,245.000002336502
60,111,81435,6,0,P|35:179|85:126,1,203.000006195069
258,158,81897,2,0,P|284:100|279:173,1,203.000006195069
405,52,82358,5,0,0:0:0:0:
362,267,82589,1,0,0:0:0:0:
387,151,82820,1,0,0:0:0:0:
340,378,83051,1,0,0:0:0:0:
362,267,83281,2,0,B|287:201|260:338|150:231,1,203.000006195069
405,52,83743,2,0,B|330:-13|303:123|193:16,1,203.000006195069
43,137,84204,5,0,0:0:0:0:
457,132,84435,1,0,0:0:0:0:
134,137,84666,1,0,0:0:0:0:
368,132,84897,1,0,0:0:0:0:
43,137,85128,2,0,P|31:273|65:355,1,203.000006195069
457,132,85589,2,0,P|445:268|479:350,1,203.000006195069
366,131,86051,5,0,0:0:0:0:
43,137,86281,1,0,0:0:0:0:
277,134,86512,1,0,0:0:0:0:
165,134,86743,1,0,0:0:0:0:
369,36,86974,6,0,L|295:37,1,70
369,36,87435,6,0,L|221:38,1,105.000004005432
369,36,87897,6,0,L|184:38,1,140
194,37,88358,6,0,L|369:36,1,175
456,37,88820,6,0,L|457:79,1,35
470,335,89281,2,0,L|475:375,1,35
470,335,89743,5,0,0:0:0:0:
470,134,89974,1,0,0:0:0:0:
472,240,90204,1,0,0:0:0:0:
470,39,90435,1,0,0:0:0:0:
470,134,90666,6,0,P|359:134|317:179,1,175
470,333,91128,2,0,P|385:346|318:295,1,175
496,239,91589,5,0,0:0:0:0:
195,223,91820,1,0,0:0:0:0:
416,206,92051,1,0,0:0:0:0:
111,191,92281,1,0,0:0:0:0:
312,99,92512,2,0,B|257:165|355:208|268:301,1,210.000008010865
216,82,92974,2,0,B|160:147|258:190|171:283,1,210.000008010865
496,240,93435,5,0,0:0:0:0:
237,296,93666,1,0,0:0:0:0:
381,274,93897,1,0,0:0:0:0:
126,258,94128,1,0,0:0:0:0:
496,240,94358,6,0,P|390:187|448:101,1,210.000008010865
496,240,94820,2,0,P|390:187|503:110,1,231.000002202988
496,240,95281,2,0,P|390:187|506:113,1,251.999992309571
496,240,95743,2,0,P|390:187|511:114,1,273.000001041412
465,172,96204,6,0,P|312:192|245:123,1,258.999999011993
465,172,96666,2,0,P|312:192|246:125,1,245.000002336502
198,192,97128,1,0,0:0:0:0:
411,34,97358,1,0,0:0:0:0:
465,172,97588,1,0,0:0:0:0:
327,186,97820,1,0,0:0:0:0:
196,150,98051,6,0,P|86:243|81:384,1,231.000002202988
196,150,98512,2,0,P|86:243|81:384,1,217.000001655579
150,317,98974,1,0,0:0:0:0:
50,48,99204,1,0,0:0:0:0:
248,294,99435,1,0,0:0:0:0:
149,45,99666,1,0,0:0:0:0:
150,317,99897,6,0,P|192:163|278:129,1,181.999991668702
150,317,100358,2,0,P|159:193|200:153,1,154.000004699707
150,317,100820,1,0,0:0:0:0:
69,77,101051,1,0,0:0:0:0:
150,317,101281,1,0,0:0:0:0:
224,159,101512,1,0,0:0:0:0:
150,317,101743,6,0,P|158:217|201:183,1,125.999996154785
224,159,102204,6,0,P|150:145|127:110,1,97.9999970092774
83,78,102666,6,0,P|103:131|97:158,1,70
53,306,103128,5,0,0:0:0:0:
