osu file format v14

[General]
AudioFilename: audio.mp3
AudioLeadIn: 0
PreviewTime: 149458
Countdown: 0
SampleSet: Normal
StackLeniency: 0.7
Mode: 0
LetterboxInBreaks: 0
WidescreenStoryboard: 1

[Editor]
DistanceSpacing: 0.7
BeatDivisor: 4
GridSize: 8
TimelineZoom: 1.2

[Metadata]
Title:Pneumatic Tokyo
TitleUnicode:Pneumatic Tokyo
Artist:EnV
ArtistUnicode:EnV
Creator:-Nero Yuki-
Version:Normal
Source:
Tags:Tokyo, EnV, Dance
BeatmapID:1147024
BeatmapSetID:374760

[Difficulty]
HPDrainRate:4
CircleSize:3
OverallDifficulty:4
ApproachRate:5
SliderMultiplier:1
SliderTickRate:1

[Events]
//Background and Video events
0,0,"bg.jpg",0,0
//Break Periods
2,103548,116917
//Storyboard Layer 0 (Background)
//Storyboard Layer 1 (Fail)
//Storyboard Layer 2 (Pass)
//Storyboard Layer 3 (Foreground)
//Storyboard Sound Samples

[TimingPoints]
1810,461.538461538462,4,1,0,25,1,0
29502,-50,4,1,0,25,0,0
44271,-50,4,1,0,76,0,0
58579,-50,4,1,0,76,0,0
73810,-50,4,1,0,76,0,0
101964,-100,4,1,0,76,0,0
102425,-200,4,1,0,76,0,0
118117,-133.333333333333,4,1,0,36,0,0
132425,-50,4,1,0,78,0,0
147656,-133.333333333333,4,1,0,78,0,0
149502,-50,4,1,0,78,0,1
164271,-50,4,1,0,79,0,1
193348,-100,4,1,0,79,0,1
193810,-50,4,1,0,79,0,1
208579,-133.333333333333,4,1,0,75,0,0
223805,-133.333333333333,4,1,0,5,0,0

[Colours]
Combo1 : 0,128,0
Combo2 : 0,0,128
Combo3 : 128,0,0
Combo4 : 255,128,0

[HitObjects]
112,56,7348,6,0,P|176:152|272:168,1,200
232,328,9194,2,0,P|352:280|448:320,1,200
440,136,11040,2,0,P|360:200|256:208,1,200
128,128,12886,5,0,0:0:0:0:
128,128,13348,1,0,0:0:0:0:
128,128,13810,1,0,0:0:0:0:
280,88,14733,6,0,P|352:176|320:280,1,200
304,328,16117,1,0,0:0:0:0:
240,280,16579,2,0,P|152:240|56:264,1,200
8,328,17963,1,0,0:0:0:0:
80,296,18425,6,0,P|176:248|208:144,1,200
224,88,19810,1,0,0:0:0:0:
248,8,20271,2,0,P|304:56|464:56,1,200
504,56,21656,1,0,0:0:0:0:
464,128,22117,6,0,P|392:208|296:192,1,200
256,136,23502,1,0,0:0:0:0:
256,56,23963,2,0,P|176:112|224:216,1,200
256,248,25348,1,0,0:0:0:0:
272,328,25810,6,0,P|336:256|256:168,1,200
216,152,27194,1,0,0:0:0:0:
296,152,27656,1,0,0:0:0:0:
296,232,28117,2,0,P|248:208|200:240,1,100
256,160,29040,1,8,0:0:0:0:
392,240,29502,6,0,P|352:128|400:40,1,200
480,32,30425,2,0,L|344:24,1,100
312,40,30886,2,0,L|200:104,1,100
168,128,31348,1,0,0:0:0:0:
96,248,31810,5,0,0:0:0:0:
208,328,32271,2,0,L|344:312,1,100
368,288,32733,2,0,L|456:192,1,100
464,152,33194,1,0,0:0:0:0:
376,48,33656,5,0,0:0:0:0:
224,104,34117,2,0,L|128:160,1,100
216,168,34579,2,0,L|128:216,1,100
208,240,35040,1,0,0:0:0:0:
368,240,35502,6,0,L|480:280,1,100
384,296,35963,1,0,0:0:0:0:
232,336,36425,1,0,0:0:0:0:
96,296,36886,5,8,0:0:0:0:
216,232,37348,1,0,0:0:0:0:
96,168,37810,1,8,0:0:0:0:
208,88,38271,1,0,0:0:0:0:
328,160,38733,5,8,0:0:0:0:
208,240,39194,1,0,0:0:0:0:
328,304,39656,1,8,0:0:0:0:
456,240,40117,1,0,0:0:0:0:
352,144,40579,6,0,L|392:48,2,100
296,184,41271,1,8,0:0:0:0:
240,224,41502,2,0,L|216:336,2,100
200,168,42194,1,8,0:0:0:0:
144,128,42425,2,0,P|144:72|208:32,1,100
240,16,42886,2,0,P|296:16|336:56,1,100
368,104,43348,2,0,P|360:168|312:200,1,100
272,224,43810,2,0,P|216:216|168:168,1,100
176,136,44271,6,0,P|264:96|344:168,1,200
352,224,44963,2,0,P|432:264|472:216,1,100
488,208,45425,1,0,0:0:0:0:
496,136,45656,2,0,P|456:96|384:96,1,100
344,72,46117,1,0,0:0:0:0:
208,56,46579,6,0,L|96:16,2,100
240,120,47271,1,0,0:0:0:0:
264,184,47502,2,0,L|376:216,2,100
152,264,48425,6,0,P|192:312|272:320,1,100
296,320,48886,1,0,0:0:0:0:
336,264,49117,1,0,0:0:0:0:
400,248,49348,2,0,P|464:184|456:128,1,100
440,112,49810,1,0,0:0:0:0:
312,56,50271,6,0,P|256:64|200:40,1,100
160,16,50733,2,0,L|216:248,1,200
256,344,51656,6,0,P|312:328|376:344,1,100
424,336,52117,2,0,P|360:256|288:248,1,100
296,232,52579,1,0,0:0:0:0:
232,256,52810,1,0,0:0:0:0:
168,280,53040,2,0,P|64:240|48:192,1,100
64,184,53502,1,0,0:0:0:0:
176,96,53963,6,0,P|280:72|328:112,2,100
128,144,54656,1,0,0:0:0:0:
96,208,54886,2,0,P|80:256|96:312,2,100
232,160,55810,6,0,P|312:224|320:248,1,100
312,288,56271,2,0,P|232:360|176:352,1,100
176,352,56733,2,0,P|96:272|96:232,1,100
104,224,57194,1,0,0:0:0:0:
184,112,57656,6,0,P|248:184|240:232,2,100
64,40,58579,2,0,L|232:56,1,100
232,64,59040,1,0,0:0:0:0:
360,72,59502,6,0,L|456:32,1,100
512,56,59963,2,0,L|512:168,1,100
456,192,60425,2,0,L|352:120,1,100
440,112,60886,1,0,0:0:0:0:
312,160,61348,6,0,L|208:200,1,100
200,264,61810,2,0,L|296:320,1,100
352,304,62271,2,0,L|368:200,1,100
304,240,62733,1,0,0:0:0:0:
184,168,63194,6,0,L|88:112,1,100
88,48,63656,2,0,L|208:0,1,100
248,40,64117,2,0,L|224:160,1,100
168,96,64579,1,0,0:0:0:0:
272,192,65040,5,0,0:0:0:0:
320,240,65271,1,0,0:0:0:0:
344,176,65502,1,0,0:0:0:0:
344,32,65963,2,0,L|424:104,1,100
456,152,66425,6,0,L|440:312,1,100
424,320,66886,2,0,L|336:384,1,100
360,312,67348,2,0,L|256:336,1,100
304,280,67810,2,0,L|192:264,1,100
264,232,68271,1,0,0:0:0:0:
168,208,68733,6,0,L|32:168,1,100
136,160,69194,2,0,L|40:80,1,100
128,104,69656,2,0,L|80:16,1,100
144,48,70117,1,4,0:0:0:0:
280,96,70579,6,0,L|392:56,1,100
368,128,71040,2,0,L|424:248,1,100
344,192,71502,2,0,L|216:240,1,100
272,160,71963,1,4,0:0:0:0:
72,184,72425,5,0,0:0:0:0:
112,280,72656,1,0,0:0:0:0:
200,328,72886,1,0,0:0:0:0:
336,288,73348,2,0,P|384:176|352:96,1,200
232,48,74271,5,0,0:0:0:0:
216,184,74733,2,0,P|208:248|152:280,1,100
152,208,75194,2,0,P|48:176|40:144,1,100
56,120,75656,6,0,B|120:88|120:88|184:168|240:120,1,200
360,80,76579,2,0,P|416:64|472:88,1,100
480,136,77040,2,0,P|432:192|368:200,1,100
312,240,77502,6,0,B|256:336|256:336|344:320|400:360,1,200
480,296,78425,2,0,P|448:336|384:352,1,100
427,287,78886,2,0,P|379:327|331:335,1,100
312,272,79348,6,0,B|256:304|192:264|192:264|208:360,1,200
128,216,80271,2,0,B|184:184|248:224|248:224|248:168|272:136,1,200
360,56,81194,6,0,B|408:24|480:24|480:24|480:72|408:64,1,200
344,184,82117,2,0,P|288:224|248:224,1,100
192,224,82579,2,0,P|232:184|288:184,1,100
328,224,83040,6,0,B|296:288|240:336|240:336|240:288|256:264,1,200
312,152,83963,2,0,P|368:128|416:152,1,100
456,192,84425,2,0,P|464:240|432:296,1,100
376,288,84886,6,0,B|280:224|280:224|232:256|176:224,1,200
88,176,85810,2,0,P|56:96|200:112,1,300
216,168,86733,6,0,L|248:272,1,100
272,320,87194,2,0,L|320:224,1,100
328,168,87656,2,0,L|360:272,1,100
392,312,88117,2,0,P|432:264|440:208,1,100
424,152,88579,5,0,0:0:0:0:
304,80,89040,1,0,0:0:0:0:
168,120,89502,2,0,P|120:144|104:200,2,100
304,152,90425,2,0,P|360:184|384:232,2,100
184,224,91348,2,0,P|136:248|112:296,2,100
296,312,92271,2,0,P|336:248|328:208,2,100
280,176,93194,2,0,P|232:152|168:160,2,100
144,224,94117,2,0,P|112:192|40:184,2,100
152,360,95040,5,0,0:0:0:0:
208,312,95271,2,0,P|264:352|304:352,1,100
304,288,95733,1,0,0:0:0:0:
344,232,95963,2,0,L|456:208,2,100
248,128,96886,2,0,L|360:96,2,100
112,168,97810,2,0,L|0:192,2,100
208,272,98733,2,0,L|88:304,2,100
344,264,99656,2,0,L|464:288,2,100
304,128,100579,2,0,L|416:144,2,100
256,192,101271,12,0,103348,0:0:0:0:
256,192,118117,5,0,0:0:0:0:
184,120,119040,2,0,L|224:88,1,37.5000014305115
240,88,119502,2,0,L|288:88,1,37.5000014305115
296,104,119963,5,0,0:0:0:0:
344,192,120886,2,0,L|336:232,1,37.5000014305115
328,256,121348,2,0,L|288:288,1,37.5000014305115
272,288,121810,5,0,0:0:0:0:
168,264,122733,2,0,L|136:224,1,37.5000014305115
136,208,123194,2,0,L|136:160,1,37.5000014305115
152,144,123656,5,0,0:0:0:0:
248,192,124579,1,0,0:0:0:0:
248,192,125040,1,0,0:0:0:0:
192,192,125502,5,0,0:0:0:0:
136,136,125963,1,0,0:0:0:0:
80,192,126425,1,0,0:0:0:0:
136,240,126886,1,0,0:0:0:0:
200,280,127348,5,0,0:0:0:0:
152,336,127810,1,0,0:0:0:0:
88,296,128271,1,0,0:0:0:0:
144,248,128733,1,0,0:0:0:0:
208,216,129194,6,0,L|248:224,1,37.5000014305115
280,216,129656,2,0,L|320:184,1,37.5000014305115
328,160,130117,2,0,L|320:112,1,37.5000014305115
296,96,130579,2,0,L|248:72,1,37.5000014305115
232,64,131040,6,0,P|184:80|160:112,2,75.0000028610231
256,264,132425,5,8,0:0:0:0:
256,64,132886,1,0,0:0:0:0:
144,72,133810,5,8,0:0:0:0:
144,72,134040,1,8,0:0:0:0:
144,72,134271,1,8,0:0:0:0:
144,72,134502,1,8,0:0:0:0:
144,72,134733,1,8,0:0:0:0:
384,72,135656,5,8,0:0:0:0:
384,72,135886,1,8,0:0:0:0:
384,72,136117,1,8,0:0:0:0:
384,72,136348,1,8,0:0:0:0:
384,72,136579,1,8,0:0:0:0:
248,248,137502,5,8,0:0:0:0:
248,248,137733,1,8,0:0:0:0:
248,248,137963,1,8,0:0:0:0:
248,248,138194,1,8,0:0:0:0:
248,248,138425,1,8,0:0:0:0:
208,192,139348,2,0,P|192:136|200:88,1,100
288,192,139810,2,0,P|304:144|304:96,1,100
248,40,140271,5,0,0:0:0:0:
136,128,140733,1,0,0:0:0:0:
264,184,141194,2,0,P|312:160|328:104,1,100
336,40,141656,5,0,0:0:0:0:
488,96,142117,1,0,0:0:0:0:
384,200,142579,1,0,0:0:0:0:
264,104,143040,2,0,P|216:136|192:184,1,100
184,248,143502,5,0,0:0:0:0:
280,352,143963,1,0,0:0:0:0:
352,224,144425,6,0,P|376:160|352:128,1,100
296,104,144886,2,0,P|224:112|192:80,1,100
152,40,145348,2,0,P|80:48|72:96,1,100
40,144,145810,1,0,0:0:0:0:
160,216,146271,6,0,P|192:256|240:272,1,100
312,232,146733,2,0,P|368:208|440:240,1,100
472,256,147194,2,0,P|488:304|440:328,1,100
368,344,147656,1,0,0:0:0:0:
256,192,147886,12,0,149502,0:0:0:0:
208,144,149963,6,0,P|264:128|304:152,1,100
296,224,150425,2,0,P|240:240|192:208,1,100
152,152,150886,2,0,P|160:80|200:64,1,100
264,40,151348,1,0,0:0:0:0:
440,128,151810,6,0,P|400:184|360:200,1,100
472,216,152271,2,0,P|440:224|344:208,1,100
424,304,152733,2,0,P|376:272|344:216,1,100
328,144,153194,1,0,0:0:0:0:
128,160,153656,6,0,P|64:152|32:104,1,100
144,120,154117,2,0,P|104:80|96:32,1,100
176,96,154579,2,0,P|176:48|208:8,1,100
232,104,155040,1,0,0:0:0:0:
424,40,155502,2,0,P|432:96|384:136,1,100
328,192,155963,1,0,0:0:0:0:
224,264,156425,2,0,B|200:312|168:304|168:304|136:200|96:176,1,200
56,40,157348,5,0,0:0:0:0:
128,8,157579,1,0,0:0:0:0:
160,80,157810,1,0,0:0:0:0:
88,112,158040,2,0,P|48:160|48:208,1,100
88,264,158502,2,0,P|144:288|192:288,1,100
336,240,159194,5,0,0:0:0:0:
408,216,159425,1,0,0:0:0:0:
336,184,159656,1,0,0:0:0:0:
400,152,159886,2,0,P|424:104|472:96,1,100
336,128,160348,2,0,P|320:72|264:48,1,100
128,72,161040,5,0,0:0:0:0:
88,144,161271,1,0,0:0:0:0:
168,128,161502,1,0,0:0:0:0:
208,56,161733,2,0,P|264:16|304:16,1,100
280,96,162194,2,0,B|320:128|320:176|320:184,1,100
256,336,162886,1,0,0:0:0:0:
200,264,163117,1,0,0:0:0:0:
312,264,163348,1,0,0:0:0:0:
256,192,163810,5,0,0:0:0:0:
256,192,164271,5,0,0:0:0:0:
136,120,164733,2,0,P|112:176|56:192,1,100
152,192,165194,2,0,P|192:232|240:256,1,100
160,264,165656,2,0,P|144:312|96:344,1,100
176,344,166117,1,0,0:0:0:0:
320,336,166579,6,0,P|384:304|424:320,1,100
352,272,167040,2,0,P|336:216|304:192,1,100
376,200,167502,2,0,P|432:160|480:160,1,100
400,128,167963,1,0,0:0:0:0:
272,64,168425,6,0,P|248:32|192:16,1,100
128,48,168886,2,0,P|112:112|136:152,1,100
184,176,169348,2,0,P|240:168|272:120,1,100
200,96,169810,1,0,0:0:0:0:
400,160,170271,2,0,L|288:128,1,100
200,96,170733,1,0,0:0:0:0:
128,136,171194,6,0,B|168:184|168:184|160:208|224:192|288:128,1,200
352,16,172117,6,0,P|416:16|456:64,1,100
472,104,172579,2,0,P|432:160|432:208,1,100
440,256,173040,1,0,0:0:0:0:
504,240,173271,1,0,0:0:0:0:
512,176,173502,1,0,0:0:0:0:
320,224,173963,6,0,P|368:184|368:136,1,100
360,72,174425,2,0,P|328:32|272:24,1,100
216,40,174886,1,0,0:0:0:0:
168,88,175117,1,0,0:0:0:0:
160,160,175348,1,0,0:0:0:0:
200,296,175810,6,0,P|248:280|296:296,1,100
344,248,176271,2,0,P|296:216|224:224,1,100
184,232,176733,1,0,0:0:0:0:
120,264,176963,1,0,0:0:0:0:
72,312,177194,2,0,B|48:240|56:176|56:176|80:160|96:128,1,200
94,128,177886,1,0,0:0:0:0:
94,128,178117,1,0,0:0:0:0:
192,32,178579,5,0,0:0:0:0:
288,136,179040,6,0,P|200:216|80:248,1,200
56,264,179963,2,0,P|104:304|152:312,2,100
88,136,180886,2,0,P|152:208|272:232,1,200
344,256,181810,2,0,P|296:296|248:304,2,100
416,192,182733,6,0,P|408:88|304:48,1,200
240,72,183656,2,0,P|200:80|128:72,2,100
352,80,184579,6,0,P|416:192|376:288,1,200
272,304,185502,2,0,P|192:200|208:128,1,200
344,128,186425,6,0,P|240:216|136:232,1,200
40,208,187348,2,0,P|88:152|120:152,1,100
160,192,187810,2,0,P|136:248|88:264,1,100
40,232,188271,2,0,P|32:120|88:40,1,200
216,24,189194,2,0,P|248:80|232:136,1,100
200,168,189656,2,0,P|200:224|248:288,1,100
280,288,190117,6,0,B|344:248|360:152|360:152|376:216,1,200
408,320,191040,2,0,B|448:368|448:368|440:256|456:192,1,200
440,88,191963,5,0,0:0:0:0:
392,32,192194,1,0,0:0:0:0:
384,104,192425,1,0,0:0:0:0:
328,64,192656,1,0,0:0:0:0:
320,136,192886,2,0,P|296:216|184:272,1,200
88,192,193810,6,0,P|160:160|200:160,1,100
216,232,194271,2,0,P|184:192|136:168,1,100
72,272,194733,2,0,P|120:232|168:216,1,100
192,304,195194,2,0,P|176:256|128:224,1,100
80,200,195656,1,0,0:0:0:0:
168,96,196117,1,0,0:0:0:0:
312,96,196579,1,0,0:0:0:0:
408,192,197040,1,0,0:0:0:0:
288,224,197502,6,0,P|360:200|400:208,1,100
400,288,197963,2,0,P|384:240|344:208,1,100
256,264,198425,2,0,P|312:248|368:248,1,100
374,339,198886,2,0,P|374:283|350:243,1,100
280,256,199348,5,0,0:0:0:0:
160,184,199810,2,0,P|200:136|264:144,1,100
304,152,200271,1,0,0:0:0:0:
384,40,200733,2,0,P|320:16|264:24,1,100
224,40,201194,6,0,L|128:96,1,100
72,80,201656,2,0,L|72:184,1,100
16,224,202117,2,0,L|112:280,1,100
72,336,202579,2,0,L|200:280,1,100
224,328,203040,2,0,L|248:216,1,100
312,256,203502,2,0,L|256:144,1,100
336,144,203963,2,0,L|208:128,1,100
168,120,204425,1,0,0:0:0:0:
80,232,204886,6,0,P|144:216|192:232,1,100
224,280,205348,2,0,P|280:288|328:256,1,100
360,216,205810,2,0,P|408:152|392:112,1,100
352,88,206271,2,0,P|304:48|296:0,1,100
240,56,206733,2,0,P|208:112|160:128,1,100
232,168,207194,2,0,P|256:224|296:248,1,100
224,272,207656,2,0,P|200:320|160:344,1,100
232,360,208117,1,0,0:0:0:0:
256,288,208579,5,0,0:0:0:0:
312,240,209040,1,0,0:0:0:0:
256,192,209502,1,0,0:0:0:0:
200,240,209963,1,0,0:0:0:0:
144,168,210425,5,0,0:0:0:0:
216,112,210886,1,0,0:0:0:0:
304,112,211348,1,0,0:0:0:0:
368,176,211810,1,0,0:0:0:0:
296,232,212271,6,0,P|248:248|224:240,1,75.0000028610231
216,152,213194,2,0,P|256:128|288:152,1,75.0000028610231
360,184,214117,2,0,L|424:232,1,75.0000028610231
400,320,215040,2,0,L|328:272,1,75.0000028610231
256,240,215963,5,0,0:0:0:0:
256,152,216425,1,0,0:0:0:0:
352,304,217348,1,0,0:0:0:0:
176,304,218271,1,0,0:0:0:0:
256,144,219194,1,0,0:0:0:0:
256,192,220117,12,0,223348,0:0:0:0:
