osu file format v14

[General]
AudioFilename: audio.mp3
AudioLeadIn: 0
PreviewTime: 15727
Countdown: 0
SampleSet: Normal
StackLeniency: 0.7
Mode: 0
LetterboxInBreaks: 0
WidescreenStoryboard: 1

[Editor]
Bookmarks: 2248,16161,30074,43988,50944,57901,64857,71814,85727,99640,106596,113553,114422,115292,116161,117031,117901,118770,119640,127466
DistanceSpacing: 1.1
BeatDivisor: 2
GridSize: 16
TimelineZoom: 1.5

[Metadata]
Title:Moonlight Shadow (Dance 2 Disco Remix)
TitleUnicode:Moonlight Shadow (Dance 2 Disco Remix)
Artist:Empyre One
ArtistUnicode:Empyre One
Creator:[Akito]
Version:Insane
Source:
Tags:DJ Electronic English Club House Bootleg
BeatmapID:2704397
BeatmapSetID:1304227

[Difficulty]
HPDrainRate:6
CircleSize:4.2
OverallDifficulty:7
ApproachRate:8.5
SliderMultiplier:1.7
SliderTickRate:1

[Events]
//Background and Video events
0,0,"bgmoonlight.jpg",0,0
//Break Periods
2,113813,119759
//Storyboard Layer 0 (Background)
//Storyboard Layer 1 (Fail)
//Storyboard Layer 2 (Pass)
//Storyboard Layer 3 (Foreground)
//Storyboard Layer 4 (Overlay)
//Storyboard Sound Samples

[TimingPoints]
569.754809196121,434.782608695652,4,2,0,50,1,0
2308,-100,4,1,0,60,0,0
16221,-100,4,1,0,80,0,0
29265,-100,4,2,0,75,0,0
29700,-100,4,1,0,75,0,0
30134,-100,4,1,0,80,0,0
44048,-125,4,3,0,70,0,0
45569,-125,4,2,0,70,0,0
45787,-125,4,3,0,70,0,0
47308,-125,4,2,0,70,0,0
47526,-111.111111111111,4,3,0,70,0,0
49048,-125,4,2,0,70,0,0
49265,-125,4,3,0,70,0,0
51004,-125,4,3,0,80,0,0
52526,-125,4,2,0,80,0,0
52743,-125,4,3,0,80,0,0
54265,-125,4,2,0,80,0,0
54482,-125,4,3,0,80,0,0
56004,-125,4,2,0,80,0,0
56221,-125,4,3,0,80,0,0
57526,-125,4,1,0,80,0,0
57743,-125,4,1,0,80,0,0
57961,-76.9230769230769,4,2,0,90,0,1
64482,-76.9230769230769,4,3,0,90,0,0
64917,-76.9230769230769,4,2,0,90,0,1
70134,-100,4,2,0,90,0,1
70569,-100,4,2,0,80,0,1
71004,-100,4,2,0,70,0,1
71439,-100,4,2,0,60,0,1
71874,-100,4,1,0,80,0,0
84917,-100,4,2,0,75,0,0
85352,-100,4,1,0,75,0,0
85787,-100,4,1,0,80,0,0
99700,-125,4,3,0,70,0,0
101221,-125,4,2,0,70,0,0
101439,-125,4,3,0,70,0,0
102961,-125,4,2,0,70,0,0
103178,-125,4,3,0,70,0,0
104700,-125,4,2,0,70,0,0
104917,-125,4,3,0,70,0,0
106656,-125,4,3,0,80,0,0
108178,-125,4,2,0,80,0,0
108395,-125,4,3,0,80,0,0
109917,-125,4,2,0,80,0,0
110134,-125,4,3,0,80,0,0
111656,-125,4,2,0,80,0,0
113613,-125,4,2,0,20,0,0
120569,-133.333333333333,4,2,0,50,0,0
123613,-117.647058823529,4,2,0,50,0,0
126656,-100,4,2,0,50,0,0
127526,-76.9230769230769,4,2,0,90,0,1
134048,-76.9230769230769,4,3,0,90,0,0
134482,-76.9230769230769,4,2,0,90,0,1
139700,-100,4,2,0,90,0,1
140134,-100,4,2,0,75,0,1
140569,-100,4,2,0,60,0,1
141004,-100,4,2,0,45,0,1
141439,-100,4,2,0,30,0,0

[Colours]
Combo1 : 0,183,183
Combo2 : 0,128,255
Combo3 : 128,128,255
Combo4 : 94,174,174
Combo5 : 104,148,251
Combo6 : 0,255,255

[HitObjects]
47,171,2308,6,0,B|91:131|129:163|181:163|213:133,1,170,8|8,0:0|0:0,0:0:0:0:
255,224,2961,1,0,0:0:0:0:
303,137,3178,2,0,B|331:163|383:163|421:131|465:171,2,170,8|8|8,0:0|0:0|0:0,0:0:0:0:
155,287,4482,1,8,0:0:0:0:
256,331,4700,1,0,0:0:0:0:
357,287,4917,1,8,0:0:0:0:
256,331,5134,1,0,0:0:0:0:
155,287,5352,2,0,L|64:239,1,85,8|0,0:0|0:0,0:0:0:0:
50,140,5787,6,0,L|209:219,1,170,8|8,0:0|0:0,0:0:0:0:
256,120,6439,1,0,0:0:0:0:
309,215,6656,2,0,L|462:140,2,170,8|8|8,0:0|0:0|0:0,0:0:0:0:
256,288,7961,1,8,0:0:0:0:
312,118,8178,1,0,0:0:0:0:
167,223,8395,1,8,0:0:0:0:
346,223,8613,1,0,0:0:0:0:
201,118,8830,2,0,L|136:60,1,85,8|0,0:0|0:0,0:0:0:0:
306,152,9265,6,0,L|301:67,1,85,8|8,0:0|0:0,0:0:0:0:
363,246,9700,2,0,L|419:182,1,85,8|8,0:0|0:0,0:0:0:0:
329,351,10134,2,0,L|415:346,1,85,8|8,0:0|0:0,0:0:0:0:
363,246,10569,1,8,0:0:0:0:
256,264,10787,1,8,0:0:0:0:
149,233,11004,6,0,P|147:276|158:317,1,85,8|8,0:0|0:0,0:0:0:0:
89,139,11439,2,0,P|58:168|37:205,1,85,8|8,0:0|0:0,0:0:0:0:
123,34,11874,2,0,P|78:33|26:51,2,85,8|8|8,0:0|0:0|0:0,0:0:0:0:
195,93,12526,1,8,0:0:0:0:
290,101,12743,5,10,0:0:0:0:
324,105,12852,1,8,0:0:0:0:
354,119,12961,1,8,0:0:0:0:
377,143,13069,1,8,0:0:0:0:
379,177,13178,1,8,0:0:0:0:
364,207,13287,1,8,0:0:0:0:
333,221,13395,1,8,0:0:0:0:
300,231,13504,1,8,0:0:0:0:
266,225,13613,1,8,0:0:0:0:
233,215,13721,1,8,0:0:0:0:
200,207,13830,1,8,0:0:0:0:
165,209,13939,1,8,0:0:0:0:
134,222,14048,1,8,0:0:0:0:
114,249,14156,1,8,0:0:0:0:
109,283,14265,1,8,0:0:0:0:
124,313,14374,1,8,0:0:0:0:
153,332,14482,6,0,B|194:345|235:331|235:331|288:316|331:340,1,170,8|8,0:0|0:0,0:0:0:0:
301,127,15134,1,0,0:0:0:0:
257,141,15243,1,0,0:0:0:0:
211,127,15352,1,0,0:0:0:0:
80,209,15569,1,0,0:0:0:0:
256,304,15787,1,8,0:0:0:0:
432,209,16004,1,0,0:0:0:0:
380,307,16221,6,0,P|355:267|317:243,1,85,4|0,0:0|0:0,0:0:0:0:
345,137,16656,2,0,P|297:138|258:159,1,85,8|0,0:0|0:0,0:0:0:0:
178,84,17091,2,0,P|155:125|154:170,1,85
177,270,17526,1,8,0:0:0:0:
71,237,17743,1,0,0:0:0:0:
152,162,17961,6,0,P|130:125|96:100,1,85,2|0,0:0|0:0,0:0:0:0:
235,228,18395,2,0,P|256:191|261:150,1,85,8|0,0:0|0:0,0:0:0:0:
215,338,18830,2,0,P|257:338|296:321,1,85
385,255,19265,1,8,0:0:0:0:
491,238,19482,1,0,0:0:0:0:
423,151,19700,5,2,0:0:0:0:
256,192,19917,1,0,0:0:0:0:
89,151,20134,1,8,0:0:0:0:
21,238,20352,1,0,0:0:0:0:
128,254,20569,2,0,L|156:343,1,85
255,292,21004,2,0,L|229:210,1,85,8|0,0:0|0:0,0:0:0:0:
143,140,21439,6,0,P|216:104|301:129,1,170,2|8,0:0|0:0,0:0:0:0:
503,206,22091,1,0,0:0:0:0:
410,145,22308,2,0,B|391:182|395:226|395:226|346:313,1,170,0|8,0:0|0:0,0:0:0:0:
256,245,22961,1,0,0:0:0:0:
256,245,23069,1,0,0:0:0:0:
256,245,23178,1,2,0:0:0:0:
160,298,23395,5,0,0:0:0:0:
62,245,23613,2,0,L|26:149,1,85,8|0,0:0|0:0,0:0:0:0:
94,73,24048,2,0,L|123:152,1,85
254,330,24482,1,8,0:0:0:0:
172,251,24700,1,0,0:0:0:0:
123,152,24917,6,0,P|162:139|213:149,1,85,2|0,0:0|0:0,0:0:0:0:
275,60,25352,2,0,P|305:88|322:136,1,85,8|0,0:0|0:0,0:0:0:0:
431,131,25787,2,0,P|421:171|387:210,1,85
312,278,26221,1,8,0:0:0:0:
203,302,26439,1,0,0:0:0:0:
407,333,26656,5,2,0:0:0:0:
312,278,26874,1,0,0:0:0:0:
252,185,27091,1,8,0:0:0:0:
229,76,27308,1,0,0:0:0:0:
229,76,27526,2,0,L|131:51,1,85
0,122,27961,2,0,L|81:144,1,85,8|0,0:0|0:0,0:0:0:0:
148,56,28395,6,0,P|190:132|168:209,1,170,2|8,0:0|0:0,0:0:0:0:
284,133,29048,1,0,0:0:0:0:
299,289,29265,2,0,P|250:221|168:207,1,170,2|8,0:0|0:0,0:0:0:0:
123,277,30134,6,0,P|139:238|167:206,1,85,4|0,0:0|0:0,0:0:0:0:
136,100,30569,2,0,P|178:98|218:110,1,85,8|0,0:0|0:0,0:0:0:0:
278,17,31004,2,0,P|308:45|329:83,1,85
439,92,31439,1,8,0:0:0:0:
377,183,31656,1,0,0:0:0:0:
328,83,31874,6,0,P|292:115|273:161,1,85,2|0,0:0|0:0,0:0:0:0:
166,156,32308,2,0,P|179:202|213:238,1,85,8|0,0:0|0:0,0:0:0:0:
160,332,32743,2,0,P|207:339|255:323,1,85
314,245,33178,1,8,0:0:0:0:
353,348,33395,1,0,0:0:0:0:
314,245,33613,6,0,P|262:175|184:160,1,170,2|8,0:0|0:0,0:0:0:0:
208,268,34265,1,0,0:0:0:0:
102,236,34482,2,0,L|32:183,1,85
117,111,34917,2,0,L|184:162,1,85,8|0,0:0|0:0,0:0:0:0:
272,229,35352,1,2,0:0:0:0:
217,59,35569,1,0,0:0:0:0:
361,164,35787,1,8,0:0:0:0:
183,164,36004,1,0,0:0:0:0:
327,59,36221,5,0,0:0:0:0:
406,264,36439,1,0,0:0:0:0:
256,192,36656,1,8,0:0:0:0:
106,264,36874,1,0,0:0:0:0:
185,59,37091,2,0,P|146:41|104:38,1,85,2|0,0:0|0:0,0:0:0:0:
122,147,37526,6,0,P|82:162|50:189,1,85,8|0,0:0|0:0,0:0:0:0:
139,255,37961,2,0,P|121:293|118:335,1,85
256,320,38395,1,8,0:0:0:0:
256,181,38613,1,0,0:0:0:0:
326,59,38830,6,0,P|365:41|407:38,1,85,2|0,0:0|0:0,0:0:0:0:
390,147,39265,2,0,P|429:162|461:189,1,85,8|0,0:0|0:0,0:0:0:0:
373,255,39700,2,0,P|390:293|393:335,1,85
256,320,40134,1,8,0:0:0:0:
256,209,40352,1,0,0:0:0:0:
345,144,40569,2,0,P|383:128|442:128,1,85,2|0,0:0|0:0,0:0:0:0:
256,113,41004,2,0,L|256:17,1,85,8|0,0:0|0:0,0:0:0:0:
167,144,41439,2,0,P|129:128|70:128,1,85
256,288,41874,1,8,0:0:0:0:
256,192,42308,12,4,44048,0:0:0:0:
128,256,44482,5,8,0:0:0:0:
255,75,44917,1,8,0:0:0:0:
384,256,45352,1,8,0:0:0:0:
450,314,45569,1,2,0:0:0:0:
472,228,45787,1,8,0:0:0:0:
322,134,46221,1,8,0:0:0:0:
256,298,46656,1,8,0:0:0:0:
190,134,47091,1,8,0:0:0:0:
257,191,47308,1,2,0:0:0:0:
322,134,47526,6,0,P|255:101|190:133,1,152.999995330811,8|8,0:0|0:0,0:0:0:0:
257,191,48178,1,0,0:0:0:0:
322,250,48395,2,0,P|256:283|190:250,1,152.999995330811,8|8,0:0|0:0,0:0:0:0:
399,205,49048,1,2,0:0:0:0:
486,193,49265,2,0,P|451:136|383:120,2,136,8|8|8,0:0|0:0|0:0,0:0:0:0:
486,193,50569,1,8,0:0:0:0:
445,256,51004,6,0,L|426:334,1,68,4|0,0:0|0:0,0:0:0:0:
345,292,51439,2,0,L|277:337,1,68,8|0,0:0|0:0,0:0:0:0:
248,250,51874,2,0,L|171:232,1,68,8|0,0:0|0:0,0:0:0:0:
116,174,52308,1,8,0:0:0:0:
27,177,52526,1,2,0:0:0:0:
116,174,52743,6,0,P|145:148|163:113,1,68,8|0,0:0|0:0,0:0:0:0:
243,150,53178,2,0,P|248:114|233:74,1,68,8|0,0:0|0:0,0:0:0:0:
324,61,53613,2,0,P|303:25|280:8,1,68,8|0,0:0|0:0,0:0:0:0:
239,84,54048,1,8,0:0:0:0:
160,123,54265,1,2,0:0:0:0:
100,187,54482,6,0,P|165:212|222:187,1,136,8|8,0:0|0:0,0:0:0:0:
256,104,55134,1,0,0:0:0:0:
289,186,55352,2,0,P|350:212|412:187,1,136,8|8,0:0|0:0,0:0:0:0:
351,121,56004,1,2,0:0:0:0:
411,187,56221,2,0,B|432:215|428:251|428:251|454:278|450:321,1,136,8|8,0:0|0:0,0:0:0:0:
273,269,57091,1,0,0:0:0:0:
244,242,57200,1,0,0:0:0:0:
225,207,57308,1,0,0:0:0:0:
215,168,57417,1,0,0:0:0:0:
223,129,57526,1,8,0:0:0:0:
282,59,57743,1,8,0:0:0:0:
327,137,57961,6,0,L|374:243,1,110.499994941712,4|0,1:0|0:0,0:0:0:0:
396,96,58395,2,0,L|443:202,1,110.499994941712,8|0,1:0|0:0,0:0:0:0:
426,340,58830,1,0,1:0:0:0:
195,263,59048,1,2,0:0:0:0:
309,303,59265,1,8,1:0:0:0:
82,214,59482,1,2,0:0:0:0:
128,114,59700,6,0,P|195:110|253:78,1,110.499994941712,0|0,1:0|0:0,0:0:0:0:
368,142,60134,2,0,P|301:146|243:178,1,110.499994941712,8|0,1:0|0:0,0:0:0:0:
128,114,60569,1,0,1:0:0:0:
256,32,60787,1,2,0:0:0:0:
390,245,61004,1,8,1:0:0:0:
262,163,61221,1,2,0:0:0:0:
139,237,61439,6,0,P|174:279|241:305,1,110.499994941712,0|0,1:0|0:0,0:0:0:0:
262,163,61874,2,0,P|320:166|379:128,1,110.499994941712,8|0,1:0|0:0,0:0:0:0:
474,66,62308,1,0,1:0:0:0:
365,242,62526,1,2,0:0:0:0:
474,352,62743,1,8,1:0:0:0:
365,142,62961,1,2,0:0:0:0:
267,264,63178,6,0,P|224:288|160:288,1,110.499994941712,0|0,1:0|0:0,0:0:0:0:
163,94,63613,2,0,P|218:94|267:120,1,110.499994941712,8|0,1:0|0:0,0:0:0:0:
355,233,64048,1,0,1:0:0:0:
165,295,64265,1,0,1:0:0:0:
163,94,64482,1,8,1:0:0:0:
355,151,64917,6,0,L|279:57,1,110.499994941712,4|0,1:0|0:0,0:0:0:0:
302,208,65352,2,0,L|371:293,1,110.499994941712,8|0,1:0|0:0,0:0:0:0:
472,190,65787,1,0,1:0:0:0:
229,191,66004,1,2,0:0:0:0:
352,192,66221,1,8,1:0:0:0:
109,193,66439,1,2,0:0:0:0:
83,51,66656,6,0,P|41:80|16:136,1,110.499994941712,0|0,1:0|0:0,0:0:0:0:
83,333,67091,2,0,P|41:304|16:248,1,110.499994941712,8|0,1:0|0:0,0:0:0:0:
192,96,67526,1,0,1:0:0:0:
320,288,67743,1,2,0:0:0:0:
320,96,67961,1,8,1:0:0:0:
192,288,68178,1,2,0:0:0:0:
83,51,68395,6,0,P|96:105|63:174,1,110.499994941712,0|0,1:0|0:0,0:0:0:0:
220,127,68830,2,0,P|191:174|118:199,1,110.499994941712,8|0,1:0|0:0,0:0:0:0:
168,56,69265,1,0,1:0:0:0:
255,283,69482,1,2,0:0:0:0:
385,105,69700,1,8,1:0:0:0:
481,303,69917,1,2,0:0:0:0:
371,287,70134,6,0,P|388:243|425:207,1,85,0|0,1:0|0:0,0:0:0:0:
339,131,70569,2,0,P|378:113|420:110,1,85,8|0,1:0|0:0,0:0:0:0:
231,118,71004,2,0,P|234:160|252:199,1,85,0|2,1:0|0:0,0:0:0:0:
168,271,71439,2,0,P|199:298|239:313,1,85,8|2,1:0|0:0,0:0:0:0:
323,240,71874,6,0,B|355:273|352:320|352:320|445:351,2,170,4|8|0,0:0|0:0|0:0,0:0:0:0:
226,185,72961,1,0,0:0:0:0:
151,101,73178,2,0,P|186:79|228:74,1,85,8|0,0:0|0:0,0:0:0:0:
76,178,73613,2,0,P|49:96|88:14,2,170,2|8|0,0:0|0:0|0:0,0:0:0:0:
247,212,74917,1,8,0:0:0:0:
453,284,75352,6,0,L|375:335,1,85,2|0,0:0|0:0,0:0:0:0:
331,231,75787,2,0,L|239:211,1,85,8|0,0:0|0:0,0:0:0:0:
291,112,76221,2,0,L|240:33,1,85
57,76,76656,1,8,0:0:0:0:
162,115,76874,1,0,0:0:0:0:
61,186,77091,2,0,B|93:222|133:228|133:228|165:312,1,170,2|8,0:0|0:0,0:0:0:0:
254,244,77743,1,0,0:0:0:0:
348,307,77961,2,0,B|379:228|379:228|419:222|451:186,1,170,0|8,0:0|0:0,0:0:0:0:
479,78,78613,1,0,0:0:0:0:
371,100,78830,6,0,L|271:71,1,85,2|0,0:0|0:0,0:0:0:0:
271,149,79265,2,0,L|190:126,1,85,8|0,0:0|0:0,0:0:0:0:
180,211,79700,2,0,L|98:187,1,85
63,82,80134,1,8,0:0:0:0:
95,188,80352,1,0,0:0:0:0:
12,277,80569,2,0,B|81:337|172:273,1,170,2|8,0:0|0:0,0:0:0:0:
255,211,81221,1,0,0:0:0:0:
344,275,81439,2,0,B|431:337|500:277,2,170,0|8|2,0:0|0:0|0:0,0:0:0:0:
254,208,82526,5,0,0:0:0:0:
312,39,82743,1,8,0:0:0:0:
165,145,82961,1,0,0:0:0:0:
344,144,83178,1,0,0:0:0:0:
201,37,83395,1,0,0:0:0:0:
85,217,83613,1,8,0:0:0:0:
256,112,83830,1,0,0:0:0:0:
427,217,84048,5,2,0:0:0:0:
254,359,84482,1,8,0:0:0:0:
37,185,84917,1,2,0:0:0:0:
258,25,85352,1,8,0:0:0:0:
258,25,85787,6,0,P|286:60|298:113,1,85,4|0,0:0|0:0,0:0:0:0:
407,99,86221,2,0,P|402:143|373:189,1,85,8|0,0:0|0:0,0:0:0:0:
272,166,86656,2,0,P|276:210|305:256,1,85
208,313,87091,2,0,P|243:341|295:353,1,85,8|0,0:0|0:0,0:0:0:0:
390,345,87526,5,2,0:0:0:0:
449,252,87743,1,0,0:0:0:0:
338,244,87961,1,8,0:0:0:0:
397,151,88178,1,0,0:0:0:0:
286,143,88395,1,0,0:0:0:0:
339,46,88613,1,0,0:0:0:0:
162,127,88830,1,8,0:0:0:0:
228,38,89048,1,0,0:0:0:0:
176,240,89265,6,0,B|243:295|243:295|337:295,1,170,2|8,0:0|0:0,0:0:0:0:
441,190,89917,1,0,0:0:0:0:
336,144,90134,2,0,B|269:89|269:89|175:89,1,170,0|8,0:0|0:0,0:0:0:0:
152,195,90787,1,0,0:0:0:0:
122,309,91004,1,2,0:0:0:0:
91,102,91221,5,0,0:0:0:0:
256,32,91439,1,8,0:0:0:0:
421,102,91656,1,0,0:0:0:0:
192,256,91874,1,0,0:0:0:0:
352,96,92091,1,0,0:0:0:0:
320,256,92308,1,8,0:0:0:0:
160,96,92526,1,0,0:0:0:0:
397,182,92743,6,0,L|476:213,1,85,2|0,0:0|0:0,0:0:0:0:
320,256,93178,2,0,P|317:298|295:344,1,85,8|0,0:0|0:0,0:0:0:0:
192,256,93613,2,0,P|194:298|217:344,1,85
115,182,94048,2,0,L|36:213,1,85,8|0,0:0|0:0,0:0:0:0:
152,80,94482,5,2,0:0:0:0:
255,37,94700,1,0,0:0:0:0:
357,80,94917,1,8,0:0:0:0:
399,182,95134,1,0,0:0:0:0:
357,284,95352,1,0,0:0:0:0:
255,326,95569,1,0,0:0:0:0:
152,284,95787,1,8,0:0:0:0:
110,182,96004,1,0,0:0:0:0:
163,85,96221,6,0,P|198:113|218:158,1,85,2|0,0:0|0:0,0:0:0:0:
315,100,96656,2,0,P|319:144|302:190,1,85,8|0,0:0|0:0,0:0:0:0:
413,214,97091,2,0,P|384:249|339:269,1,85
405,362,97526,2,0,P|360:366|314:349,1,85,8|0,0:0|0:0,0:0:0:0:
256,192,97961,12,4,99700,0:0:0:0:
384,192,100134,5,8,0:0:0:0:
257,315,100569,1,8,0:0:0:0:
128,192,101004,1,8,0:0:0:0:
193,132,101221,1,2,0:0:0:0:
194,43,101439,1,8,0:0:0:0:
370,45,101874,5,8,0:0:0:0:
370,221,102308,1,8,0:0:0:0:
256,356,102743,1,8,0:0:0:0:
182,306,102961,1,2,0:0:0:0:
110,253,103178,6,0,P|169:219|233:234,1,136,8|8,0:0|0:0,0:0:0:0:
308,279,103830,1,0,0:0:0:0:
308,279,104048,2,0,P|372:293|430:259,1,136,8|8,0:0|0:0,0:0:0:0:
479,186,104700,1,2,0:0:0:0:
482,97,104917,2,0,B|394:104|390:189,2,136,8|8|8,0:0|0:0|0:0,0:0:0:0:
430,259,106221,1,8,0:0:0:0:
390,179,106656,6,0,L|368:100,1,68,4|0,0:0|0:0,0:0:0:0:
285,92,107091,2,0,L|303:157,1,68,8|0,0:0|0:0,0:0:0:0:
235,214,107526,2,0,L|216:279,1,68,8|0,0:0|0:0,0:0:0:0:
146,333,107961,1,8,0:0:0:0:
138,245,108178,1,2,0:0:0:0:
61,201,108395,6,0,P|87:171|122:159,1,68,8|0,0:0|0:0,0:0:0:0:
100,72,108830,2,0,P|138:75|173:91,1,68,8|0,0:0|0:0,0:0:0:0:
225,20,109265,2,0,P|251:55|253:93,1,68,8|0,0:0|0:0,0:0:0:0:
256,166,109700,5,8,0:0:0:0:
324,221,109917,1,2,0:0:0:0:
410,239,110134,2,0,P|376:296|303:306,1,136,8|8,0:0|0:0,0:0:0:0:
257,379,110787,1,0,0:0:0:0:
199,309,111004,2,0,P|134:296|100:239,1,136,8|8,0:0|0:0,0:0:0:0:
186,221,111656,1,0,0:0:0:0:
142,143,111874,2,0,B|174:129|207:136|211:136|211:136|255:148|351:101|367:5|255:-43|143:5|159:101|255:149|301:139|301:139|304:138|335:129|367:144,1,544,8|4,3:0|0:0,0:0:0:0:
421,115,120569,5,4,1:0:0:0:
255,86,121004,2,0,P|201:119|171:182,1,127.500004863739,8|0,1:0|1:0,1:0:0:0:
256,317,121874,2,0,P|310:284|340:221,1,127.500004863739,8|8,1:0|1:0,1:0:0:0:
362,148,122526,5,0,0:0:0:0:
378,66,122743,1,8,1:0:0:0:
300,95,122961,1,0,0:0:0:0:
279,175,123178,2,0,L|260:245,1,63.7500024318696,8|0,1:0|0:0,1:0:0:0:
205,47,123613,2,0,L|229:124,1,72.2500013780594,8|0,1:0|0:0,1:0:0:0:
203,328,124048,5,8,1:0:0:0:
398,296,124265,1,8,1:0:0:0:
114,296,124482,1,8,1:0:0:0:
309,328,124700,1,8,1:0:0:0:
288,87,124917,5,8,1:0:0:0:
259,91,125026,1,0,1:0:0:0:
232,102,125134,1,8,1:0:0:0:
205,112,125243,1,0,1:0:0:0:
180,127,125352,1,8,1:0:0:0:
156,143,125461,1,0,1:0:0:0:
135,162,125569,1,8,1:0:0:0:
114,182,125678,1,0,1:0:0:0:
93,204,125787,6,0,P|76:231|66:270,1,72.2500013780594,8|0,1:0|0:0,0:0:0:0:
445,269,126221,2,0,P|437:234|419:204,1,72.2500013780594,8|0,1:0|0:0,0:0:0:0:
212,113,126656,6,0,L|232:150,1,42.5,8|0,1:0|0:0,0:0:0:0:
331,157,126874,2,0,L|310:119,1,42.5,8|0,1:0|0:0,0:0:0:0:
274,218,127091,2,0,P|277:266|254:309,1,85,8|8,1:0|1:0,0:0:0:0:
185,247,127526,6,0,L|138:141,1,110.499994941712,4|0,1:0|0:0,0:0:0:0:
96,266,127961,2,0,L|140:367,1,110.499994941712,8|0,1:0|0:0,0:0:0:0:
86,44,128395,1,0,1:0:0:0:
220,140,128613,1,2,0:0:0:0:
327,54,128830,1,8,1:0:0:0:
461,150,129048,1,2,0:0:0:0:
384,270,129265,6,0,P|329:271|278:291,1,110.499994941712,0|0,1:0|0:0,0:0:0:0:
97,102,129700,2,0,P|151:100|202:80,1,110.499994941712,8|0,1:0|0:0,0:0:0:0:
384,270,130134,1,0,1:0:0:0:
256,352,130352,1,2,0:0:0:0:
97,102,130569,1,8,1:0:0:0:
119,243,130787,1,2,0:0:0:0:
373,147,131004,6,0,P|338:105|271:79,1,110.499994941712,0|0,1:0|0:0,0:0:0:0:
222,263,131439,2,0,P|164:266|105:228,1,110.499994941712,8|0,1:0|0:0,0:0:0:0:
38,318,131874,1,0,1:0:0:0:
245,120,132091,1,2,0:0:0:0:
410,312,132308,1,8,1:0:0:0:
146,200,132526,1,2,0:0:0:0:
245,120,132743,6,0,P|288:96|352:96,1,110.499994941712,0|0,1:0|0:0,0:0:0:0:
349,290,133178,2,0,P|294:290|245:264,1,110.499994941712,8|0,1:0|0:0,0:0:0:0:
245,120,133613,1,0,1:0:0:0:
384,192,133830,1,0,1:0:0:0:
245,264,134048,1,8,1:0:0:0:
64,224,134482,6,0,P|91:277|146:313,1,110.499994941712,4|0,1:0|0:0,0:0:0:0:
196,178,134917,2,0,L|266:92,1,110.499994941712,8|0,1:0|0:0,0:0:0:0:
404,54,135352,1,0,1:0:0:0:
283,193,135569,1,2,0:0:0:0:
106,117,135787,1,8,1:0:0:0:
287,346,136004,1,2,0:0:0:0:
429,333,136221,6,0,P|471:304|496:248,1,110.499994941712,0|0,1:0|0:0,0:0:0:0:
428,50,136656,2,0,P|473:82|495:132,1,110.499994941712,8|0,1:0|0:0,0:0:0:0:
320,288,137091,1,0,1:0:0:0:
192,96,137308,1,2,0:0:0:0:
192,288,137526,1,8,1:0:0:0:
320,96,137743,1,2,0:0:0:0:
429,333,137961,6,0,P|416:279|449:210,1,110.499994941712,0|0,1:0|0:0,0:0:0:0:
83,51,138395,2,0,P|96:105|63:174,1,110.499994941712,8|0,1:0|0:0,0:0:0:0:
344,328,138830,1,0,1:0:0:0:
257,101,139048,1,2,0:0:0:0:
127,279,139265,1,8,1:0:0:0:
31,81,139482,1,2,0:0:0:0:
141,97,139700,6,0,P|124:141|87:177,1,85,0|0,1:0|0:0,0:0:0:0:
173,253,140134,2,0,P|134:271|92:274,1,85,8|0,1:0|0:0,0:0:0:0:
98,168,140569,1,0,1:0:0:0:
173,253,140787,1,0,0:0:0:0:
213,150,141004,1,8,1:0:0:0:
288,235,141221,1,2,0:0:0:0:
244,336,141439,1,4,1:0:0:0:
