osu file format v14

[General]
AudioFilename: audio.mp3
AudioLeadIn: 0
PreviewTime: 84284
Countdown: 0
SampleSet: Soft
StackLeniency: 0.7
Mode: 0
LetterboxInBreaks: 0
WidescreenStoryboard: 0

[Editor]
Bookmarks: 17306,35045,151914,206175
DistanceSpacing: 1
BeatDivisor: 2
GridSize: 4
TimelineZoom: 1.9

[Metadata]
Title:Hoshifuru Yoru ni
TitleUnicode:星降る夜に
Artist:Empty Peperoncino
ArtistUnicode:からっぽペペロンチーノ
Creator:Agatsu
Version:Twilight
Source:
Tags:hinsvar pishifat japanese rock featured artist mappers' guild ranko 伊藤真人 masato ito ryota karappo jrock j-rock mpg
BeatmapID:2920177
BeatmapSetID:1417164

[Difficulty]
HPDrainRate:6
CircleSize:4.2
OverallDifficulty:8.6
ApproachRate:9.4
SliderMultiplier:1.5
SliderTickRate:1

[Events]
//Background and Video events
0,0,"87308198_p0.jpg",0,0
//Break Periods
//Storyboard Layer 0 (Background)
//Storyboard Layer 1 (Fail)
//Storyboard Layer 2 (Pass)
//Storyboard Layer 3 (Foreground)
//Storyboard Layer 4 (Overlay)
//Storyboard Sound Samples

[TimingPoints]
1654,260.869565217391,4,1,1,70,1,0
18349,-100,4,1,1,80,0,0
27827,-100,4,2,1,40,0,0
27914,-100,4,1,1,80,0,0
28088,-100,4,1,1,80,0,0
28175,-100,4,2,1,40,0,0
28262,-100,4,1,1,80,0,0
28349,-100,4,2,1,40,0,0
28436,-100,4,1,1,80,0,0
28610,-100,4,1,1,80,0,0
28697,-100,4,2,1,40,0,0
28784,-100,4,1,1,80,0,0
35045,-125,4,2,1,60,0,0
68436,-142.857142857143,4,2,1,60,0,0
68958,-111.111111111111,4,2,1,60,0,0
69349,-142.857142857143,4,2,1,60,0,0
70523,-111.111111111111,4,2,1,60,0,0
71436,-142.857142857143,4,2,1,60,0,0
72610,-111.111111111111,4,2,1,60,0,0
77306,-142.857142857143,4,2,1,60,0,0
78284,-142.857142857143,4,2,1,30,0,0
78480,-142.857142857143,4,2,1,60,0,0
78545,-142.857142857143,4,2,1,30,0,0
78740,-111.111111111111,4,2,1,60,0,0
85132,-100,4,1,1,80,0,0
101827,-100,4,1,1,80,0,0
112349,-100,4,2,1,40,0,0
112436,-100,4,1,1,80,0,0
112610,-100,4,1,1,80,0,0
112697,-100,4,2,1,40,0,0
112784,-100,4,1,1,80,0,0
112871,-100,4,2,1,40,0,0
112958,-100,4,1,1,80,0,0
113132,-100,4,1,1,80,0,0
113219,-100,4,2,1,40,0,0
113306,-100,4,1,1,80,0,0
113393,-100,4,2,1,40,0,0
113480,-100,4,1,1,80,0,0
113653,-100,4,1,1,80,0,0
113740,-100,4,2,1,40,0,0
113827,-100,4,1,1,80,0,0
118523,-125,4,2,1,50,0,0
135219,-142.857142857143,4,2,1,60,0,0
135740,-111.111111111111,4,2,1,60,0,0
136132,-142.857142857143,4,2,1,60,0,0
137306,-111.111111111111,4,2,1,60,0,0
144088,-142.857142857143,4,2,1,60,0,0
145067,-142.857142857143,4,2,1,30,0,0
145262,-142.857142857143,4,2,1,60,0,0
145327,-142.857142857143,4,2,1,30,0,0
145523,-111.111111111111,4,2,1,60,0,0
151914,-100,4,1,1,80,0,0
168610,-90.9090909090909,4,1,1,80,0,1
185306,-100,4,1,1,80,0,0

[Colours]
Combo1 : 240,140,140
Combo2 : 200,180,220
Combo3 : 240,200,155
Combo4 : 150,185,220

[HitObjects]
44,62,17045,5,0,3:0:0:0:
54,69,17110,1,0,3:0:0:0:
63,79,17175,1,0,3:0:0:0:
74,88,17240,1,0,3:0:0:0:
81,98,17306,1,8,0:0:0:0:
322,30,17436,1,8,0:0:0:0:
253,5,17567,2,0,P|211:18|171:27,1,75
345,184,17827,5,10,0:0:0:0:
179,297,17958,1,8,0:0:0:0:
195,226,18088,5,10,0:0:0:0:
328,259,18219,1,8,0:0:0:0:
163,135,18349,6,0,B|77:123|100:156|7:138,1,150,6|8,0:0|0:0,0:0:0:0:
120,248,18740,1,0,0:0:0:0:
2,355,18871,2,0,P|48:342|99:335,1,75,2|0,0:0|0:0,0:0:0:0:
23,272,19132,1,8,0:0:0:0:
205,378,19262,6,0,B|193:292|231:311|220:221,1,150,2|0,0:0|0:0,0:0:0:0:
432,338,19653,2,0,P|385:324|339:315,1,75,10|0,0:0|0:0,0:0:0:0:
479,117,19914,1,2,0:0:0:0:
410,154,20045,1,0,0:0:0:0:
426,231,20175,1,10,0:0:0:0:
493,193,20306,1,0,0:0:0:0:
243,149,20436,6,0,P|277:96|220:22,1,150,2|8,0:0|0:0,0:0:0:0:
83,116,20827,1,0,0:0:0:0:
19,19,20958,2,0,P|67:37|108:49,1,75
224,221,21219,1,8,0:0:0:0:
243,149,21349,6,0,P|248:62|267:-12,1,150,2|0,0:0|0:0,0:0:0:0:
425,122,21740,2,0,P|466:133|512:152,1,75,10|0,0:0|0:0,0:0:0:0:
337,269,22001,1,2,0:0:0:0:
445,339,22132,1,0,0:0:0:0:
438,267,22262,1,10,0:0:0:0:
346,342,22393,1,0,0:0:0:0:
164,243,22523,6,0,P|58:257|1:261,1,150,2|8,0:0|0:0,0:0:0:0:
87,324,22914,1,0,0:0:0:0:
249,380,23045,2,0,B|241:341|241:341|254:292,1,75,2|0,0:0|0:0,0:0:0:0:
162,361,23306,1,8,0:0:0:0:
257,189,23436,6,0,B|246:98|288:118|267:22,1,150,2|0,0:0|0:0,0:0:0:0:
395,199,23827,2,0,B|385:237|385:237|390:275,1,75,10|0,0:0|0:0,0:0:0:0:
460,243,24088,1,2,0:0:0:0:
344,88,24219,2,0,P|386:100|434:111,1,75,0|10,0:0|0:0,0:0:0:0:
254,196,24480,1,0,0:0:0:0:
85,102,24610,5,2,0:0:0:0:
28,151,24740,1,0,0:0:0:0:
99,121,24871,1,10,0:0:0:0:
51,176,25001,1,0,0:0:0:0:
155,260,25132,5,2,0:0:0:0:
190,323,25262,1,0,0:0:0:0:
263,349,25392,1,10,0:0:0:0:
337,346,25523,1,0,0:0:0:0:
498,166,25653,5,2,0:0:0:0:
347,264,25784,1,0,0:0:0:0:
508,319,25914,2,0,B|513:279|513:279|497:229,1,75,8|0,0:3|0:0,0:0:0:0:
317,102,26175,5,8,0:3:0:0:
281,172,26306,1,0,0:0:0:0:
155,100,26436,5,8,0:3:0:0:
194,224,26567,1,0,0:0:0:0:
10,144,26697,6,0,B|16:51|45:82|44:-16,1,150,6|8,0:0|0:0,0:0:0:0:
130,177,27088,1,0,0:0:0:0:
70,230,27219,2,0,P|109:253|151:288,1,75,2|0,0:0|0:0,0:0:0:0:
106,340,27480,1,8,0:0:0:0:
255,262,27610,1,0,0:0:0:0:
395,379,27740,6,0,P|348:365|327:351,1,50,2|0,0:0|0:0,0:0:0:0:
376,300,27914,2,0,P|348:268|334:234,1,50,2|8,0:0|0:0,0:0:0:0:
408,225,28088,2,0,P|404:187|410:146,1,50,2|0,0:0|0:0,0:0:0:0:
214,0,28262,6,0,P|261:14|282:28,1,50,2|0,0:0|0:0,0:0:0:0:
233,79,28436,2,0,P|261:111|275:145,1,50,2|0,0:0|0:0,0:0:0:0:
201,154,28610,2,0,P|205:192|199:233,1,50,2|0,0:0|0:0,0:0:0:0:
13,338,28784,6,0,P|43:273|-22:207,1,150,2|8,0:0|0:0,0:0:0:0:
113,315,29175,1,0,0:0:0:0:
265,203,29306,1,2,0:0:0:0:
147,246,29436,2,0,P|185:254|234:269,1,75,8|4,0:3|0:3,0:0:0:0:
350,360,29697,1,2,0:0:0:0:
491,281,29827,5,8,0:0:0:0:
512,236,29893,1,8,0:0:0:0:
501,185,29958,1,8,0:0:0:0:
459,154,30023,1,8,0:0:0:0:
408,154,30088,1,8,0:0:0:0:
205,24,30219,6,0,B|220:88|195:74|208:154,1,112.5,2|0,0:0|0:0,0:0:0:0:
244,200,30480,1,8,0:0:0:0:
249,209,30545,1,8,0:0:0:0:
251,218,30610,1,8,0:0:0:0:
352,96,30740,1,8,0:0:0:0:
319,300,30871,6,0,P|293:267|177:279,1,150,6|8,0:0|0:0,0:0:0:0:
5,115,31262,1,0,0:0:0:0:
76,144,31393,1,2,0:0:0:0:
5,193,31523,1,0,0:0:0:0:
85,67,31653,2,0,P|129:82|176:94,1,75,10|0,0:0|0:0,0:0:0:0:
379,183,31914,6,0,P|377:108|404:14,1,150,2|8,0:0|0:0,0:0:0:0:
226,171,32306,2,0,B|238:210|238:210|234:260,1,75,2|0,0:0|0:0,0:0:0:0:
300,281,32567,1,0,0:0:0:0:
295,86,32697,2,0,P|342:100|390:111,1,75,10|0,0:0|0:0,0:0:0:0:
154,218,32958,6,0,P|184:154|114:90,1,150,2|8,0:0|0:0,0:0:0:0:
78,238,33349,1,0,0:0:0:0:
185,369,33480,1,2,0:0:0:0:
228,306,33610,1,0,0:0:0:0:
15,321,33740,2,0,P|54:314|116:310,1,75,10|0,0:0|0:0,0:0:0:0:
278,200,34001,5,10,0:0:0:0:
417,301,34132,1,8,0:0:0:0:
392,230,34262,5,8,0:3:0:0:
505,127,34393,1,8,0:3:0:0:
429,126,34523,5,4,0:3:0:0:
429,13,34653,1,4,0:3:0:0:
368,59,34784,5,0,0:0:0:0:
305,20,34914,1,0,0:0:0:0:
122,118,35045,6,0,B|197:110|181:139|266:120,2,120,4|0|8,3:2|3:0|0:0,0:0:0:0:
175,290,35697,2,0,P|135:275|93:266,1,60,2|0,0:0|0:0,0:0:0:0:
65,224,35958,2,0,P|82:287|81:363,1,120,2|2,3:2|0:0,0:0:0:0:
270,271,36349,1,0,3:0:0:0:
220,215,36480,1,2,0:0:0:0:
268,132,36610,2,0,P|208:174|148:156,1,120,8|0,0:0|0:0,0:0:0:0:
344,272,37001,1,2,0:0:0:0:
395,327,37132,6,0,P|393:270|413:188,2,120,0|2|8,3:2|3:2|0:0,0:0:0:0:
493,126,37914,1,0,0:0:0:0:
512,25,38045,2,0,P|484:53|394:40,1,120,0|0,3:2|0:0,0:0:0:0:
230,120,38436,2,0,P|235:80|250:47,1,60,8|0,0:0|0:0,0:0:0:0:
335,173,38697,5,10,0:3:0:0:
306,243,38827,1,8,0:3:0:0:
426,229,38958,5,6,0:3:0:0:
449,301,39088,1,4,0:3:0:0:
284,311,39219,6,0,P|211:322|137:330,2,120,6|0|8,3:2|3:0|0:0,0:0:0:0:
137,188,39871,2,0,P|181:200|217:206,1,60,2|0,0:0|0:0,0:0:0:0:
65,248,40132,2,0,P|95:194|66:139,1,120,2|0,3:2|0:0,0:0:0:0:
11,105,40523,1,0,3:0:0:0:
144,0,40653,2,0,P|158:40|163:79,1,60,2|8,0:0|0:0,0:0:0:0:
166,63,41045,2,0,P|207:48|245:45,1,60,2|0,0:0|0:0,0:0:0:0:
392,0,41306,6,0,B|414:72|377:61|403:136,1,120,2|0,3:2|3:0,0:0:0:0:
444,173,41697,1,0,0:0:0:0:
286,159,41827,2,0,P|278:204|268:240,1,60,10|0,0:0|0:0,0:0:0:0:
329,266,42088,1,0,0:0:0:0:
140,271,42219,2,0,P|173:307|153:381,1,120,6|2,3:2|0:0,0:0:0:0:
299,334,42610,2,0,P|340:347|370:354,1,60,8|0,0:0|0:0,0:0:0:0:
501,218,42871,5,2,1:2:0:0:
437,260,43001,1,0,3:0:0:0:
318,117,43132,5,8,0:0:0:0:
437,175,43262,1,10,0:0:0:0:
230,195,43393,6,0,P|235:137|256:65,2,120,4|0|8,3:2|3:0|0:0,0:0:0:0:
75,306,44045,2,0,P|29:318|-3:324,1,60,2|0,0:0|0:0,0:0:0:0:
117,382,44306,2,0,P|109:343|178:281,1,120,2|2,3:2|0:0,0:0:0:0:
26,164,44697,1,0,3:0:0:0:
88,204,44827,1,2,0:0:0:0:
119,67,44958,2,0,B|45:73|66:95|-26:89,1,120,8|0,0:0|0:0,0:0:0:0:
182,28,45349,1,2,0:0:0:0:
252,2,45480,6,0,P|266:59|264:142,2,120,0|2|8,3:2|3:2|0:0,0:0:0:0:
468,246,46262,1,0,0:0:0:0:
495,180,46393,2,0,P|435:215|382:197,1,120,6|0,3:2|0:0,0:0:0:0:
321,226,46784,1,8,0:0:0:0:
415,334,46914,1,0,1:0:0:0:
289,291,47045,2,0,P|241:315|217:324,1,60,10|8,0:3|0:3,0:0:0:0:
397,257,47306,1,6,0:3:0:0:
302,370,47436,1,4,0:3:0:0:
159,272,47567,6,0,P|179:208|184:127,2,120,6|0|8,3:2|3:0|0:0,0:0:0:0:
4,87,48349,1,0,0:0:0:0:
60,36,48480,2,0,B|137:38|115:58|190:56,1,120,0|0,3:2|0:0,0:0:0:0:
105,119,48871,1,2,3:2:0:0:
234,200,49001,1,0,0:0:0:0:
260,131,49132,1,8,0:0:0:0:
101,193,49262,2,0,B|110:226|110:226|107:270,1,60,2|0,0:0|0:0,0:0:0:0:
65,311,49523,1,2,0:0:0:0:
256,384,49653,6,0,P|295:372|336:363,1,60,0|0,3:0|0:0,0:0:0:0:
207,266,49914,2,0,P|197:305|185:345,1,60,0|0,3:2|0:0,0:0:0:0:
333,282,50175,2,0,P|303:254|274:223,1,60,8|0,0:0|0:0,0:0:0:0:
108,108,50436,5,0,0:0:0:0:
126,12,50567,2,0,B|151:33|151:33|172:75,1,60,6|0,3:2|0:0,0:0:0:0:
193,169,50827,2,0,B|161:178|161:178|114:177,1,60,2|8,0:0|0:0,0:0:0:0:
13,146,51088,2,0,B|18:113|18:113|44:73,1,60,2|10,2:0|2:0,0:0:0:0:
134,254,51349,5,8,0:0:0:0:
0,301,51480,1,8,0:0:0:0:
97,188,51610,5,10,0:0:0:0:
239,284,51740,2,0,B|313:277|297:306|381:288,1,120,4|0,3:2|3:0,0:0:0:0:
473,266,52132,1,0,0:0:0:0:
305,244,52262,2,0,P|303:192|298:162,2,60,8|2|0,0:0|0:0|0:0,0:0:0:0:
343,105,52653,2,0,P|275:145|226:124,1,120,2|2,3:2|0:0,0:0:0:0:
474,192,53045,1,0,3:0:0:0:
423,135,53175,1,2,0:0:0:0:
496,14,53306,2,0,P|515:78|522:134,1,120,8|0,0:0|0:0,0:0:0:0:
331,340,53827,6,0,P|360:298|326:227,1,120,0|2,3:2|3:2,0:0:0:0:
277,270,54219,1,0,0:0:0:0:
137,203,54349,2,0,P|86:215|57:218,1,60,8|0,0:0|0:0,0:0:0:0:
166,270,54610,1,0,0:0:0:0:
298,146,54740,2,0,B|294:75|316:94|303:9,1,120,0|0,3:2|0:0,0:0:0:0:
97,67,55132,2,0,P|137:77|177:92,1,60,8|0,0:0|0:0,0:0:0:0:
296,226,55393,5,10,0:3:0:0:
370,203,55523,1,8,0:3:0:0:
334,294,55653,5,6,0:3:0:0:
398,331,55784,1,4,0:3:0:0:
264,328,55914,6,0,P|196:342|129:351,2,120,6|0|10,3:2|3:0|0:0,0:0:0:0:
261,336,56697,1,0,0:0:0:0:
116,258,56827,2,0,P|138:187|97:148,1,120,2|0,3:2|0:0,0:0:0:0:
211,13,57219,2,0,P|173:25|139:34,1,60,0|2,3:0|0:0,0:0:0:0:
334,136,57480,2,0,P|331:76|344:17,2,120,8|2|2,0:0|0:0|3:2,0:0:0:0:
158,246,58262,6,0,P|106:258|85:261,1,60,0|0,3:0|0:0,0:0:0:0:
225,345,58523,2,0,B|301:347|280:370|366:362,1,120,10|0,0:0|0:0,0:0:0:0:
494,277,58914,2,0,P|496:200|510:139,1,120,2|2,3:2|0:0,0:0:0:0:
297,202,59306,2,0,P|330:211|375:230,1,60,8|0,0:0|0:0,0:0:0:0:
312,130,59567,5,2,3:2:0:0:
194,180,59697,1,0,0:0:0:0:
111,43,59827,5,8,0:0:0:0:
233,115,59958,1,10,0:0:0:0:
0,126,60088,6,0,B|77:111|64:137|135:110,2,120,4|0|8,3:2|3:0|0:0,0:0:0:0:
158,257,60740,2,0,P|148:292|146:337,1,60,2|0,0:0|0:0,0:0:0:0:
86,383,61001,2,0,P|106:327|65:271,1,120,2|2,3:2|0:0,0:0:0:0:
225,369,61393,1,0,3:0:0:0:
354,260,61523,1,2,0:0:0:0:
295,215,61653,2,0,P|276:264|276:297,1,60,8|0,0:0|0:0,0:0:0:0:
382,384,61914,2,0,P|422:375|465:369,1,60,0|2,0:0|0:0,0:0:0:0:
340,215,62175,6,0,B|334:139|315:168|311:78,2,120,0|0|8,3:0|3:0|0:0,0:0:0:0:
192,153,62827,2,0,P|148:165|112:172,1,60,2|0,0:0|0:0,0:0:0:0:
13,239,63088,2,0,P|9:157|-10:97,1,120,2|0,3:2|0:0,0:0:0:0:
46,66,63480,1,10,0:0:0:0:
161,142,63610,1,0,0:0:0:0:
263,44,63740,1,8,0:3:0:0:
163,13,63871,2,0,P|151:41|145:89,1,60,2|4,0:0|0:3,0:0:0:0:
347,203,64132,1,2,0:0:0:0:
350,128,64262,6,0,P|336:68|389:26,2,120,4|0|8,3:2|3:0|0:0,0:0:0:0:
283,163,64914,1,0,0:0:0:0:
405,284,65045,1,0,0:0:0:0:
449,226,65175,2,0,B|436:153|467:169|444:84,1,120,0|0,3:0|0:0,0:0:0:0:
326,240,65567,2,0,P|287:253|255:261,1,60,0|0,3:0|0:0,0:0:0:0:
88,370,65827,5,10,0:0:0:0:
192,303,65958,1,0,0:0:0:0:
116,299,66088,1,0,0:0:0:0:
164,377,66219,1,2,0:0:0:0:
6,237,66349,6,0,P|30:188|-19:129,2,120,0|0|8,3:0|3:0|0:0,0:0:0:0:
135,159,67001,1,0,0:0:0:0:
204,186,67132,1,0,0:0:0:0:
358,117,67262,6,0,P|364:44|381:-8,1,120,0|0,3:0|0:0,0:0:0:0:
189,67,67653,2,0,P|136:81|106:87,1,60,8|0,0:0|0:0,0:0:0:0:
8,284,67914,5,8,0:0:0:0:
155,196,68045,1,8,0:0:0:0:
189,266,68175,5,8,0:0:0:0:
37,213,68306,1,8,0:0:0:0:
190,82,68436,6,0,P|296:101|357:110,1,157.499995193482,6|0,3:2|0:0,0:0:0:0:
447,294,68958,2,0,B|445:259|445:259|460:217,1,67.4999979400635,8|0,0:0|0:0,0:0:0:0:
506,344,69219,1,0,3:0:0:0:
506,147,69349,2,0,P|437:196|364:178,1,157.499995193482,12|0,0:0|3:0,0:0:0:0:
99,9,70001,5,10,0:0:0:0:
150,64,70132,1,8,0:0:0:0:
5,115,70262,1,8,0:3:0:0:
16,41,70393,1,10,0:3:0:0:
130,137,70523,6,0,B|105:215|140:199|113:289,1,134.999995880127,4|8,3:2|0:0,0:0:0:0:
248,366,70914,1,8,0:0:0:0:
327,269,71045,1,8,0:3:0:0:
255,288,71175,1,8,0:3:0:0:
323,342,71306,1,4,0:3:0:0:
420,177,71436,6,0,P|323:192|242:203,1,157.499995193482,4|0,3:2|3:0,0:0:0:0:
12,36,72088,5,2,3:2:0:0:
81,66,72219,1,4,0:3:0:0:
133,119,72349,1,8,0:3:0:0:
204,99,72480,1,8,0:3:0:0:
358,154,72610,6,0,P|341:96|389:44,2,134.999995880127,6|0|8,3:2|0:0|0:0,0:0:0:0:
365,153,73393,1,0,0:0:0:0:
266,255,73523,2,0,P|309:303|280:369,1,134.999995880127,6|0,3:2|0:0,0:0:0:0:
411,214,73914,1,8,0:0:0:0:
345,316,74045,1,8,0:0:0:0:
441,284,74175,2,0,P|487:300|512:306,1,67.4999979400635,10|0,0:0|0:0,0:0:0:0:
509,312,74567,6,0,P|512:245|501:173,1,134.999995880127,6|0,3:2|0:0,0:0:0:0:
374,34,74958,1,8,0:0:0:0:
291,140,75088,1,8,0:0:0:0:
244,80,75219,2,0,B|243:43|243:43|258:4,1,67.4999979400635,10|0,0:0|0:0,0:0:0:0:
247,2,75610,6,0,P|311:15|400:30,1,134.999995880127,6|0,3:2|0:0,0:0:0:0:
456,121,76001,1,8,0:0:0:0:
401,177,76132,1,8,0:0:0:0:
469,243,76262,2,0,P|414:260|379:273,1,67.4999979400635,10|0,0:0|0:0,0:0:0:0:
402,271,76653,6,0,P|436:302|419:384,1,134.999995880127,6|0,3:2|0:0,0:0:0:0:
314,335,77045,2,0,P|274:349|231:359,1,67.4999979400635,0|0,3:0|0:0,0:0:0:0:
380,199,77306,2,0,B|291:186|311:229|206:201,1,157.499995193482,12|0,0:0|0:0,0:0:0:0:
473,34,77827,5,10,0:0:0:0:
301,126,77958,1,8,0:0:0:0:
497,184,78088,5,8,0:0:0:0:
355,64,78219,2,0,P|361:38|361:20,1,26.2499991989136,10|0,0:0|0:0,0:0:0:0:
361,71,78480,2,0,P|385:82|403:98,1,26.2499991989136,10|0,0:0|0:0,0:0:0:0:
348,71,78740,6,0,B|268:74|302:97|204:97,1,134.999995880127,6|0,3:2|0:0,0:0:0:0:
374,188,79132,2,0,B|362:223|362:223|364:269,1,67.4999979400635,8|0,0:0|0:0,0:0:0:0:
234,384,79393,2,0,P|264:319|215:256,1,134.999995880127,8|0,0:0|3:0,0:0:0:0:
173,53,79914,5,10,0:0:0:0:
60,197,80044,1,8,0:0:0:0:
172,126,80175,1,8,0:0:0:0:
44,24,80305,2,0,B|32:60|32:60|33:97,1,67.4999979400635,2|0,3:2|0:0,0:0:0:0:
98,131,80566,1,0,3:0:0:0:
259,186,80697,2,0,B|259:151|259:151|246:121,1,67.4999979400635,10|0,0:0|0:0,0:0:0:0:
498,0,80958,6,0,B|420:9|447:34|346:34,2,134.999995880127,6|2|10,3:2|3:2|0:0,0:0:0:0:
432,98,81610,1,0,0:0:0:0:
494,140,81740,1,0,0:0:0:0:
314,138,81871,6,0,P|335:204|337:288,1,134.999995880127,2|0,3:2|0:0,0:0:0:0:
166,293,82262,2,0,P|125:306|79:315,1,67.4999979400635,2|0,3:2|0:0,0:0:0:0:
185,364,82523,1,8,0:0:0:0:
306,286,82653,1,2,0:0:0:0:
261,191,82784,2,0,P|240:241|238:282,1,67.4999979400635,0|0,3:2|0:0,0:0:0:0:
17,384,83045,6,0,P|36:312|-22:265,2,134.999995880127,14|2|10,0:0|3:2|0:0,0:0:0:0:
119,303,83697,1,8,0:0:0:0:
296,359,83827,1,0,3:0:0:0:
464,274,83958,1,10,0:0:0:0:
426,195,85132,6,0,P|470:210|510:220,1,75,6|0,0:0|0:0,0:0:0:0:
237,84,85393,2,0,P|283:121|256:202,1,150,8|2,0:0|0:0,0:0:0:0:
68,292,85784,1,0,0:0:0:0:
169,232,85914,1,8,0:0:0:0:
14,210,86045,6,0,B|46:299|4:274|33:370,1,150,2|0,0:0|0:0,0:0:0:0:
229,281,86436,2,0,P|273:294|322:306,1,75,10|0,0:0|0:0,0:0:0:0:
182,342,86697,1,2,0:0:0:0:
100,257,86827,1,0,0:0:0:0:
198,149,86958,2,0,P|195:108|178:53,1,75,10|0,0:0|0:0,0:0:0:0:
236,0,87219,6,0,P|197:48|101:24,1,150,2|8,0:0|0:0,0:0:0:0:
312,175,87610,1,0,0:0:0:0:
221,243,87740,2,0,B|221:204|221:204|239:160,1,75,2|0,0:0|0:0,0:0:0:0:
451,24,88001,1,8,0:0:0:0:
482,92,88132,6,0,P|502:158|506:257,1,150,2|0,0:0|0:0,0:0:0:0:
280,305,88523,2,0,P|239:317|196:327,1,75,10|0,0:0|0:0,0:0:0:0:
345,344,88784,1,2,0:0:0:0:
245,239,88914,1,0,0:0:0:0:
392,121,89045,2,0,B|406:161|406:161|401:207,1,75,10|0,0:0|0:0,0:0:0:0:
345,239,89306,6,0,B|443:217|425:253|513:222,2,150,2|8|2,0:0|0:0|0:0,0:0:0:0:
185,171,89958,1,0,0:0:0:0:
30,224,90088,1,8,0:0:0:0:
134,277,90219,6,0,P|103:228|153:157,1,150,2|0,0:0|0:0,0:0:0:0:
373,38,90610,2,0,P|392:91|397:137,1,75,10|0,0:0|0:0,0:0:0:0:
292,294,90871,1,2,0:0:0:0:
392,217,91001,1,0,0:0:0:0:
314,218,91132,1,10,0:0:0:0:
369,290,91262,1,0,0:0:0:0:
510,196,91393,6,0,P|509:122|484:23,1,150,2|8,0:0|0:0,0:0:0:0:
185,149,91914,2,0,P|172:201|173:245,1,75,2|0,0:0|0:0,0:0:0:0:
113,269,92175,1,8,0:0:0:0:
288,384,92306,2,0,B|274:293|312:318|284:205,1,150,2|0,0:0|0:0,0:0:0:0:
63,335,92697,2,0,P|105:344|157:362,1,75,10|0,0:0|0:0,0:0:0:0:
295,229,92958,5,2,0:0:0:0:
395,282,93088,1,2,0:0:0:0:
510,152,93219,5,8,0:0:0:0:
400,206,93349,1,8,0:0:0:0:
169,133,93480,6,0,P|116:149|65:162,1,75,6|0,0:0|0:0,0:0:0:0:
154,240,93740,2,0,P|114:192|20:211,1,150,8|2,0:0|0:0,0:0:0:0:
218,280,94132,1,0,0:0:0:0:
75,357,94262,1,8,0:0:0:0:
268,336,94393,6,0,P|268:244|286:166,1,150,2|0,0:0|0:0,0:0:0:0:
484,15,94784,2,0,P|443:29|385:42,1,75,10|0,0:0|0:0,0:0:0:0:
463,154,95045,1,2,0:0:0:0:
350,78,95175,1,0,0:0:0:0:
174,126,95306,2,0,P|181:81|201:40,1,75,10|0,0:0|0:0,0:0:0:0:
254,121,95567,6,0,P|223:54|285:-5,2,150,2|8|2,0:0|0:0|0:0,0:0:0:0:
210,182,96219,1,0,0:0:0:0:
311,327,96349,1,8,0:0:0:0:
259,378,96480,6,0,B|286:285|246:306|282:208,1,150,2|0,0:0|0:0,0:0:0:0:
24,241,96871,2,0,P|60:251|121:274,1,75,10|0,0:0|0:0,0:0:0:0:
55,99,97132,2,0,P|28:125|-22:166,1,75,2|0,0:0|0:0,0:0:0:0:
160,197,97393,2,0,P|150:160|140:96,1,75,10|0,0:0|0:0,0:0:0:0:
63,226,97653,6,0,B|50:266|50:266|54:310,1,75,2|0,0:0|0:0,0:0:0:0:
269,384,97914,2,0,P|245:325|307:271,1,150,8|2,0:0|0:0,0:0:0:0:
353,323,98306,1,0,0:0:0:0:
449,218,98436,1,8,0:0:0:0:
341,99,98567,6,0,B|250:103|278:135|178:131,1,150,2|0,0:0|0:0,0:0:0:0:
325,28,98958,1,10,0:0:0:0:
411,133,99088,1,0,0:0:0:0:
272,231,99219,2,0,B|271:192|271:192|288:145,1,75,2|0,0:0|0:0,0:0:0:0:
149,35,99480,2,0,P|192:48|235:59,1,75,10|0,0:0|0:0,0:0:0:0:
0,222,99740,6,0,P|58:172|140:197,2,150,2|8|2,0:0|0:0|0:0,0:0:0:0:
48,278,100393,1,0,0:0:0:0:
0,359,100523,1,8,0:0:0:0:
229,381,100653,6,0,P|229:326|246:230,1,150,2|0,0:0|0:0,0:0:0:0:
102,64,101045,2,0,P|151:80|190:90,1,75,10|0,0:0|0:0,0:0:0:0:
126,312,101306,5,10,0:0:0:0:
163,246,101436,1,8,0:0:0:0:
273,310,101567,5,10,0:0:0:0:
243,176,101697,1,8,0:0:0:0:
413,221,101827,6,0,P|392:148|456:105,2,150,6|8|2,0:0|0:0|0:0,0:0:0:0:
351,262,102480,1,0,0:0:0:0:
512,377,102610,1,8,0:0:0:0:
436,294,102740,6,0,B|348:294|370:324|274:316,1,150,2|0,0:0|0:0,0:0:0:0:
83,196,103132,2,0,P|66:245|61:298,1,75,10|0,0:0|0:0,0:0:0:0:
256,156,103393,1,2,0:0:0:0:
199,209,103523,1,0,0:0:0:0:
181,134,103653,1,10,0:0:0:0:
273,228,103784,1,0,0:0:0:0:
461,146,103914,6,0,P|462:73|489:-15,1,150,2|8,0:0|0:0,0:0:0:0:
388,113,104306,1,0,0:0:0:0:
448,222,104436,2,0,P|395:235|354:250,1,75,2|0,0:0|0:0,0:0:0:0:
466,298,104697,1,8,0:0:0:0:
235,383,104827,6,0,P|264:334|201:261,1,150,2|0,0:0|0:0,0:0:0:0:
25,114,105219,2,0,B|10:155|10:155|11:195,1,75,10|0,0:0|0:0,0:0:0:0:
219,123,105480,1,2,0:0:0:0:
284,164,105610,1,0,0:0:0:0:
193,193,105740,1,10,0:0:0:0:
146,250,105871,1,0,0:0:0:0:
254,235,106001,6,0,B|347:237|321:268|411:260,1,150,2|8,0:0|0:0,0:0:0:0:
333,325,106393,1,0,0:0:0:0:
505,377,106523,2,0,B|509:340|509:340|490:288,1,75,2|0,0:0|0:0,0:0:0:0:
432,337,106784,1,8,0:0:0:0:
512,138,106914,6,0,P|471:182|375:169,1,150,2|0,0:0|0:0,0:0:0:0:
219,62,107306,2,0,P|152:80|117:88,1,75,10|0,0:0|0:0,0:0:0:0:
0,276,107567,2,0,B|-3:239|-3:239|10:198,1,75,2|0,0:0|0:0,0:0:0:0:
91,164,107827,2,0,P|158:182|193:190,1,75,10|0,0:0|0:0,0:0:0:0:
328,349,108088,6,0,B|320:262|356:288|325:178,1,150,2|8,0:0|0:0,0:0:0:0:
184,345,108480,1,0,0:0:0:0:
132,292,108610,2,0,P|140:245|146:196,1,75,2|0,0:0|0:0,0:0:0:0:
377,241,108871,2,0,P|369:194|363:145,1,75,8|2,0:0|0:0,0:0:0:0:
121,26,109132,5,8,0:0:0:0:
181,76,109262,1,8,0:0:0:0:
111,110,109393,1,8,0:3:0:0:
53,60,109523,1,8,0:3:0:0:
265,29,109653,5,4,0:3:0:0:
425,101,109784,1,4,0:3:0:0:
434,25,109914,5,0,0:0:0:0:
304,121,110045,1,0,0:0:0:0:
471,265,110175,6,0,P|479:187|508:93,1,150,6|8,0:0|0:0,0:0:0:0:
339,282,110567,1,0,0:0:0:0:
417,361,110697,2,0,P|454:352|507:344,1,75,2|0,0:0|0:0,0:0:0:0:
430,283,110958,1,8,0:0:0:0:
222,381,111088,6,0,P|245:321|190:255,1,150,2|0,0:0|0:0,0:0:0:0:
346,75,111480,2,0,B|359:116|359:116|354:166,1,75,10|0,0:0|0:0,0:0:0:0:
499,310,111740,2,0,P|460:293|419:280,1,75,2|0,0:0|0:0,0:0:0:0:
456,215,112001,1,10,0:0:0:0:
306,267,112132,1,0,0:0:0:0:
192,151,112262,6,0,P|159:164|131:184,1,50,2|0,0:0|0:0,0:0:0:0:
81,138,112436,2,0,P|69:182|66:224,1,50,2|8,0:0|2:0,0:0:0:0:
0,208,112610,2,0,P|21:245|58:278,1,50,2|0,0:0|0:0,0:0:0:0:
166,29,112784,6,0,P|199:42|227:62,1,50,2|0,0:0|0:0,0:0:0:0:
277,16,112958,2,0,P|289:60|292:102,1,50,2|8,0:0|2:0,0:0:0:0:
358,86,113132,2,0,P|337:123|300:156,1,50,2|0,0:0|0:0,0:0:0:0:
331,370,113306,6,0,P|311:348|283:326,1,50,2|0,0:0|0:0,0:0:0:0:
218,284,113480,2,0,P|251:266|279:246,1,50,2|8,0:0|0:0,0:0:0:0:
350,218,113653,2,0,P|345:263|347:296,1,50,2|0,0:0|0:0,0:0:0:0:
509,270,113827,6,0,P|464:258|411:249,1,75,2|0,0:0|0:0,0:0:0:0:
303,61,114088,2,0,P|321:120|329:166,1,75,10|0,0:0|0:0,0:0:0:0:
379,183,114349,6,0,P|351:129|422:75,1,150,6|8,0:0|0:0,0:0:0:0:
261,206,114740,1,0,0:0:0:0:
156,120,114871,2,0,P|200:132|249:140,1,75
115,249,115132,2,0,B|126:290|126:290|121:339,1,75,8|0,0:0|0:0,0:0:0:0:
0,129,115393,6,0,B|22:63|-13:81|19:-3,1,112.5,2|0,0:0|0:0,0:0:0:0:
126,50,115653,1,8,0:0:0:0:
170,27,115740,1,0,0:0:0:0:
219,30,115827,1,0,0:0:0:0:
265,10,115914,2,0,P|306:21|350:31,1,75,2|0,0:0|0:0,0:0:0:0:
468,211,116175,2,0,P|469:169|451:115,1,75,10|0,0:0|0:0,0:0:0:0:
507,39,116436,6,0,P|447:103|373:83,1,150,2|8,0:0|0:0,0:0:0:0:
231,263,116827,1,0,0:0:0:0:
297,300,116958,2,0,P|337:286|385:275,1,75,2|0,0:0|0:0,0:0:0:0:
327,364,117219,1,8,0:0:0:0:
502,275,117349,6,0,P|495:199|511:113,1,150,6|0,0:0|0:0,0:0:0:0:
308,0,117740,2,0,P|357:13|407:22,1,75,10|0,0:0|0:0,0:0:0:0:
225,137,118001,5,10,0:0:0:0:
329,245,118132,1,8,0:3:0:0:
438,112,118262,5,2,0:0:0:0:
331,166,118393,1,4,0:3:0:0:
156,87,118523,6,0,B|85:87|103:112|17:103,2,120,6|0|0,3:2|0:0|0:0,0:0:0:0:
220,46,119175,1,2,0:0:0:0:
220,46,119436,2,0,P|237:133|234:188,1,120,2|2,3:2|0:0,0:0:0:0:
192,220,119827,1,0,3:0:0:0:
317,297,119958,2,0,P|357:285|421:340,1,120,2|0,0:0|0:0,0:0:0:0:
242,306,120349,1,8,0:0:0:0:
325,373,120480,1,2,0:0:0:0:
177,341,120610,6,0,P|137:329|73:384,2,120,0|0|0,3:2|0:0|0:0,0:0:0:0:
249,384,121262,1,0,0:0:0:0:
249,384,121523,2,0,P|252:317|268:248,1,120,0|0,3:2|0:0,0:0:0:0:
109,125,121914,2,0,B|99:160|99:160|102:205,1,60,0|0,3:2|0:0,0:0:0:0:
243,83,122175,1,2,3:2:0:0:
305,126,122306,1,0,0:0:0:0:
233,157,122436,1,8,0:0:0:0:
312,52,122567,1,8,0:0:0:0:
480,118,122697,6,0,P|483:54|499:-7,2,120,2|0|0,3:2|0:0|3:0,0:0:0:0:
421,166,123349,1,2,0:0:0:0:
421,166,123610,2,0,P|457:209|430:277,1,120,2|0,3:2|0:0,0:0:0:0:
512,381,124001,1,0,3:2:0:0:
450,341,124132,1,2,0:0:0:0:
314,373,124262,2,0,P|318:339|317:292,1,60
245,338,124523,2,0,P|239:259|225:196,2,120,2|2|0,0:0|3:2|0:0,0:0:0:0:
66,219,125306,5,2,0:0:0:0:
1,255,125436,1,0,0:0:0:0:
1,255,125697,2,0,B|79:258|60:279|136:271,1,120,2|2,3:2|0:0,0:0:0:0:
311,218,126088,2,0,P|353:231|388:240,1,60,0|0,3:0|0:0,0:0:0:0:
243,295,126349,1,2,0:0:0:0:
281,357,126480,1,0,0:0:0:0:
153,309,126610,1,0,3:2:0:0:
119,373,126740,1,2,3:2:0:0:
119,373,127132,6,0,P|122:302|107:229,1,120,4|0,3:2|0:0,0:0:0:0:
215,125,127523,1,2,0:0:0:0:
272,172,127653,1,0,0:0:0:0:
235,39,127784,2,0,P|208:86|122:84,1,120,2|2,3:2|0:0,0:0:0:0:
4,234,128175,2,0,P|22:268|36:302,1,60,0|0,3:0|0:0,0:0:0:0:
113,172,128436,2,0,P|74:170|38:165,1,60,2|0,0:0|0:0,0:0:0:0:
112,297,128697,2,0,P|132:264|154:235,1,60,8|2,0:0|0:0,0:0:0:0:
310,175,128958,6,0,B|385:183|362:204|445:204,2,120,0|0|0,3:2|3:0|0:0,0:0:0:0:
248,220,129610,1,0,0:0:0:0:
248,220,129871,2,0,P|258:291|254:348,1,120,2|0,3:2|0:0,0:0:0:0:
328,329,130262,1,0,3:0:0:0:
451,379,130393,2,0,P|434:321|487:275,1,120,2|0,0:0|0:0,0:0:0:0:
361,147,130784,2,0,P|395:157|430:165,1,60,8|2,0:0|0:0,0:0:0:0:
236,250,131045,6,0,P|232:130|225:108,2,120,4|0|8,3:2|3:0|0:3,0:0:0:0:
289,309,131697,1,8,0:3:0:0:
289,309,131958,2,0,P|244:291|174:338,1,120,0|0,3:0|0:0,0:0:0:0:
0,365,132349,2,0,P|45:347|115:394,1,120,0|2,3:2|0:0,0:0:0:0:
175,353,132740,1,0,0:0:0:0:
60,252,132871,2,0,P|60:215|51:173,1,60,8|2,0:0|0:0,0:0:0:0:
131,211,133132,2,0,P|143:151|145:76,1,120,0|0,3:2|3:0,0:0:0:0:
412,156,133653,6,0,P|455:168|494:177,1,60,14|0,0:0|0:0,0:0:0:0:
429,236,133914,1,8,0:3:0:0:
334,93,134045,2,0,P|368:146|333:205,1,120,2|0,3:2|0:0,0:0:0:0:
159,189,134436,2,0,P|116:201|77:210,1,60,10|0,0:0|0:0,0:0:0:0:
310,384,134697,5,10,0:3:0:0:
358,327,134827,1,8,0:3:0:0:
287,300,134958,1,4,0:3:0:0:
237,359,135088,1,4,0:3:0:0:
386,349,135219,6,0,B|367:255|411:277|377:177,1,157.499995193482,6|0,3:2|0:0,0:0:0:0:
446,24,135740,2,0,P|485:35|520:43,1,67.4999979400635,8|0,0:0|0:0,0:0:0:0:
434,95,136001,1,0,3:0:0:0:
286,0,136132,2,0,P|304:88|297:179,1,157.499995193482,12|0,0:0|3:0,0:0:0:0:
52,329,136784,5,10,0:0:0:0:
115,191,136914,1,8,0:0:0:0:
64,245,137045,5,8,0:0:0:0:
0,112,137175,1,10,0:0:0:0:
96,178,137306,6,0,P|123:124|62:60,1,134.999995880127,6|8,3:2|0:0,0:0:0:0:
288,112,137697,2,0,P|251:120|200:134,1,67.4999979400635,0|0,0:0|3:0,0:0:0:0:
289,186,137958,1,0,0:0:0:0:
237,239,138088,1,0,0:0:0:0:
365,199,138219,2,0,B|447:209|423:233|509:235,1,134.999995880127,4|0,3:2|0:0,0:0:0:0:
426,297,138610,2,0,P|453:327|478:365,1,67.4999979400635,0|0,3:0|0:0,0:0:0:0:
176,321,138871,2,0,P|204:253|153:206,2,134.999995880127,10|2|6,0:0|0:0|3:2,0:0:0:0:
113,281,139653,5,2,0:0:0:0:
261,147,139914,2,0,B|265:109|265:109|250:61,1,67.4999979400635,10|0,0:0|0:0,0:0:0:0:
190,120,140175,1,0,0:0:0:0:
351,196,140306,2,0,P|306:177|234:232,1,134.999995880127,6|0,3:2|0:0,0:0:0:0:
52,244,140697,1,8,0:0:0:0:
146,338,140827,1,8,0:0:0:0:
63,314,140958,2,0,P|18:332|-10:340,1,67.4999979400635,10|0,0:0|0:0,0:0:0:0:
6,346,141349,6,0,P|5:255|23:184,1,134.999995880127,6|0,3:2|0:0,0:0:0:0:
156,108,141740,1,8,0:0:0:0:
260,186,141871,1,8,0:0:0:0:
297,87,142001,2,0,P|256:104|212:117,1,67.4999979400635,10|0,0:0|0:0,0:0:0:0:
230,105,142393,6,0,P|178:164|213:226,1,134.999995880127,6|0,3:2|0:0,0:0:0:0:
239,268,142784,1,8,0:0:0:0:
196,348,142914,1,8,0:0:0:0:
262,384,143045,2,0,P|301:376|355:358,1,67.4999979400635,10|0,0:0|0:0,0:0:0:0:
335,377,143436,6,0,B|339:295|365:322|366:234,1,134.999995880127,6|0,3:2|0:0,0:0:0:0:
437,256,143827,2,0,P|435:210|422:158,1,67.4999979400635,0|0,3:0|0:0,0:0:0:0:
226,8,144088,2,0,P|273:52|246:146,1,157.499995193482,12|0,0:0|0:0,0:0:0:0:
24,272,144610,5,10,0:0:0:0:
164,377,144740,1,8,0:0:0:0:
296,225,144871,5,8,0:0:0:0:
155,293,145001,2,0,P|154:275|151:259,1,26.2499991989136,10|0,0:0|0:0,0:0:0:0:
162,298,145262,2,0,P|178:295|196:294,1,26.2499991989136,10|0,0:0|0:0,0:0:0:0:
154,302,145523,6,0,P|181:235|123:182,1,134.999995880127,6|0,3:2|0:0,0:0:0:0:
271,9,145914,2,0,P|224:26|183:38,1,67.4999979400635,8|0,0:0|0:0,0:0:0:0:
328,120,146175,2,0,B|249:105|273:141|169:110,1,134.999995880127,8|0,0:0|3:0,0:0:0:0:
339,331,146697,5,10,0:0:0:0:
452,187,146827,1,8,0:0:0:0:
340,258,146958,1,8,0:0:0:0:
476,361,147088,2,0,B|480:327|480:327|467:280,1,67.4999979400635,2|0,3:2|0:0,0:0:0:0:
414,253,147349,1,0,3:0:0:0:
285,160,147480,2,0,B|269:189|269:189|266:223,1,67.4999979400635,10|0,0:0|0:0,0:0:0:0:
502,133,147740,6,0,B|484:52|521:72|486:-23,2,134.999995880127,6|2|10,3:2|3:0|0:0,0:0:0:0:
512,129,148653,2,0,P|486:98|387:115,1,134.999995880127,2|0,3:2|0:0,0:0:0:0:
232,30,149045,1,2,3:2:0:0:
284,78,149175,1,0,0:0:0:0:
188,153,149306,1,8,0:0:0:0:
112,63,149436,2,0,P|154:76|199:86,1,67.4999979400635,2|0,0:0|3:0,0:0:0:0:
115,137,149697,1,0,0:0:0:0:
280,293,149827,6,0,B|282:256|282:256|266:208,1,67.4999979400635,14|0,0:0|0:0,0:0:0:0:
57,188,150088,2,0,B|47:216|47:216|49:253,1,67.4999979400635,2|0,3:2|0:0,0:0:0:0:
245,361,150349,5,10,0:0:0:0:
434,250,150480,1,0,3:0:0:0:
470,316,150610,5,8,0:0:0:0:
254,286,150740,1,10,0:0:0:0:
77,16,151914,6,0,P|22:31|-19:39,1,75,6|0,0:0|0:0,0:0:0:0:
161,220,152175,2,0,P|133:180|31:187,1,150,8|2,0:0|0:0,0:0:0:0:
125,284,152567,1,0,0:0:0:0:
245,206,152697,1,8,0:0:0:0:
313,234,152827,6,0,B|405:222|385:258|484:235,1,150,2|0,0:0|0:0,0:0:0:0:
283,341,153219,2,0,P|320:350|372:369,1,75,10|0,0:0|0:0,0:0:0:0:
218,137,153480,1,2,0:0:0:0:
313,234,153610,1,0,0:0:0:0:
151,293,153740,2,0,B|151:256|151:256|177:206,1,75,10|0,0:0|0:0,0:0:0:0:
363,132,154001,6,0,P|414:151|463:164,1,75,2|0,0:0|0:0,0:0:0:0:
191,17,154262,2,0,P|238:61|208:144,1,150,8|2,0:0|0:0,0:0:0:0:
55,238,154653,1,0,0:0:0:0:
163,364,154784,1,8,0:0:0:0:
151,293,154914,6,0,B|137:205|174:228|137:129,1,150,2|0,0:0|0:0,0:0:0:0:
334,3,155306,2,0,P|291:17|243:26,1,75,10|0,0:0|0:0,0:0:0:0:
411,212,155567,1,2,0:0:0:0:
288,117,155697,1,0,0:0:0:0:
352,84,155827,2,0,B|365:124|365:124|361:175,1,75,10|0,0:0|0:0,0:0:0:0:
218,383,156088,6,0,P|245:322|183:260,1,150,2|8,0:0|0:0,0:0:0:0:
316,351,156480,1,0,0:0:0:0:
454,210,156610,2,0,P|406:229|366:240,1,75,2|0,0:0|0:0,0:0:0:0:
481,282,156871,1,8,0:0:0:0:
280,272,157001,6,0,P|285:190|259:98,1,150,2|0,0:0|0:0,0:0:0:0:
71,12,157393,2,0,P|19:28|-14:36,1,75,10|0,0:0|0:0,0:0:0:0:
123,186,157653,1,2,0:0:0:0:
221,81,157784,1,0,0:0:0:0:
224,156,157914,1,10,0:0:0:0:
130,111,158045,1,0,0:0:0:0:
306,0,158175,6,0,B|319:40|319:40|315:88,1,75,2|0,0:0|0:0,0:0:0:0:
488,245,158436,2,0,P|453:181|505:115,1,150,8|2,0:0|0:0,0:0:0:0:
355,242,158827,1,0,0:0:0:0:
477,352,158958,1,8,0:0:0:0:
410,184,159088,6,0,B|321:179|346:215|236:198,1,150,2|0,0:0|0:0,0:0:0:0:
375,376,159480,2,0,P|324:361|280:352,1,75,10|0,0:0|0:0,0:0:0:0:
130,207,159740,5,2,0:0:0:0:
229,275,159871,1,0,0:0:0:0:
344,125,160001,5,10,0:0:0:0:
226,200,160132,1,8,0:0:0:0:
32,120,160262,6,0,P|6:198|3:290,2,150,6|8|2,0:0|0:0|0:0,0:0:0:0:
188,40,160914,1,0,0:0:0:0:
300,145,161045,1,8,0:0:0:0:
366,107,161175,6,0,P|347:47|411:-5,1,150,2|0,0:0|0:0,0:0:0:0:
504,157,161567,2,0,B|491:197|491:197|492:247,1,75,10|0,0:0|0:0,0:0:0:0:
331,377,161827,1,2,0:0:0:0:
432,274,161958,1,0,0:0:0:0:
501,369,162088,2,0,P|452:354|403:345,1,75,10|0,0:0|0:0,0:0:0:0:
268,241,162349,6,0,P|269:150|253:87,2,150,2|8|2,0:0|0:0|0:0,0:0:0:0:
233,306,163001,1,0,0:0:0:0:
94,181,163132,1,8,0:0:0:0:
155,141,163262,6,0,B|249:137|226:172|320:152,1,150,2|0,0:0|0:0,0:0:0:0:
126,276,163653,2,0,B|137:318|137:318|131:363,1,75,10|0,0:0|0:0,0:0:0:0:
57,304,163914,1,2,0:0:0:0:
176,214,164045,1,0,0:0:0:0:
64,96,164175,2,0,P|122:111|157:119,1,75,10|0,0:0|0:0,0:0:0:0:
287,293,164436,6,0,P|290:254|272:195,1,75,2|0,0:0|0:0,0:0:0:0:
361,114,164697,2,0,P|309:162|332:236,1,150,8|2,0:0|0:0,0:0:0:0:
395,203,165088,1,0,0:0:0:0:
281,127,165219,1,8,0:0:0:0:
432,0,165349,6,0,P|453:95|448:174,1,150,2|0,0:0|0:0,0:0:0:0:
353,279,165740,1,10,0:0:0:0:
475,376,165871,1,0,0:0:0:0:
477,305,166001,2,0,P|476:261|454:205,1,75,2|0,0:0|0:0,0:0:0:0:
277,282,166262,2,0,P|267:318|267:355,1,75,10|0,0:0|0:0,0:0:0:0:
509,133,166523,6,0,B|423:138|451:169|350:164,2,150,2|8|0,0:0|0:0|0:0,0:0:0:0:
316,22,167175,2,0,P|365:37|406:46,1,75,0|8,0:0|0:0,0:0:0:0:
137,0,167436,6,0,P|178:39|152:134,1,150,2|0,0:0|0:0,0:0:0:0:
292,280,167827,2,0,B|291:241|291:241|311:189,1,75,10|0,0:0|0:0,0:0:0:0:
55,375,168088,5,10,0:0:0:0:
161,218,168219,1,8,0:0:0:0:
63,302,168349,5,10,0:0:0:0:
0,128,168480,1,8,0:0:0:0:
126,257,168610,6,0,B|132:214|132:214|117:165,1,82.5000025177003,6|0,0:0|0:0,0:0:0:0:
325,43,168871,2,0,P|381:58|496:82,1,165.000005035401,10|2,0:0|0:0,0:0:0:0:
296,115,169262,1,0,0:0:0:0:
437,217,169393,1,8,0:0:0:0:
209,79,169523,6,0,P|260:124|230:207,1,165.000005035401,2|0,0:0|0:0,0:0:0:0:
404,352,169914,2,0,P|441:362|494:382,1,82.5000025177003,10|0,0:0|0:0,0:0:0:0:
444,289,170175,1,2,0:0:0:0:
310,358,170306,1,0,0:0:0:0:
188,274,170436,2,0,P|152:287|106:300,1,82.5000025177003,10|0,0:0|0:0,0:0:0:0:
449,211,170697,6,0,P|449:134|470:44,1,165.000005035401,2|8,0:0|0:0,0:0:0:0:
292,172,171088,1,0,0:0:0:0:
243,117,171219,2,0,P|250:75|254:27,1,82.5000025177003,2|0,0:0|0:0,0:0:0:0:
45,191,171480,1,8,0:0:0:0:
2,131,171610,6,0,B|104:145|64:170|168:177,1,165.000005035401,2|0,0:0|0:0,0:0:0:0:
301,363,172001,2,0,B|308:321|308:321|296:274,1,82.5000025177003,10|0,0:0|0:0,0:0:0:0:
336,222,172262,1,2,0:0:0:0:
203,321,172393,1,0,0:0:0:0:
375,288,172523,2,0,P|418:304|477:321,1,82.5000025177003,10|0,0:0|0:0,0:0:0:0:
225,78,172784,6,0,P|275:146|235:221,1,165.000005035401,2|8,0:0|0:0,0:0:0:0:
180,246,173175,1,0,0:0:0:0:
77,128,173306,2,0,P|27:142|-21:152,1,82.5000025177003,2|0,0:0|0:0,0:0:0:0:
76,204,173567,1,8,0:0:0:0:
213,6,173697,6,0,P|274:61|355:37,1,165.000005035401,2|0,0:0|0:0,0:0:0:0:
463,224,174088,1,10,0:0:0:0:
362,135,174219,1,0,0:0:0:0:
462,22,174349,2,0,B|476:66|476:66|472:110,1,82.5000025177003,2|0,0:0|0:0,0:0:0:0:
337,208,174610,2,0,P|291:219|236:238,1,82.5000025177003,10|0,0:0|0:0,0:0:0:0:
201,338,174871,6,0,P|232:282|161:197,1,165.000005035401,2|8,0:0|0:0,0:0:0:0:
324,315,175262,1,0,0:0:0:0:
444,220,175393,1,2,0:0:0:0:
348,127,175523,2,0,B|334:168|334:168|337:218,1,82.5000025177003,0|8,0:0|0:0,0:0:0:0:
162,0,175784,6,0,B|66:-1|102:33|-18:23,1,165.000005035401,2|0,0:0|0:0,0:0:0:0:
162,202,176175,2,0,P|106:185|70:177,1,82.5000025177003,10|0,0:0|0:0,0:0:0:0:
335,91,176436,5,2,0:0:0:0:
219,150,176567,1,2,0:0:0:0:
323,16,176697,5,8,0:0:0:0:
475,111,176827,1,8,0:0:0:0:
264,62,176958,6,0,P|208:77|163:86,1,82.5000025177003,6|0,0:0|0:0,0:0:0:0:
13,243,177219,2,0,P|15:162|-9:63,1,165.000005035401,10|2,0:0|0:0,0:0:0:0:
168,237,177610,1,0,0:0:0:0:
317,121,177740,1,8,0:0:0:0:
180,1,177871,6,0,P|164:74|166:166,1,165.000005035401,2|0,0:0|0:0,0:0:0:0:
351,377,178262,2,0,P|398:365|441:357,1,82.5000025177003,10|0,0:0|0:0,0:0:0:0:
311,232,178523,2,0,P|296:282|282:321,1,82.5000025177003,2|0,0:0|0:0,0:0:0:0:
460,272,178784,2,0,P|426:236|399:205,1,82.5000025177003,10|0,0:0|0:0,0:0:0:0:
198,0,179045,6,0,P|245:62|217:141,1,165.000005035401,2|8,0:0|0:0,0:0:0:0:
153,101,179436,1,0,0:0:0:0:
366,4,179567,2,0,P|414:16|461:24,1,82.5000025177003,2|0,0:0|0:0,0:0:0:0:
382,83,179827,1,8,0:0:0:0:
198,0,179958,6,0,P|116:16|21:30,1,165.000005035401,2|0,0:0|0:0,0:0:0:0:
166,199,180349,1,10,0:0:0:0:
67,304,180480,1,0,0:0:0:0:
172,275,180610,2,0,P|213:300|254:319,1,82.5000025177003,2|0,0:0|0:0,0:0:0:0:
67,154,180871,2,0,P|60:95|32:-7,1,165.000005035401,10|0,0:0|0:0,0:0:0:0:
284,152,181393,6,0,B|386:161|354:194|464:190,1,165.000005035401,10|0,0:0|0:0,0:0:0:0:
291,227,181784,1,0,0:0:0:0:
474,344,181914,1,8,0:0:0:0:
475,271,182045,6,0,P|473:207|488:106,1,165.000005035401,2|0,0:0|0:0,0:0:0:0:
328,304,182436,1,10,0:0:0:0:
207,202,182567,1,0,0:0:0:0:
322,81,182697,2,0,B|335:124|335:124|331:166,1,82.5000025177003,2|0,0:0|0:0,0:0:0:0:
178,271,182958,2,0,P|131:281|86:294,1,82.5000025177003,10|0,0:0|0:0,0:0:0:0:
41,384,183219,6,0,P|68:312|2:250,1,165.000005035401,2|8,0:0|0:0,0:0:0:0:
223,342,183610,1,0,0:0:0:0:
273,289,183740,2,0,P|266:238|260:189,1,82.5000025177003,2|0,0:0|0:0,0:0:0:0:
196,273,184001,1,8,0:0:0:0:
489,367,184132,6,0,B|393:357|417:397|305:371,1,165.000005035401,2|0,0:0|0:0,0:0:0:0:
73,249,184523,2,0,B|84:292|84:292|79:340,1,82.5000025177003,10|0,0:0|0:0,0:0:0:0:
188,115,184784,5,10,0:0:0:0:
211,187,184914,1,8,0:0:0:0:
353,55,185045,5,10,0:0:0:0:
311,219,185175,1,8,0:0:0:0:
508,45,185306,6,0,B|472:131|516:112|472:222,2,150,6|8|0,0:0|0:0|0:0,0:0:0:0:
335,134,185958,1,0,0:0:0:0:
438,250,186088,1,8,0:0:0:0:
403,48,186219,6,0,P|329:100|258:72,1,150,2|0,0:0|0:0,0:0:0:0:
23,215,186610,1,10,0:0:0:0:
120,129,186740,1,0,0:0:0:0:
48,143,186871,1,2,0:0:0:0:
188,202,187001,1,0,0:0:0:0:
366,163,187132,1,8,0:0:0:0:
429,201,187262,6,0,B|397:281|437:267|403:360,1,150,2|0,0:0|0:0,0:0:0:0:
204,277,187653,1,8,0:0:0:0:
262,227,187784,2,0,P|307:241|353:252,1,75,2|0,0:0|0:0,0:0:0:0:
221,352,188045,1,0,0:0:0:0:
36,263,188175,6,0,P|64:201|1:133,1,150,14|0,0:0|0:0,0:0:0:0:
140,190,188567,1,0,0:0:0:0:
312,0,188697,2,0,P|268:6|217:30,1,75,10|0,0:0|0:0,0:0:0:0:
304,167,188958,2,0,P|320:125|325:69,1,75,2|0,0:0|0:0,0:0:0:0:
163,76,189219,2,0,P|190:111|236:143,1,75,10|0,0:0|0:0,0:0:0:0:
420,289,189480,6,0,P|403:214|460:170,1,150,2|8,0:0|0:0,0:0:0:0:
301,275,189871,1,2,0:0:0:0:
466,357,190001,1,0,0:0:0:0:
496,289,190132,1,0,0:0:0:0:
255,332,190262,6,0,P|255:248|229:157,1,150,10|0,0:0|0:0,0:0:0:0:
177,220,190653,1,0,0:0:0:0:
64,17,190784,2,0,P|107:30|150:40,1,75,10|0,0:0|0:0,0:0:0:0:
19,158,191045,2,0,P|8:114|-4:72,1,75,2|0,0:0|0:0,0:0:0:0:
164,126,191306,2,0,P|131:156|101:188,1,75,10|0,0:0|0:0,0:0:0:0:
316,374,191567,6,0,P|294:301|342:255,1,150,2|8,0:0|0:0,0:0:0:0:
394,306,191958,1,0,0:0:0:0:
307,136,192088,2,0,P|263:148|225:156,1,75,2|0,0:0|0:0,0:0:0:0:
296,214,192349,1,8,0:0:0:0:
428,108,192480,1,2,0:0:0:0:
469,175,192610,5,8,0:0:0:0:
300,134,192740,1,8,0:0:0:0:
286,59,192871,5,8,0:3:0:0:
116,135,193001,1,8,0:3:0:0:
74,73,193132,5,4,0:3:0:0:
209,167,193262,1,4,0:3:0:0:
7,230,193393,2,0,B|3:191|3:191|22:143,1,75
232,308,193653,5,6,0:0:0:0:
312,370,193784,1,0,0:0:0:0:
233,384,193914,1,10,0:0:0:0:
307,295,194045,1,0,0:0:0:0:
512,339,194175,5,2,0:0:0:0:
452,294,194306,1,0,0:0:0:0:
451,221,194436,1,10,0:0:0:0:
414,156,194567,1,0,0:0:0:0:
248,22,194697,5,2,0:0:0:0:
194,75,194827,1,0,0:0:0:0:
264,42,194958,1,10,0:0:0:0:
213,91,195088,1,0,0:0:0:0:
340,271,195219,5,2,0:0:0:0:
246,205,195349,1,0,0:0:0:0:
366,139,195480,2,0,P|412:154|450:163,1,75,10|0,0:0|0:0,0:0:0:0:
174,179,195740,6,0,P|221:226|196:314,1,150,2|8,0:0|0:0,0:0:0:0:
76,69,196132,2,0,P|22:84|-11:89,1,75,2|0,0:0|0:0,0:0:0:0:
52,152,196393,1,0,0:0:0:0:
208,0,196523,2,0,B|195:42|195:42|202:96,1,75,10|0,0:0|0:0,0:0:0:0:
485,148,196784,6,0,P|408:165|311:183,1,150,2|8,0:0|0:0,0:0:0:0:
503,219,197175,1,0,0:0:0:0:
329,352,197306,5,8,0:0:0:0:
417,209,197436,1,8,0:0:0:0:
259,320,197567,5,8,0:0:0:0:
177,157,197697,1,8,0:0:0:0:
461,282,197827,6,0,B|438:187|482:211|449:113,1,150,6|8,0:0|0:0,0:0:0:0:
290,202,198219,1,0,0:0:0:0:
218,54,198349,1,2,0:0:0:0:
281,98,198480,1,0,0:0:0:0:
127,171,198610,2,0,B|125:132|125:132|146:83,1,75,10|0,0:0|0:0,0:0:0:0:
238,263,198871,5,2,0:0:0:0:
140,361,199001,1,0,0:0:0:0:
230,338,199132,2,0,P|268:358|314:373,1,75,10|0,0:0|0:0,0:0:0:0:
92,148,199393,5,2,0:0:0:0:
244,255,199523,1,0,0:0:0:0:
336,89,199653,5,10,0:0:0:0:
208,188,199784,1,0,0:0:0:0:
386,219,199914,6,0,P|427:206|477:194,1,75,6|0,0:0|0:0,0:0:0:0:
474,176,200110,2,0,P|490:188|521:202,1,37.5,0|8,0:0|0:0,0:0:0:0:
277,379,200306,1,0,0:0:0:0:
237,318,200436,2,0,P|259:258|214:210,1,112.5,2|0,0:0|0:0,0:0:0:0:
235,220,200697,2,0,P|300:242|318:246,1,75,10|0,0:0|0:0,0:0:0:0:
0,243,200958,5,10,0:0:0:0:
137,376,201088,1,8,0:0:0:0:
230,209,201219,5,8,0:3:0:0:
102,303,201349,1,8,0:3:0:0:
317,284,201480,5,4,0:3:0:0:
473,372,201610,1,4,0:3:0:0:
463,296,201740,5,4,0:3:0:0:
289,353,201871,1,4,0:3:0:0:
114,228,202001,5,6,0:0:0:0:
256,192,202067,12,0,206175,0:0:0:0:
