osu file format v14

[General]
AudioFilename: icaros12.mp3
AudioLeadIn: 0
PreviewTime: 279050
Countdown: 1
SampleSet: Normal
StackLeniency: 0.7
Mode: 1
LetterboxInBreaks: 0
WidescreenStoryboard: 0

[Editor]
DistanceSpacing: 0.8
BeatDivisor: 8
GridSize: 32
TimelineZoom: 2.9

[Metadata]
Title:An Elegy Of Icaros
TitleUnicode:An Elegy Of Icaros
Artist:Emperor
ArtistUnicode:Emperor
Creator:ARGENTINE DREAM
Version:Taiko God
Source:
Tags:melodic black metal ix equilibrium 1999
BeatmapID:1603438
BeatmapSetID:762660

[Difficulty]
HPDrainRate:4
CircleSize:2
OverallDifficulty:7
ApproachRate:5
SliderMultiplier:1.4
SliderTickRate:3

[Events]
//Background and Video events
0,0,"icarosbg.jpg",0,80
//Break Periods
2,195827,198712
//Storyboard Layer 0 (Background)
//Storyboard Layer 1 (Fail)
//Storyboard Layer 2 (Pass)
//Storyboard Layer 3 (Foreground)
//Storyboard Sound Samples

[TimingPoints]
13394,363.636363636364,4,1,0,75,1,0
13394,-76.9230769230769,4,1,0,75,0,0
14484,-78.125,4,1,0,75,0,0
14606,-79.3650793650794,4,1,0,75,0,0
14727,-80.6451612903226,4,1,0,75,0,0
14848,-81.9672131147541,4,1,0,75,0,0
15212,-83.3333333333333,4,1,0,75,0,0
36666,-76.9230769230769,4,1,0,75,0,0
37636,-77.5193798449612,4,1,0,75,0,0
37757,-78.125,4,1,0,75,0,0
37878,-79.3650793650794,4,1,0,75,0,0
38000,-80.6451612903226,4,1,0,75,0,0
38121,-81.9672131147541,4,1,0,75,0,0
38484,-83.3333333333333,4,1,0,75,0,0
52666,340.909090909091,4,1,0,75,1,0
52666,-88.4955752212389,4,1,0,75,0,0
55393,340.909090909091,3,1,0,75,1,0
55393,-88.4955752212389,3,1,0,75,0,0
57267,340.909090909091,3,1,0,75,1,0
57267,-79.3650793650794,3,1,0,75,0,0
57607,-80,3,1,0,75,0,0
57948,-80.6451612903226,3,1,0,75,0,0
58289,-81.3008130081301,3,1,0,75,0,1
58460,-88.8888888888889,3,1,0,75,0,1
60335,340.909090909091,5,1,0,75,1,1
60335,-88.8888888888889,5,1,0,75,0,1
62039,340.909090909091,3,1,0,75,1,1
62039,-88.8888888888889,3,1,0,75,0,1
63061,340.909090909091,5,1,0,75,1,1
63061,-88.8888888888889,5,1,0,75,0,1
64766,340.909090909091,3,1,0,75,1,1
64766,-88.8888888888889,3,1,0,75,0,1
66811,340.909090909091,5,1,0,75,1,1
66811,-88.8888888888889,5,1,0,75,0,1
68516,340.909090909091,3,1,0,75,1,1
68516,-88.8888888888889,3,1,0,75,0,1
70561,-88.8888888888889,3,1,0,75,0,0
71584,-85.4700854700855,3,1,0,75,0,0
72606,-81.9672131147541,3,1,0,75,0,0
73629,340.909090909091,4,1,0,75,1,0
73629,-76.9230769230769,4,1,0,75,0,0
74992,340.909090909091,3,1,0,75,1,1
74992,-88.8888888888889,3,1,0,75,0,1
78742,340.909090909091,3,1,0,75,1,1
78742,-88.8888888888889,3,1,0,75,0,1
81469,340.909090909091,3,1,0,75,1,1
81469,-88.8888888888889,3,1,0,75,0,1
85219,340.909090909091,3,1,0,75,1,1
85219,-88.8888888888889,3,1,0,75,0,1
87264,-88.4955752212389,3,1,0,75,0,0
88287,-85.4700854700855,3,1,0,75,0,0
89309,-81.9672131147541,3,1,0,75,0,0
90332,-76.9230769230769,3,1,0,75,0,0
91355,-50,4,1,0,75,0,0
91696,340.909090909091,4,1,0,75,1,0
91696,-88.4955752212389,4,1,0,75,0,0
100900,-86.9565217391304,4,1,0,75,0,0
100985,-85.4700854700855,4,1,0,75,0,0
101071,-83.3333333333333,4,1,0,75,0,0
101156,-81.3008130081301,4,1,0,75,0,0
101241,-80,4,1,0,75,0,0
101411,-80.6451612903226,4,1,0,75,0,0
101752,-81.3008130081301,4,1,0,75,0,0
102093,-81.9672131147541,4,1,0,75,0,0
102434,-82.6446280991736,4,1,0,75,0,0
102690,-83.3333333333333,4,1,0,75,0,0
102775,-84.0336134453781,4,1,0,75,0,0
102860,-84.7457627118644,4,1,0,75,0,0
102946,-85.4700854700855,4,1,0,75,0,0
103031,-86.2068965517241,4,1,0,75,0,0
103116,-86.9565217391304,4,1,0,75,0,0
103201,-87.719298245614,4,1,0,75,0,0
103286,-88.8888888888889,4,1,0,75,0,0
111639,-87.719298245614,4,1,0,75,0,0
111724,-86.9565217391304,4,1,0,75,0,0
111809,-86.2068965517241,4,1,0,75,0,0
111894,-85.4700854700855,4,1,0,75,0,0
111980,-84.7457627118644,4,1,0,75,0,0
112065,-84.0336134453781,4,1,0,75,0,0
112150,-83.3333333333333,4,1,0,75,0,0
112235,-82.6446280991736,4,1,0,75,0,0
112321,-81.9672131147541,4,1,0,75,0,0
113514,-81.9672131147541,4,1,0,75,0,1
113684,-85.4700854700855,4,1,0,75,0,1
113855,-88.8888888888889,4,1,0,75,0,1
122207,-87.719298245614,4,1,0,75,0,1
122292,-86.9565217391304,4,1,0,75,0,1
122377,-86.2068965517241,4,1,0,75,0,1
122463,-85.4700854700855,4,1,0,75,0,1
122548,-84.7457627118644,4,1,0,75,0,1
122633,-84.0336134453781,4,1,0,75,0,1
122718,-83.3333333333333,4,1,0,75,0,1
124423,-83.3333333333333,4,1,0,75,0,0
124593,-88.8888888888889,4,1,0,75,0,0
144366,-87.719298245614,4,1,0,75,0,0
144451,-86.2068965517241,4,1,0,75,0,0
144536,-84.7457627118644,4,1,0,75,0,0
144622,-83.3333333333333,4,1,0,75,0,0
144707,-81.9672131147541,4,1,0,75,0,0
144792,-80.6451612903226,4,1,0,75,0,0
144877,-80,4,1,0,75,0,0
144934,-79.3650793650794,4,1,0,75,0,0
144991,-78.7401574803149,4,1,0,75,0,0
145048,-78.125,4,1,0,75,0,0
145105,-77.5193798449612,4,1,0,75,0,0
145161,-76.9230769230769,4,1,0,75,0,0
145218,-76.3358778625954,4,1,0,75,0,0
145275,-75.7575757575758,4,1,0,75,0,0
145332,-75.187969924812,4,1,0,75,0,0
145389,-74.6268656716418,4,1,0,75,0,0
145446,-74.0740740740741,4,1,0,75,0,0
145502,-73.5294117647059,4,1,0,75,0,0
145559,-72.992700729927,4,1,0,75,0,0
145644,-72.463768115942,4,1,0,75,0,0
145730,-71.4285714285714,4,1,0,75,0,0
145815,-70.4225352112676,4,1,0,75,0,0
145900,-69.4444444444444,4,1,0,75,0,0
145985,-68.4931506849315,4,1,0,75,0,0
146071,-68.0272108843537,4,1,0,75,0,0
146127,-67.5675675675676,4,1,0,75,0,0
146184,-67.1140939597315,4,1,0,75,0,0
146241,-66.6666666666667,4,1,0,75,0,1
146411,-76.9230769230769,4,1,0,75,0,1
146582,-83.3333333333333,4,1,0,75,0,1
157150,-81.3008130081301,4,1,0,75,0,0
157321,-80,4,1,0,75,0,0
157491,-78.7401574803149,4,1,0,75,0,0
157661,-76.9230769230769,4,1,0,75,0,0
157835,389.61038961039,3,1,0,75,1,1
157835,-66.6666666666667,3,1,0,75,0,1
174977,-66.6666666666667,3,1,0,75,0,0
176536,-66.6666666666667,3,1,0,75,0,1
195237,-66.6666666666667,3,1,0,75,0,0
195432,-76.9230769230769,3,1,0,75,0,0
195627,-83.3333333333333,3,1,0,75,0,0
241211,-90.9090909090909,3,1,0,75,0,0
241406,-100,3,1,0,75,0,0
241601,-111.111111111111,3,1,0,75,0,0
241796,-125,3,1,0,75,0,0
242770,-50,3,1,0,75,0,0
242964,-69.9300699300699,3,1,0,75,0,0
243159,-71.4285714285714,3,1,0,75,0,0
243224,-72.463768115942,3,1,0,75,0,0
243289,-73.5294117647059,3,1,0,75,0,0
243354,-74.6268656716418,3,1,0,75,0,0
243419,-75.7575757575758,3,1,0,75,0,0
243549,-76.9230769230769,3,1,0,75,0,0
243744,-78.7401574803149,3,1,0,75,0,0
243938,-80,3,1,0,75,0,0
244133,-81.3008130081301,3,1,0,75,0,0
244328,-83.3333333333333,3,1,0,75,0,0
270432,-133.333333333333,3,1,0,75,0,0
278614,-71.4285714285714,3,1,0,75,0,0
278679,-69.9300699300699,3,1,0,75,0,0
278744,-68.9655172413793,3,1,0,75,0,0
278809,-68.0272108843537,3,1,0,75,0,0
278873,-66.6666666666667,3,1,0,75,0,0
278938,-65.359477124183,3,1,0,75,0,0
279003,-64.1025641025641,3,1,0,75,0,0
279393,-64.1025641025641,3,1,0,75,0,1
279523,-64.9350649350649,3,1,0,75,0,1
279653,-65.7894736842105,3,1,0,75,0,1
279783,-66.6666666666667,3,1,0,75,0,1
297315,-66.6666666666667,3,1,0,75,0,0
298094,363.636363636364,4,1,0,75,1,0
298094,-77.5193798449612,3,1,0,75,0,0
298275,-78.125,3,1,0,75,0,0
298639,-78.7401574803149,3,1,0,75,0,0
298821,-79.3650793650794,3,1,0,75,0,0
299003,-80,3,1,0,75,0,0
299366,-80.6451612903226,3,1,0,75,0,0
299548,-81.3008130081301,3,1,0,75,0,0
299821,-81.9672131147541,3,1,0,75,0,0
300094,-82.6446280991736,3,1,0,75,0,0
301184,-83.3333333333333,4,1,0,75,0,0
319912,-80,4,1,0,75,0,0
321730,-83.3333333333333,4,1,0,75,0,0
334094,-76.9230769230769,4,1,0,75,0,0
335912,-78.125,4,1,0,75,0,0
338821,340.909090909091,4,1,0,75,1,0
338821,-83.3333333333333,4,1,0,75,0,0
340525,-81.3008130081301,3,1,0,75,0,0
341548,340.909090909091,3,1,0,75,1,1
341548,-81.3008130081301,3,1,0,75,0,1
341718,-88.8888888888889,3,1,0,75,0,1
343593,340.909090909091,5,1,0,75,1,1
343593,-88.8888888888889,5,1,0,75,0,1
345298,340.909090909091,3,1,0,75,1,1
345298,-88.8888888888889,3,1,0,75,0,1
346320,340.909090909091,5,1,0,75,1,1
346320,-88.8888888888889,5,1,0,75,0,1
348025,340.909090909091,3,1,0,75,1,1
348025,-88.8888888888889,3,1,0,75,0,1
350070,340.909090909091,5,1,0,75,1,1
350070,-88.8888888888889,5,1,0,75,0,1
351775,340.909090909091,3,1,0,75,1,1
351775,-88.8888888888889,3,1,0,75,0,1
353820,-88.8888888888889,3,1,0,75,0,0
354843,-85.4700854700855,3,1,0,75,0,0
355865,-81.9672131147541,3,1,0,75,0,0
356888,-76.9230769230769,3,1,0,75,0,0
357911,-100,3,1,0,10,0,0
358934,-25,3,1,0,10,0,0

[HitObjects]
224,160,13757,5,8,0:0:0:0:
224,160,13803,1,8,0:0:0:0:
224,160,13894,1,8,0:0:0:0:
224,224,13984,1,0,0:0:0:0:
224,224,14030,1,0,0:0:0:0:
224,224,14121,1,0,0:0:0:0:
224,160,14242,1,8,0:0:0:0:
224,160,14363,1,8,0:0:0:0:
224,224,14484,1,0,0:0:0:0:
224,160,14606,1,8,0:0:0:0:
224,160,14727,1,8,0:0:0:0:
288,224,14848,5,4,0:0:0:0:
224,160,15212,1,8,0:0:0:0:
224,224,15394,1,0,0:0:0:0:
224,160,15575,1,8,0:0:0:0:
224,224,15757,1,0,0:0:0:0:
288,224,15939,5,4,0:0:0:0:
224,160,16303,1,8,0:0:0:0:
224,224,16484,1,0,0:0:0:0:
224,224,16666,1,0,0:0:0:0:
224,160,17030,1,8,0:0:0:0:
224,160,17394,1,8,0:0:0:0:
288,224,17757,5,4,0:0:0:0:
224,224,17939,1,0,0:0:0:0:
224,160,18121,1,8,0:0:0:0:
224,224,18303,1,0,0:0:0:0:
224,160,18484,1,8,0:0:0:0:
224,224,18666,1,0,0:0:0:0:
288,224,18848,5,4,0:0:0:0:
224,160,19212,1,8,0:0:0:0:
224,224,19575,1,0,0:0:0:0:
224,160,19939,1,8,0:0:0:0:
224,224,20121,1,0,0:0:0:0:
224,224,20212,1,0,0:0:0:0:
224,160,20303,1,8,0:0:0:0:
224,224,20484,1,0,0:0:0:0:
288,224,20666,5,4,0:0:0:0:
224,160,21030,1,8,0:0:0:0:
224,224,21212,1,0,0:0:0:0:
224,160,21394,1,8,0:0:0:0:
224,224,21575,1,0,0:0:0:0:
288,224,21757,5,4,0:0:0:0:
224,160,22121,1,8,0:0:0:0:
224,224,22303,1,0,0:0:0:0:
224,224,22484,1,0,0:0:0:0:
224,160,22848,1,8,0:0:0:0:
224,160,23212,1,8,0:0:0:0:
288,224,23575,5,4,0:0:0:0:
224,224,23757,1,0,0:0:0:0:
224,160,23939,1,8,0:0:0:0:
224,224,24121,1,0,0:0:0:0:
224,160,24303,1,8,0:0:0:0:
224,224,24484,1,0,0:0:0:0:
288,224,24666,5,4,0:0:0:0:
224,160,25030,1,8,0:0:0:0:
224,224,25212,1,0,0:0:0:0:
288,160,25394,5,12,0:0:0:0:
288,224,25757,1,4,0:0:0:0:
224,224,26000,1,0,0:0:0:0:
224,160,26121,1,8,0:0:0:0:
224,160,26242,1,8,0:0:0:0:
224,224,26363,1,0,0:0:0:0:
288,160,26484,5,12,0:0:0:0:
224,160,26848,1,8,0:0:0:0:
224,224,27030,1,0,0:0:0:0:
224,160,27212,1,8,0:0:0:0:
224,224,27394,1,0,0:0:0:0:
288,224,27575,5,4,0:0:0:0:
224,160,27939,1,8,0:0:0:0:
224,224,28121,1,0,0:0:0:0:
224,224,28303,1,0,0:0:0:0:
224,160,28666,1,8,0:0:0:0:
224,160,29030,1,8,0:0:0:0:
288,224,29394,5,4,0:0:0:0:
224,160,29757,1,8,0:0:0:0:
224,224,29939,1,0,0:0:0:0:
224,160,30121,1,8,0:0:0:0:
288,224,30484,5,4,0:0:0:0:
224,160,30848,1,8,0:0:0:0:
224,224,31030,1,0,0:0:0:0:
224,224,31212,1,0,0:0:0:0:
224,224,31394,1,0,0:0:0:0:
224,224,31454,1,0,0:0:0:0:
224,224,31515,1,0,0:0:0:0:
288,160,31575,1,12,0:0:0:0:
288,160,31939,1,12,0:0:0:0:
224,224,32121,1,0,0:0:0:0:
288,224,32303,5,4,0:0:0:0:
224,160,32666,1,8,0:0:0:0:
224,224,32848,1,0,0:0:0:0:
224,160,33030,1,8,0:0:0:0:
224,224,33212,1,0,0:0:0:0:
288,224,33394,5,4,0:0:0:0:
224,160,33757,1,8,0:0:0:0:
224,224,33939,1,0,0:0:0:0:
224,224,34121,1,0,0:0:0:0:
224,160,34484,1,8,0:0:0:0:
224,160,34848,1,8,0:0:0:0:
288,224,35212,5,4,0:0:0:0:
224,160,35575,1,8,0:0:0:0:
224,224,35757,1,0,0:0:0:0:
224,160,35939,1,8,0:0:0:0:
224,224,36121,1,0,0:0:0:0:
288,224,36303,5,4,0:0:0:0:
224,160,36666,1,8,0:0:0:0:
224,160,36712,1,8,0:0:0:0:
224,160,36787,1,8,0:0:0:0:
224,160,36909,1,8,0:0:0:0:
224,224,37030,1,0,0:0:0:0:
224,160,37166,1,8,0:0:0:0:
224,160,37212,1,8,0:0:0:0:
224,224,37303,1,0,0:0:0:0:
224,224,37394,1,0,0:0:0:0:
224,224,37636,1,0,0:0:0:0:
224,160,37757,1,8,0:0:0:0:
224,224,37878,1,0,0:0:0:0:
224,224,38000,1,0,0:0:0:0:
288,160,38121,5,12,0:0:0:0:
224,160,38484,1,8,0:0:0:0:
224,224,38666,1,0,0:0:0:0:
224,160,38848,1,8,0:0:0:0:
224,224,39030,1,0,0:0:0:0:
288,224,39212,5,4,0:0:0:0:
224,160,39575,1,8,0:0:0:0:
224,224,39757,1,0,0:0:0:0:
224,224,39939,1,0,0:0:0:0:
224,160,40303,1,8,0:0:0:0:
224,160,40666,1,8,0:0:0:0:
288,224,41030,5,4,0:0:0:0:
224,224,41394,1,0,0:0:0:0:
224,224,41575,1,0,0:0:0:0:
224,160,41757,1,8,0:0:0:0:
288,224,41939,1,4,0:0:0:0:
288,160,42121,5,12,0:0:0:0:
224,160,42484,1,8,0:0:0:0:
224,224,42666,1,0,0:0:0:0:
224,224,42848,1,0,0:0:0:0:
224,160,43212,1,8,0:0:0:0:
224,224,43394,1,0,0:0:0:0:
224,224,43484,1,0,0:0:0:0:
224,160,43575,1,8,0:0:0:0:
224,224,43757,1,0,0:0:0:0:
224,224,43818,1,0,0:0:0:0:
224,224,43878,1,0,0:0:0:0:
288,160,43939,1,12,0:0:0:0:
224,224,44121,1,0,0:0:0:0:
224,160,44303,1,8,0:0:0:0:
224,224,44484,1,0,0:0:0:0:
224,160,44666,1,8,0:0:0:0:
224,224,44848,1,0,0:0:0:0:
288,224,45030,5,4,0:0:0:0:
224,160,45394,1,8,0:0:0:0:
224,224,45575,1,0,0:0:0:0:
224,224,45757,1,0,0:0:0:0:
224,160,46121,1,8,0:0:0:0:
224,160,46484,1,8,0:0:0:0:
288,224,46848,5,4,0:0:0:0:
224,224,47030,1,0,0:0:0:0:
224,160,47212,1,8,0:0:0:0:
224,224,47394,1,0,0:0:0:0:
224,160,47575,1,8,0:0:0:0:
224,224,47757,1,0,0:0:0:0:
288,224,47939,5,4,0:0:0:0:
224,160,48303,1,8,0:0:0:0:
224,224,48484,1,0,0:0:0:0:
288,160,48666,5,12,0:0:0:0:
224,160,49030,1,8,0:0:0:0:
224,160,49090,1,8,0:0:0:0:
224,160,49303,1,8,0:0:0:0:
224,224,49515,1,0,0:0:0:0:
224,224,49636,1,0,0:0:0:0:
288,160,49757,1,12,0:0:0:0:
288,224,50303,1,4,0:0:0:0:
288,160,50848,1,12,0:0:0:0:
288,224,51394,1,4,0:0:0:0:
288,160,51939,1,12,0:0:0:0:
288,160,52303,1,12,0:0:0:0:
224,224,52484,1,0,0:0:0:0:
224,224,52575,1,0,0:0:0:0:
288,160,52666,1,12,0:0:0:0:
288,224,53177,1,4,0:0:0:0:
288,160,53688,1,12,0:0:0:0:
224,160,54370,1,8,0:0:0:0:
224,224,54484,1,0,0:0:0:0:
224,224,54541,1,0,0:0:0:0:
224,224,54597,1,0,0:0:0:0:
224,160,54711,1,8,0:0:0:0:
224,160,54825,1,8,0:0:0:0:
224,160,54938,1,8,0:0:0:0:
224,224,55052,1,0,0:0:0:0:
224,224,55166,1,0,0:0:0:0:
224,224,55222,1,0,0:0:0:0:
224,224,55279,1,0,0:0:0:0:
224,224,55336,1,0,0:0:0:0:
288,160,55393,1,12,0:0:0:0:
224,224,55563,1,0,0:0:0:0:
224,224,55648,1,0,0:0:0:0:
224,224,55733,1,0,0:0:0:0:
224,224,55790,1,0,0:0:0:0:
224,224,55847,1,0,0:0:0:0:
288,160,55904,1,12,0:0:0:0:
224,224,56074,1,0,0:0:0:0:
224,224,56160,1,0,0:0:0:0:
224,224,56245,1,0,0:0:0:0:
224,224,56302,1,0,0:0:0:0:
224,224,56358,1,0,0:0:0:0:
288,160,56415,1,12,0:0:0:0:
224,160,57267,1,8,0:0:0:0:
224,160,57323,1,8,0:0:0:0:
224,160,57380,1,8,0:0:0:0:
224,224,57437,1,0,0:0:0:0:
224,224,57522,1,0,0:0:0:0:
224,160,57607,1,8,0:0:0:0:
224,160,57664,1,8,0:0:0:0:
224,224,57721,1,0,0:0:0:0:
224,224,57778,1,0,0:0:0:0:
224,224,57863,1,0,0:0:0:0:
224,160,57948,1,8,0:0:0:0:
224,160,58005,1,8,0:0:0:0:
224,160,58062,1,8,0:0:0:0:
224,224,58119,1,0,0:0:0:0:
224,224,58204,1,0,0:0:0:0:
288,160,58289,1,12,0:0:0:0:
224,224,58460,1,0,0:0:0:0:
224,224,58545,1,0,0:0:0:0:
224,160,58630,1,8,0:0:0:0:
224,224,58715,1,0,0:0:0:0:
224,160,58801,1,8,0:0:0:0:
224,160,58886,1,8,0:0:0:0:
224,224,58971,1,0,0:0:0:0:
224,160,59056,1,8,0:0:0:0:
224,224,59142,1,0,0:0:0:0:
224,224,59227,1,0,0:0:0:0:
224,160,59312,1,8,0:0:0:0:
224,224,59397,1,0,0:0:0:0:
224,224,59482,1,0,0:0:0:0:
224,224,59568,1,0,0:0:0:0:
224,160,59653,1,8,0:0:0:0:
224,224,59738,1,0,0:0:0:0:
224,160,59823,1,8,0:0:0:0:
224,160,59909,1,8,0:0:0:0:
224,224,59994,1,0,0:0:0:0:
224,160,60079,1,8,0:0:0:0:
224,224,60164,1,0,0:0:0:0:
224,224,60249,1,0,0:0:0:0:
224,160,60335,1,8,0:0:0:0:
224,224,60420,1,0,0:0:0:0:
224,224,60505,1,0,0:0:0:0:
224,224,60590,1,0,0:0:0:0:
224,160,60676,1,8,0:0:0:0:
224,224,60761,1,0,0:0:0:0:
224,160,60846,1,8,0:0:0:0:
224,160,60931,1,8,0:0:0:0:
224,224,61017,1,0,0:0:0:0:
224,160,61102,1,8,0:0:0:0:
224,160,61187,1,8,0:0:0:0:
224,160,61272,1,8,0:0:0:0:
224,224,61357,5,0,0:0:0:0:
224,224,61443,1,0,0:0:0:0:
224,160,61528,1,8,0:0:0:0:
224,160,61613,1,8,0:0:0:0:
224,224,61698,1,0,0:0:0:0:
224,224,61784,1,0,0:0:0:0:
224,160,61869,1,8,0:0:0:0:
224,224,61954,1,0,0:0:0:0:
288,160,62039,1,12,0:0:0:0:
224,224,62209,1,0,0:0:0:0:
224,224,62294,1,0,0:0:0:0:
224,160,62379,1,8,0:0:0:0:
224,224,62465,1,0,0:0:0:0:
224,160,62550,1,8,0:0:0:0:
224,160,62635,1,8,0:0:0:0:
224,224,62720,1,0,0:0:0:0:
224,160,62806,1,8,0:0:0:0:
224,224,62891,1,0,0:0:0:0:
224,224,62976,1,0,0:0:0:0:
224,160,63061,1,8,0:0:0:0:
224,224,63146,1,0,0:0:0:0:
224,224,63232,1,0,0:0:0:0:
224,224,63317,1,0,0:0:0:0:
224,160,63402,1,8,0:0:0:0:
224,224,63487,1,0,0:0:0:0:
224,160,63573,1,8,0:0:0:0:
224,224,63658,1,0,0:0:0:0:
224,160,63743,1,8,0:0:0:0:
224,160,63828,5,8,0:0:0:0:
224,224,63914,5,0,0:0:0:0:
224,224,63970,1,0,0:0:0:0:
224,224,64027,1,0,0:0:0:0:
224,160,64084,1,8,0:0:0:0:
224,160,64169,1,8,0:0:0:0:
224,224,64254,1,0,0:0:0:0:
224,224,64340,1,0,0:0:0:0:
224,160,64425,1,8,0:0:0:0:
224,160,64510,1,8,0:0:0:0:
224,224,64595,1,0,0:0:0:0:
224,224,64652,1,0,0:0:0:0:
224,224,64709,1,0,0:0:0:0:
288,160,64766,1,12,0:0:0:0:
224,224,64936,1,0,0:0:0:0:
224,224,65021,1,0,0:0:0:0:
224,160,65106,1,8,0:0:0:0:
224,224,65192,1,0,0:0:0:0:
224,160,65277,1,8,0:0:0:0:
224,160,65362,1,8,0:0:0:0:
224,224,65447,1,0,0:0:0:0:
224,160,65533,1,8,0:0:0:0:
224,224,65618,1,0,0:0:0:0:
224,224,65703,1,0,0:0:0:0:
224,160,65788,1,8,0:0:0:0:
224,224,65873,1,0,0:0:0:0:
224,224,65959,1,0,0:0:0:0:
224,224,66044,1,0,0:0:0:0:
224,160,66129,1,8,0:0:0:0:
224,224,66214,1,0,0:0:0:0:
224,160,66300,1,8,0:0:0:0:
224,160,66385,1,8,0:0:0:0:
224,224,66470,1,0,0:0:0:0:
224,160,66555,1,8,0:0:0:0:
224,224,66641,1,0,0:0:0:0:
224,224,66726,1,0,0:0:0:0:
224,160,66811,1,8,0:0:0:0:
224,224,66896,1,0,0:0:0:0:
224,224,66981,1,0,0:0:0:0:
224,224,67067,1,0,0:0:0:0:
224,160,67152,1,8,0:0:0:0:
224,224,67237,1,0,0:0:0:0:
224,160,67322,1,8,0:0:0:0:
224,160,67408,1,8,0:0:0:0:
224,224,67493,1,0,0:0:0:0:
224,160,67578,1,8,0:0:0:0:
224,160,67663,1,8,0:0:0:0:
224,160,67748,1,8,0:0:0:0:
224,224,67834,5,0,0:0:0:0:
224,224,67919,1,0,0:0:0:0:
224,160,68004,1,8,0:0:0:0:
224,160,68089,1,8,0:0:0:0:
224,224,68175,1,0,0:0:0:0:
224,224,68260,1,0,0:0:0:0:
224,160,68345,1,8,0:0:0:0:
224,224,68430,1,0,0:0:0:0:
288,160,68516,1,12,0:0:0:0:
224,224,68686,1,0,0:0:0:0:
224,224,68771,1,0,0:0:0:0:
224,160,68856,1,8,0:0:0:0:
224,224,68942,1,0,0:0:0:0:
224,160,69027,1,8,0:0:0:0:
224,160,69112,1,8,0:0:0:0:
224,224,69197,1,0,0:0:0:0:
224,160,69283,1,8,0:0:0:0:
224,224,69368,1,0,0:0:0:0:
224,224,69453,1,0,0:0:0:0:
224,160,69538,1,8,0:0:0:0:
224,224,69623,1,0,0:0:0:0:
224,224,69709,1,0,0:0:0:0:
224,224,69794,1,0,0:0:0:0:
224,160,69879,1,8,0:0:0:0:
224,224,69964,1,0,0:0:0:0:
224,160,70050,1,8,0:0:0:0:
224,160,70135,1,8,0:0:0:0:
224,224,70220,1,0,0:0:0:0:
224,224,70305,5,0,0:0:0:0:
224,224,70391,5,0,0:0:0:0:
224,160,70476,1,8,0:0:0:0:
224,160,70561,1,8,0:0:0:0:
224,160,70646,1,8,0:0:0:0:
224,224,70731,1,0,0:0:0:0:
224,224,70817,1,0,0:0:0:0:
224,160,70902,1,8,0:0:0:0:
224,160,70987,1,8,0:0:0:0:
224,224,71072,1,0,0:0:0:0:
224,224,71129,1,0,0:0:0:0:
224,224,71186,1,0,0:0:0:0:
288,160,71243,1,12,0:0:0:0:
224,160,71584,1,8,0:0:0:0:
224,160,71669,1,8,0:0:0:0:
224,224,71754,1,0,0:0:0:0:
224,224,71839,1,0,0:0:0:0:
224,160,71925,1,8,0:0:0:0:
224,160,72010,1,8,0:0:0:0:
224,224,72095,1,0,0:0:0:0:
224,224,72152,1,0,0:0:0:0:
224,224,72209,1,0,0:0:0:0:
288,160,72266,1,12,0:0:0:0:
224,160,72606,1,8,0:0:0:0:
224,160,72692,1,8,0:0:0:0:
224,224,72777,1,0,0:0:0:0:
224,224,72862,1,0,0:0:0:0:
224,160,72947,1,8,0:0:0:0:
224,160,73033,1,8,0:0:0:0:
224,224,73118,1,0,0:0:0:0:
224,224,73175,1,0,0:0:0:0:
224,224,73231,1,0,0:0:0:0:
288,160,73288,1,12,0:0:0:0:
224,160,73629,1,8,0:0:0:0:
224,160,73714,1,8,0:0:0:0:
224,224,73799,1,0,0:0:0:0:
224,224,73884,1,0,0:0:0:0:
224,160,73969,1,8,0:0:0:0:
224,160,74055,1,8,0:0:0:0:
224,224,74140,1,0,0:0:0:0:
224,224,74197,1,0,0:0:0:0:
224,224,74254,1,0,0:0:0:0:
288,160,74310,1,12,0:0:0:0:
288,160,74992,1,12,0:0:0:0:
224,224,75162,1,0,0:0:0:0:
224,224,75247,1,0,0:0:0:0:
224,160,75332,1,8,0:0:0:0:
224,224,75418,1,0,0:0:0:0:
224,160,75503,1,8,0:0:0:0:
224,160,75588,1,8,0:0:0:0:
224,224,75673,1,0,0:0:0:0:
224,224,75844,1,0,0:0:0:0:
224,224,75929,1,0,0:0:0:0:
224,160,76014,1,8,0:0:0:0:
224,224,76185,1,0,0:0:0:0:
224,160,76270,1,8,0:0:0:0:
224,160,76355,1,8,0:0:0:0:
224,224,76440,1,0,0:0:0:0:
224,160,76526,1,8,0:0:0:0:
224,160,76611,1,8,0:0:0:0:
224,224,76696,1,0,0:0:0:0:
224,224,76867,1,0,0:0:0:0:
224,160,76952,1,8,0:0:0:0:
224,160,77037,1,8,0:0:0:0:
224,224,77207,1,0,0:0:0:0:
224,224,77293,1,0,0:0:0:0:
224,160,77378,1,8,0:0:0:0:
224,224,77463,1,0,0:0:0:0:
224,160,77548,1,8,0:0:0:0:
224,160,77634,1,8,0:0:0:0:
224,224,77719,1,0,0:0:0:0:
224,160,77889,1,8,0:0:0:0:
224,160,77974,1,8,0:0:0:0:
224,224,78060,5,0,0:0:0:0:
224,160,78230,1,8,0:0:0:0:
224,160,78315,1,8,0:0:0:0:
224,224,78401,1,0,0:0:0:0:
224,224,78486,1,0,0:0:0:0:
224,160,78571,1,8,0:0:0:0:
288,160,78742,1,12,0:0:0:0:
224,224,78912,1,0,0:0:0:0:
224,224,78997,1,0,0:0:0:0:
224,160,79082,1,8,0:0:0:0:
224,224,79168,1,0,0:0:0:0:
224,160,79253,1,8,0:0:0:0:
224,160,79338,1,8,0:0:0:0:
224,224,79423,1,0,0:0:0:0:
224,224,79594,1,0,0:0:0:0:
224,224,79679,1,0,0:0:0:0:
224,160,79764,1,8,0:0:0:0:
224,224,79935,1,0,0:0:0:0:
224,224,80020,1,0,0:0:0:0:
224,160,80105,1,8,0:0:0:0:
224,224,80190,1,0,0:0:0:0:
224,160,80276,1,8,0:0:0:0:
224,224,80361,1,0,0:0:0:0:
224,160,80446,1,8,0:0:0:0:
224,224,80617,5,0,0:0:0:0:
224,160,80702,1,8,0:0:0:0:
224,160,80787,1,8,0:0:0:0:
224,224,80957,1,0,0:0:0:0:
224,224,81043,1,0,0:0:0:0:
224,160,81128,1,8,0:0:0:0:
224,160,81213,1,8,0:0:0:0:
224,224,81298,1,0,0:0:0:0:
224,224,81355,1,0,0:0:0:0:
224,224,81412,1,0,0:0:0:0:
288,160,81469,1,12,0:0:0:0:
224,224,81639,1,0,0:0:0:0:
224,224,81724,1,0,0:0:0:0:
224,160,81809,1,8,0:0:0:0:
224,224,81895,1,0,0:0:0:0:
224,160,81980,1,8,0:0:0:0:
224,160,82065,1,8,0:0:0:0:
224,224,82150,1,0,0:0:0:0:
224,224,82321,1,0,0:0:0:0:
224,224,82406,1,0,0:0:0:0:
224,160,82491,1,8,0:0:0:0:
224,224,82662,1,0,0:0:0:0:
224,160,82747,1,8,0:0:0:0:
224,160,82832,1,8,0:0:0:0:
224,224,82917,1,0,0:0:0:0:
224,160,83003,1,8,0:0:0:0:
224,160,83088,1,8,0:0:0:0:
224,224,83173,1,0,0:0:0:0:
224,224,83344,1,0,0:0:0:0:
224,160,83429,1,8,0:0:0:0:
224,160,83514,1,8,0:0:0:0:
224,224,83684,1,0,0:0:0:0:
224,224,83770,1,0,0:0:0:0:
224,160,83855,1,8,0:0:0:0:
224,224,83940,1,0,0:0:0:0:
224,160,84025,1,8,0:0:0:0:
224,160,84111,1,8,0:0:0:0:
224,224,84196,1,0,0:0:0:0:
224,160,84366,1,8,0:0:0:0:
224,160,84451,1,8,0:0:0:0:
224,224,84537,5,0,0:0:0:0:
224,160,84707,1,8,0:0:0:0:
224,160,84792,1,8,0:0:0:0:
224,224,84878,1,0,0:0:0:0:
224,224,84963,1,0,0:0:0:0:
224,160,85048,1,8,0:0:0:0:
288,160,85219,1,12,0:0:0:0:
224,224,85389,1,0,0:0:0:0:
224,224,85474,1,0,0:0:0:0:
224,160,85559,1,8,0:0:0:0:
224,224,85645,1,0,0:0:0:0:
224,160,85730,1,8,0:0:0:0:
224,160,85815,1,8,0:0:0:0:
224,224,85900,1,0,0:0:0:0:
224,224,86071,1,0,0:0:0:0:
224,160,86156,1,8,0:0:0:0:
224,160,86241,1,8,0:0:0:0:
224,224,86412,1,0,0:0:0:0:
224,224,86497,1,0,0:0:0:0:
224,160,86582,1,8,0:0:0:0:
224,224,86667,1,0,0:0:0:0:
224,160,86753,1,8,0:0:0:0:
224,160,86838,1,8,0:0:0:0:
224,160,86923,1,8,0:0:0:0:
224,224,87094,1,0,0:0:0:0:
224,224,87179,5,0,0:0:0:0:
224,160,87264,1,8,0:0:0:0:
224,160,87349,1,8,0:0:0:0:
224,224,87434,1,0,0:0:0:0:
224,224,87520,1,0,0:0:0:0:
224,160,87605,1,8,0:0:0:0:
224,160,87690,1,8,0:0:0:0:
224,224,87775,1,0,0:0:0:0:
224,224,87832,1,0,0:0:0:0:
224,224,87889,1,0,0:0:0:0:
288,160,87946,1,12,0:0:0:0:
224,160,88287,1,8,0:0:0:0:
224,160,88372,1,8,0:0:0:0:
224,224,88457,1,0,0:0:0:0:
224,224,88542,1,0,0:0:0:0:
224,160,88628,1,8,0:0:0:0:
224,160,88713,1,8,0:0:0:0:
224,224,88798,1,0,0:0:0:0:
224,224,88855,1,0,0:0:0:0:
224,224,88912,1,0,0:0:0:0:
288,160,88969,1,12,0:0:0:0:
224,160,89309,1,8,0:0:0:0:
224,160,89395,1,8,0:0:0:0:
224,224,89480,1,0,0:0:0:0:
224,224,89565,1,0,0:0:0:0:
224,160,89650,1,8,0:0:0:0:
224,160,89736,1,8,0:0:0:0:
224,224,89821,1,0,0:0:0:0:
224,224,89878,1,0,0:0:0:0:
224,224,89934,1,0,0:0:0:0:
288,160,89991,1,12,0:0:0:0:
224,160,90332,1,8,0:0:0:0:
224,160,90417,1,8,0:0:0:0:
224,224,90503,1,0,0:0:0:0:
224,224,90588,1,0,0:0:0:0:
224,160,90673,1,8,0:0:0:0:
224,160,90758,1,8,0:0:0:0:
224,224,90844,1,0,0:0:0:0:
224,224,90900,1,0,0:0:0:0:
224,224,90957,1,0,0:0:0:0:
288,160,91014,1,12,0:0:0:0:
224,160,91355,5,8,0:0:0:0:
224,160,91696,5,8,0:0:0:0:
224,224,91781,1,0,0:0:0:0:
224,224,91866,1,0,0:0:0:0:
224,224,91951,1,0,0:0:0:0:
224,160,92036,5,8,0:0:0:0:
224,224,92122,1,0,0:0:0:0:
224,224,92207,1,0,0:0:0:0:
224,224,92292,1,0,0:0:0:0:
224,160,92377,5,8,0:0:0:0:
224,160,92463,5,8,0:0:0:0:
224,224,92548,1,0,0:0:0:0:
224,224,92633,1,0,0:0:0:0:
224,160,92718,5,8,0:0:0:0:
224,224,92803,1,0,0:0:0:0:
224,160,92889,1,8,0:0:0:0:
224,224,92974,1,0,0:0:0:0:
224,160,93059,5,8,0:0:0:0:
224,224,93144,1,0,0:0:0:0:
224,224,93230,1,0,0:0:0:0:
224,224,93315,1,0,0:0:0:0:
224,160,93400,5,8,0:0:0:0:
224,224,93485,1,0,0:0:0:0:
224,224,93571,1,0,0:0:0:0:
224,224,93656,1,0,0:0:0:0:
224,160,93741,5,8,0:0:0:0:
224,160,93826,5,8,0:0:0:0:
224,224,93911,1,0,0:0:0:0:
224,224,93997,1,0,0:0:0:0:
224,160,94082,1,8,0:0:0:0:
224,224,94167,1,0,0:0:0:0:
224,160,94252,5,8,0:0:0:0:
224,224,94338,1,0,0:0:0:0:
224,224,94423,1,0,0:0:0:0:
224,224,94508,1,0,0:0:0:0:
224,160,94593,5,8,0:0:0:0:
224,224,94678,1,0,0:0:0:0:
224,224,94764,1,0,0:0:0:0:
224,224,94849,1,0,0:0:0:0:
224,160,94934,5,8,0:0:0:0:
224,224,95019,1,0,0:0:0:0:
224,160,95105,5,8,0:0:0:0:
224,160,95190,5,8,0:0:0:0:
224,224,95275,1,0,0:0:0:0:
224,224,95360,1,0,0:0:0:0:
224,160,95446,1,8,0:0:0:0:
224,224,95531,1,0,0:0:0:0:
224,160,95616,5,8,0:0:0:0:
224,224,95701,1,0,0:0:0:0:
224,224,95786,1,0,0:0:0:0:
224,224,95872,1,0,0:0:0:0:
224,160,95957,5,8,0:0:0:0:
224,224,96042,1,0,0:0:0:0:
224,224,96127,1,0,0:0:0:0:
224,224,96213,1,0,0:0:0:0:
224,160,96298,1,8,0:0:0:0:
224,224,96383,1,0,0:0:0:0:
224,160,96468,5,8,0:0:0:0:
224,160,96553,5,8,0:0:0:0:
224,224,96639,1,0,0:0:0:0:
224,224,96724,1,0,0:0:0:0:
224,160,96809,5,8,0:0:0:0:
224,224,96894,1,0,0:0:0:0:
224,160,96980,5,8,0:0:0:0:
224,160,97065,5,8,0:0:0:0:
224,160,97150,5,8,0:0:0:0:
224,224,97235,1,0,0:0:0:0:
224,224,97321,1,0,0:0:0:0:
224,224,97406,1,0,0:0:0:0:
224,160,97491,5,8,0:0:0:0:
224,224,97576,1,0,0:0:0:0:
224,224,97661,1,0,0:0:0:0:
224,224,97747,1,0,0:0:0:0:
224,160,97832,5,8,0:0:0:0:
224,160,97917,5,8,0:0:0:0:
224,224,98002,1,0,0:0:0:0:
224,224,98088,1,0,0:0:0:0:
224,160,98173,5,8,0:0:0:0:
224,224,98258,1,0,0:0:0:0:
224,160,98343,5,8,0:0:0:0:
224,224,98428,1,0,0:0:0:0:
224,160,98514,5,8,0:0:0:0:
224,224,98599,1,0,0:0:0:0:
224,224,98684,1,0,0:0:0:0:
224,224,98769,1,0,0:0:0:0:
224,160,98855,5,8,0:0:0:0:
224,224,98940,1,0,0:0:0:0:
224,224,99025,1,0,0:0:0:0:
224,224,99110,1,0,0:0:0:0:
224,160,99196,5,8,0:0:0:0:
224,160,99281,5,8,0:0:0:0:
224,224,99366,1,0,0:0:0:0:
224,224,99451,1,0,0:0:0:0:
224,160,99536,5,8,0:0:0:0:
224,224,99622,1,0,0:0:0:0:
224,160,99707,5,8,0:0:0:0:
224,160,99792,5,8,0:0:0:0:
224,160,99877,5,8,0:0:0:0:
224,224,99963,1,0,0:0:0:0:
224,224,100048,1,0,0:0:0:0:
224,224,100133,1,0,0:0:0:0:
224,160,100218,5,8,0:0:0:0:
224,224,100303,1,0,0:0:0:0:
224,224,100389,1,0,0:0:0:0:
224,224,100474,1,0,0:0:0:0:
224,160,100559,5,8,0:0:0:0:
224,160,100644,5,8,0:0:0:0:
224,224,100730,1,0,0:0:0:0:
224,224,100815,1,0,0:0:0:0:
224,160,100900,5,8,0:0:0:0:
224,224,100985,1,0,0:0:0:0:
224,224,101071,5,0,0:0:0:0:
224,224,101156,1,0,0:0:0:0:
224,160,101241,5,8,0:0:0:0:
224,224,101326,1,0,0:0:0:0:
224,160,101411,1,8,0:0:0:0:
224,160,101468,1,8,0:0:0:0:
224,160,101525,1,8,0:0:0:0:
224,224,101582,1,0,0:0:0:0:
224,224,101667,1,0,0:0:0:0:
224,160,101752,1,8,0:0:0:0:
224,160,101809,1,8,0:0:0:0:
224,224,101866,1,0,0:0:0:0:
224,224,101923,1,0,0:0:0:0:
224,224,102008,1,0,0:0:0:0:
224,160,102093,1,8,0:0:0:0:
224,160,102150,1,8,0:0:0:0:
224,160,102207,1,8,0:0:0:0:
224,224,102264,1,0,0:0:0:0:
224,224,102349,1,0,0:0:0:0:
224,160,102434,1,8,0:0:0:0:
224,224,102491,1,0,0:0:0:0:
224,224,102548,1,0,0:0:0:0:
224,160,102605,5,8,0:0:0:0:
224,224,102690,5,0,0:0:0:0:
224,224,102775,1,0,0:0:0:0:
224,224,102860,1,0,0:0:0:0:
224,160,102946,1,8,0:0:0:0:
224,224,103031,1,0,0:0:0:0:
224,160,103116,1,8,0:0:0:0:
224,224,103201,1,0,0:0:0:0:
288,160,103286,1,12,0:0:0:0:
224,224,103457,1,0,0:0:0:0:
224,224,103542,1,0,0:0:0:0:
224,160,103627,1,8,0:0:0:0:
224,224,103713,1,0,0:0:0:0:
224,160,103798,1,8,0:0:0:0:
224,224,103883,1,0,0:0:0:0:
224,224,103968,1,0,0:0:0:0:
224,224,104053,1,0,0:0:0:0:
224,160,104139,1,8,0:0:0:0:
224,224,104224,1,0,0:0:0:0:
224,160,104309,1,8,0:0:0:0:
224,224,104394,1,0,0:0:0:0:
224,160,104480,1,8,0:0:0:0:
224,224,104565,1,0,0:0:0:0:
224,160,104650,1,8,0:0:0:0:
224,224,104735,1,8,0:0:0:0:
224,224,104821,1,0,0:0:0:0:
224,224,104906,1,8,0:0:0:0:
224,224,104991,1,8,0:0:0:0:
224,224,105076,1,0,0:0:0:0:
224,224,105161,1,0,0:0:0:0:
224,224,105247,1,0,0:0:0:0:
224,160,105332,1,8,0:0:0:0:
224,224,105417,1,0,0:0:0:0:
224,224,105502,1,0,0:0:0:0:
224,160,105588,1,8,0:0:0:0:
224,160,105673,1,8,0:0:0:0:
224,224,105758,1,0,0:0:0:0:
224,224,105843,1,0,0:0:0:0:
224,224,105900,1,0,0:0:0:0:
224,224,105957,1,0,0:0:0:0:
288,160,106014,1,12,0:0:0:0:
224,160,106184,1,8,0:0:0:0:
224,160,106269,1,8,0:0:0:0:
224,224,106355,1,0,0:0:0:0:
224,224,106440,1,0,0:0:0:0:
224,160,106525,1,8,0:0:0:0:
224,224,106610,1,0,0:0:0:0:
224,224,106696,1,0,0:0:0:0:
224,224,106781,1,0,0:0:0:0:
224,160,106866,1,8,0:0:0:0:
224,224,106951,1,0,0:0:0:0:
224,224,107036,1,0,0:0:0:0:
224,224,107122,1,0,0:0:0:0:
224,160,107207,1,8,0:0:0:0:
224,224,107292,1,0,0:0:0:0:
224,160,107377,1,8,0:0:0:0:
224,160,107463,1,8,0:0:0:0:
224,224,107548,1,0,0:0:0:0:
224,224,107633,1,0,0:0:0:0:
224,160,107718,1,8,0:0:0:0:
224,224,107803,1,0,0:0:0:0:
224,160,107889,1,8,0:0:0:0:
224,160,107974,1,8,0:0:0:0:
224,160,108059,1,8,0:0:0:0:
224,224,108144,1,0,0:0:0:0:
224,224,108230,1,0,0:0:0:0:
224,224,108315,1,0,0:0:0:0:
224,160,108400,1,8,0:0:0:0:
224,224,108485,1,0,0:0:0:0:
224,224,108571,1,0,0:0:0:0:
224,224,108627,1,0,0:0:0:0:
224,224,108684,1,0,0:0:0:0:
288,160,108741,1,12,0:0:0:0:
224,224,108911,1,0,0:0:0:0:
224,224,108997,1,0,0:0:0:0:
224,160,109082,1,8,0:0:0:0:
224,224,109167,1,0,0:0:0:0:
224,160,109252,1,8,0:0:0:0:
224,224,109338,1,0,0:0:0:0:
224,224,109423,1,0,0:0:0:0:
224,224,109508,1,0,0:0:0:0:
224,160,109593,1,8,0:0:0:0:
224,224,109678,1,0,0:0:0:0:
224,160,109764,1,8,0:0:0:0:
224,160,109849,1,8,0:0:0:0:
224,224,109934,1,0,0:0:0:0:
224,224,110019,1,0,0:0:0:0:
224,160,110105,1,8,0:0:0:0:
224,160,110190,1,8,0:0:0:0:
224,224,110275,1,0,0:0:0:0:
224,160,110360,1,8,0:0:0:0:
224,160,110446,1,8,0:0:0:0:
224,224,110531,1,0,0:0:0:0:
224,224,110616,1,0,0:0:0:0:
224,224,110701,1,0,0:0:0:0:
224,160,110786,1,8,0:0:0:0:
224,160,110872,1,8,0:0:0:0:
224,224,110957,1,0,0:0:0:0:
224,224,111042,1,0,0:0:0:0:
224,160,111127,1,8,0:0:0:0:
224,160,111213,1,8,0:0:0:0:
224,224,111298,1,0,0:0:0:0:
224,224,111355,1,0,0:0:0:0:
224,224,111411,1,0,0:0:0:0:
288,160,111468,1,12,0:0:0:0:
224,224,111639,1,0,0:0:0:0:
224,160,111724,1,8,0:0:0:0:
224,160,111809,1,8,0:0:0:0:
224,224,111894,1,0,0:0:0:0:
224,160,111980,1,8,0:0:0:0:
224,224,112065,1,0,0:0:0:0:
288,160,112150,1,12,0:0:0:0:
224,160,112321,1,8,0:0:0:0:
224,160,112377,1,8,0:0:0:0:
224,160,112434,1,8,0:0:0:0:
224,224,112491,1,0,0:0:0:0:
224,160,112576,1,8,0:0:0:0:
224,160,112661,1,8,0:0:0:0:
224,224,112747,1,0,0:0:0:0:
224,160,112832,1,8,0:0:0:0:
224,224,112917,1,0,0:0:0:0:
224,224,113002,1,0,0:0:0:0:
224,224,113088,1,0,0:0:0:0:
224,160,113173,1,8,0:0:0:0:
224,160,113258,1,8,0:0:0:0:
224,224,113343,1,0,0:0:0:0:
224,224,113400,1,0,0:0:0:0:
224,224,113457,1,0,0:0:0:0:
288,160,113514,1,12,0:0:0:0:
224,224,113684,1,0,0:0:0:0:
288,224,113855,1,4,0:0:0:0:
224,224,114025,1,0,0:0:0:0:
224,224,114110,1,0,0:0:0:0:
224,160,114196,1,8,0:0:0:0:
224,224,114281,1,0,0:0:0:0:
224,224,114366,1,0,0:0:0:0:
224,224,114451,1,0,0:0:0:0:
224,160,114536,1,8,0:0:0:0:
224,160,114622,1,8,0:0:0:0:
224,224,114707,1,0,0:0:0:0:
224,224,114792,1,0,0:0:0:0:
224,160,114877,1,8,0:0:0:0:
224,224,115048,1,0,0:0:0:0:
224,224,115133,1,0,0:0:0:0:
224,160,115218,1,8,0:0:0:0:
224,224,115389,1,0,0:0:0:0:
224,224,115431,1,0,0:0:0:0:
224,160,115559,1,8,0:0:0:0:
224,160,115602,1,8,0:0:0:0:
224,224,115730,1,0,0:0:0:0:
224,224,115772,1,0,0:0:0:0:
224,160,115900,1,8,0:0:0:0:
224,160,115943,1,8,0:0:0:0:
224,224,116071,1,0,0:0:0:0:
224,224,116113,1,0,0:0:0:0:
288,160,116241,1,12,0:0:0:0:
224,224,116411,1,0,0:0:0:0:
224,224,116497,1,0,0:0:0:0:
224,160,116582,1,8,0:0:0:0:
224,224,116752,1,0,0:0:0:0:
224,224,116838,1,0,0:0:0:0:
224,160,116923,1,8,0:0:0:0:
224,224,117008,1,0,0:0:0:0:
224,224,117093,1,0,0:0:0:0:
224,224,117178,1,0,0:0:0:0:
224,160,117264,1,8,0:0:0:0:
224,160,117349,1,8,0:0:0:0:
224,224,117434,1,0,0:0:0:0:
224,224,117519,1,0,0:0:0:0:
224,160,117605,1,8,0:0:0:0:
224,224,117775,1,0,0:0:0:0:
224,224,117860,1,0,0:0:0:0:
224,160,117946,1,8,0:0:0:0:
224,224,118116,1,0,0:0:0:0:
224,224,118159,1,0,0:0:0:0:
224,160,118286,1,8,0:0:0:0:
224,160,118329,1,8,0:0:0:0:
224,160,118457,1,8,0:0:0:0:
224,160,118500,1,8,0:0:0:0:
224,224,118628,1,0,0:0:0:0:
224,224,118670,1,0,0:0:0:0:
224,224,118798,1,0,0:0:0:0:
224,224,118840,1,0,0:0:0:0:
288,160,118968,1,12,0:0:0:0:
224,224,119139,1,0,0:0:0:0:
224,224,119224,1,0,0:0:0:0:
224,160,119309,1,8,0:0:0:0:
224,224,119480,1,0,0:0:0:0:
224,224,119565,1,0,0:0:0:0:
224,160,119650,1,8,0:0:0:0:
224,224,119735,1,0,0:0:0:0:
224,224,119821,1,0,0:0:0:0:
224,224,119906,1,0,0:0:0:0:
224,160,119991,1,8,0:0:0:0:
224,160,120076,1,8,0:0:0:0:
224,224,120161,1,0,0:0:0:0:
224,224,120247,1,0,0:0:0:0:
224,160,120332,1,8,0:0:0:0:
224,224,120502,1,0,0:0:0:0:
224,224,120588,1,0,0:0:0:0:
224,160,120673,1,8,0:0:0:0:
224,224,120843,1,0,0:0:0:0:
224,224,120886,1,0,0:0:0:0:
224,160,121014,1,8,0:0:0:0:
224,160,121056,1,8,0:0:0:0:
224,224,121184,1,0,0:0:0:0:
224,224,121227,1,0,0:0:0:0:
224,160,121355,1,8,0:0:0:0:
224,160,121397,1,8,0:0:0:0:
224,224,121525,1,0,0:0:0:0:
224,224,121568,1,0,0:0:0:0:
288,160,121696,1,12,0:0:0:0:
224,224,121866,1,0,0:0:0:0:
224,224,121951,1,0,0:0:0:0:
224,160,122036,1,8,0:0:0:0:
224,224,122207,1,0,0:0:0:0:
224,224,122292,1,0,0:0:0:0:
224,160,122377,1,8,0:0:0:0:
224,224,122463,1,0,0:0:0:0:
224,224,122548,1,0,0:0:0:0:
224,160,122633,1,8,0:0:0:0:
224,160,122718,1,8,0:0:0:0:
224,224,122803,1,0,0:0:0:0:
224,160,122889,1,8,0:0:0:0:
224,160,122946,1,8,0:0:0:0:
224,160,123002,1,8,0:0:0:0:
224,224,123059,1,0,0:0:0:0:
224,224,123144,1,0,0:0:0:0:
224,160,123230,1,8,0:0:0:0:
224,224,123315,1,0,0:0:0:0:
224,160,123400,1,8,0:0:0:0:
224,160,123485,1,8,0:0:0:0:
224,224,123571,1,0,0:0:0:0:
224,224,123656,1,0,0:0:0:0:
224,160,123741,1,8,0:0:0:0:
224,224,123826,1,0,0:0:0:0:
224,160,123911,1,8,0:0:0:0:
224,224,123997,1,0,0:0:0:0:
224,160,124082,1,8,0:0:0:0:
224,160,124167,1,8,0:0:0:0:
224,224,124252,1,0,0:0:0:0:
224,224,124338,1,0,0:0:0:0:
288,160,124423,1,12,0:0:0:0:
224,224,124593,1,0,0:0:0:0:
224,224,124678,1,0,0:0:0:0:
224,160,124764,1,8,0:0:0:0:
224,224,124849,1,0,0:0:0:0:
224,224,124934,1,0,0:0:0:0:
224,224,125019,1,0,0:0:0:0:
224,160,125105,1,8,0:0:0:0:
224,160,125190,1,8,0:0:0:0:
224,224,125275,1,0,0:0:0:0:
224,224,125360,1,0,0:0:0:0:
224,160,125446,1,8,0:0:0:0:
224,224,125531,1,0,0:0:0:0:
224,224,125616,1,0,0:0:0:0:
224,224,125701,1,0,0:0:0:0:
224,160,125786,1,8,0:0:0:0:
224,224,125872,1,0,0:0:0:0:
224,224,125957,1,0,0:0:0:0:
224,224,126042,1,0,0:0:0:0:
224,160,126127,1,8,0:0:0:0:
224,224,126213,1,0,0:0:0:0:
224,160,126298,1,8,0:0:0:0:
224,160,126383,1,8,0:0:0:0:
224,224,126468,1,0,0:0:0:0:
224,224,126553,1,0,0:0:0:0:
224,224,126639,1,0,0:0:0:0:
224,224,126724,1,0,0:0:0:0:
224,160,126809,1,8,0:0:0:0:
224,224,126894,1,0,0:0:0:0:
224,224,126980,1,0,0:0:0:0:
224,224,127065,1,0,0:0:0:0:
224,160,127150,1,8,0:0:0:0:
224,160,127235,1,8,0:0:0:0:
224,224,127321,1,0,0:0:0:0:
224,224,127406,1,0,0:0:0:0:
224,160,127491,1,8,0:0:0:0:
224,224,127548,1,0,0:0:0:0:
224,224,127605,1,0,0:0:0:0:
224,160,127661,1,8,0:0:0:0:
224,224,127747,1,0,0:0:0:0:
288,160,127832,1,12,0:0:0:0:
224,224,128002,1,0,0:0:0:0:
224,224,128088,1,0,0:0:0:0:
224,160,128173,1,8,0:0:0:0:
224,224,128258,1,0,0:0:0:0:
224,160,128343,1,8,0:0:0:0:
224,224,128428,1,0,0:0:0:0:
224,160,128514,1,8,0:0:0:0:
224,224,128599,1,0,0:0:0:0:
224,224,128684,1,0,0:0:0:0:
224,224,128769,1,0,0:0:0:0:
224,160,128855,1,8,0:0:0:0:
224,224,128940,1,0,0:0:0:0:
224,224,129025,1,0,0:0:0:0:
224,224,129110,1,0,0:0:0:0:
224,160,129196,1,8,0:0:0:0:
224,160,129281,1,8,0:0:0:0:
224,224,129366,1,0,0:0:0:0:
224,224,129451,1,0,0:0:0:0:
224,160,129536,1,8,0:0:0:0:
224,160,129622,1,8,0:0:0:0:
224,160,129707,1,8,0:0:0:0:
224,224,129792,1,0,0:0:0:0:
224,224,129877,1,0,0:0:0:0:
224,224,129963,1,0,0:0:0:0:
224,160,130048,1,8,0:0:0:0:
224,224,130133,1,0,0:0:0:0:
224,160,130218,1,8,0:0:0:0:
224,224,130303,1,0,0:0:0:0:
224,160,130389,1,8,0:0:0:0:
224,224,130474,1,0,0:0:0:0:
288,160,130559,1,12,0:0:0:0:
224,160,130730,1,8,0:0:0:0:
224,224,130815,1,0,0:0:0:0:
224,224,130900,1,0,0:0:0:0:
224,224,130985,1,0,0:0:0:0:
224,160,131071,1,8,0:0:0:0:
224,224,131156,1,0,0:0:0:0:
224,224,131241,1,0,0:0:0:0:
224,224,131326,1,0,0:0:0:0:
224,160,131411,1,8,0:0:0:0:
224,224,131497,1,0,0:0:0:0:
224,224,131582,1,0,0:0:0:0:
224,224,131667,1,0,0:0:0:0:
224,160,131752,1,8,0:0:0:0:
224,224,131838,1,0,0:0:0:0:
224,160,131923,1,8,0:0:0:0:
224,160,132008,1,8,0:0:0:0:
224,224,132093,1,0,0:0:0:0:
224,224,132178,1,0,0:0:0:0:
224,160,132264,1,8,0:0:0:0:
224,224,132349,1,0,0:0:0:0:
224,160,132434,1,8,0:0:0:0:
224,224,132519,1,0,0:0:0:0:
288,160,132605,1,12,0:0:0:0:
224,224,132775,1,0,0:0:0:0:
224,224,132860,1,0,0:0:0:0:
224,160,132946,1,8,0:0:0:0:
224,224,133031,1,0,0:0:0:0:
224,224,133116,1,0,0:0:0:0:
224,224,133201,1,0,0:0:0:0:
224,160,133286,1,8,0:0:0:0:
224,160,133372,1,8,0:0:0:0:
224,224,133457,1,0,0:0:0:0:
224,224,133542,1,0,0:0:0:0:
224,160,133627,1,8,0:0:0:0:
224,224,133713,1,0,0:0:0:0:
224,160,133798,1,8,0:0:0:0:
224,224,133883,1,0,0:0:0:0:
288,160,133968,1,12,0:0:0:0:
224,160,134139,1,8,0:0:0:0:
224,160,134196,1,8,0:0:0:0:
224,160,134252,1,8,0:0:0:0:
224,224,134309,1,0,0:0:0:0:
224,224,134394,1,0,0:0:0:0:
224,160,134480,1,8,0:0:0:0:
224,224,134565,1,0,0:0:0:0:
224,160,134650,1,8,0:0:0:0:
224,160,134735,1,8,0:0:0:0:
224,224,134821,1,0,0:0:0:0:
224,224,134906,1,0,0:0:0:0:
224,160,134991,1,8,0:0:0:0:
224,160,135076,1,8,0:0:0:0:
224,224,135162,1,0,0:0:0:0:
224,224,135218,1,0,0:0:0:0:
224,224,135275,1,0,0:0:0:0:
288,160,135332,1,12,0:0:0:0:
224,160,135502,1,8,0:0:0:0:
224,224,135588,1,0,0:0:0:0:
224,160,135673,1,8,0:0:0:0:
224,160,135758,1,8,0:0:0:0:
224,224,135843,1,0,0:0:0:0:
224,224,135900,1,0,0:0:0:0:
224,224,135957,1,0,0:0:0:0:
224,160,136014,1,8,0:0:0:0:
224,224,136099,1,0,0:0:0:0:
224,224,136184,1,0,0:0:0:0:
224,224,136269,1,0,0:0:0:0:
224,160,136355,1,8,0:0:0:0:
224,224,136440,1,0,0:0:0:0:
224,160,136525,1,8,0:0:0:0:
224,224,136610,1,0,0:0:0:0:
224,224,136696,1,0,0:0:0:0:
224,224,136781,1,0,0:0:0:0:
224,160,136866,1,8,0:0:0:0:
224,224,136951,1,0,0:0:0:0:
224,224,137036,1,0,0:0:0:0:
224,224,137122,1,0,0:0:0:0:
224,160,137207,1,8,0:0:0:0:
224,224,137292,1,0,0:0:0:0:
224,160,137377,1,8,0:0:0:0:
224,224,137463,1,0,0:0:0:0:
224,224,137548,1,0,0:0:0:0:
224,224,137633,1,0,0:0:0:0:
224,160,137718,1,8,0:0:0:0:
224,160,137803,1,8,0:0:0:0:
224,224,137889,1,0,0:0:0:0:
224,224,137974,1,0,0:0:0:0:
224,160,138059,1,8,0:0:0:0:
224,224,138144,1,0,0:0:0:0:
224,224,138230,1,0,0:0:0:0:
224,224,138315,1,0,0:0:0:0:
224,160,138400,1,8,0:0:0:0:
224,160,138485,1,8,0:0:0:0:
224,224,138571,1,0,0:0:0:0:
224,224,138627,1,0,0:0:0:0:
224,224,138684,1,0,0:0:0:0:
288,160,138741,1,12,0:0:0:0:
224,224,138911,1,0,0:0:0:0:
224,224,138997,1,0,0:0:0:0:
224,160,139082,1,8,0:0:0:0:
224,224,139167,1,0,0:0:0:0:
224,160,139252,1,8,0:0:0:0:
224,224,139338,1,0,0:0:0:0:
224,224,139423,1,0,0:0:0:0:
224,224,139508,1,0,0:0:0:0:
224,160,139593,1,8,0:0:0:0:
224,224,139678,1,0,0:0:0:0:
224,160,139764,1,8,0:0:0:0:
224,224,139849,1,0,0:0:0:0:
224,224,139934,1,0,0:0:0:0:
224,224,140019,1,0,0:0:0:0:
224,160,140105,1,8,0:0:0:0:
224,160,140190,1,8,0:0:0:0:
224,224,140275,1,0,0:0:0:0:
224,224,140360,1,0,0:0:0:0:
224,160,140446,1,8,0:0:0:0:
224,224,140531,1,0,0:0:0:0:
224,160,140616,1,8,0:0:0:0:
224,224,140701,1,0,0:0:0:0:
224,160,140786,1,8,0:0:0:0:
224,160,140872,1,8,0:0:0:0:
224,160,140957,1,8,0:0:0:0:
224,224,141042,1,0,0:0:0:0:
224,160,141127,1,8,0:0:0:0:
224,160,141213,1,8,0:0:0:0:
224,160,141298,1,8,0:0:0:0:
224,224,141383,1,0,0:0:0:0:
288,160,141468,1,12,0:0:0:0:
224,224,141639,1,0,0:0:0:0:
224,224,141724,1,0,0:0:0:0:
224,160,141809,1,8,0:0:0:0:
224,224,141894,1,0,0:0:0:0:
224,160,141980,1,8,0:0:0:0:
224,224,142065,1,0,0:0:0:0:
224,224,142150,1,0,0:0:0:0:
224,224,142235,1,0,0:0:0:0:
224,160,142321,1,8,0:0:0:0:
224,224,142406,1,0,0:0:0:0:
224,224,142491,1,0,0:0:0:0:
224,224,142576,1,0,0:0:0:0:
224,160,142661,1,8,0:0:0:0:
224,224,142747,1,0,0:0:0:0:
224,160,142832,1,8,0:0:0:0:
224,160,142917,1,8,0:0:0:0:
224,224,143002,1,0,0:0:0:0:
224,224,143088,1,0,0:0:0:0:
224,160,143173,1,8,0:0:0:0:
224,224,143258,1,0,0:0:0:0:
224,224,143343,1,0,0:0:0:0:
224,224,143400,1,0,0:0:0:0:
224,224,143457,1,0,0:0:0:0:
224,160,143514,1,8,0:0:0:0:
224,224,143599,1,0,0:0:0:0:
224,224,143684,1,0,0:0:0:0:
224,224,143769,1,0,0:0:0:0:
224,160,143855,1,8,0:0:0:0:
224,160,143940,1,8,0:0:0:0:
224,224,144025,1,0,0:0:0:0:
224,224,144082,1,0,0:0:0:0:
224,224,144139,1,0,0:0:0:0:
224,160,144196,1,8,0:0:0:0:
224,224,144366,1,0,0:0:0:0:
224,224,144451,1,0,0:0:0:0:
224,160,144536,1,8,0:0:0:0:
224,160,144622,1,8,0:0:0:0:
224,224,144707,1,0,0:0:0:0:
224,224,144792,1,0,0:0:0:0:
224,160,144877,1,8,0:0:0:0:
224,160,144934,1,8,0:0:0:0:
224,160,144991,1,8,0:0:0:0:
224,160,145048,1,8,0:0:0:0:
224,160,145105,1,8,0:0:0:0:
224,160,145161,1,8,0:0:0:0:
224,224,145218,1,0,0:0:0:0:
224,224,145275,1,0,0:0:0:0:
224,224,145332,1,0,0:0:0:0:
224,224,145389,1,0,0:0:0:0:
224,224,145446,1,0,0:0:0:0:
224,224,145502,1,0,0:0:0:0:
224,160,145559,1,8,0:0:0:0:
224,224,145644,1,0,0:0:0:0:
224,160,145730,1,8,0:0:0:0:
224,160,145815,1,8,0:0:0:0:
224,224,145900,1,0,0:0:0:0:
224,160,145985,1,8,0:0:0:0:
224,224,146071,1,0,0:0:0:0:
224,224,146127,1,0,0:0:0:0:
224,224,146184,1,0,0:0:0:0:
288,160,146241,1,12,0:0:0:0:
224,224,146411,1,0,0:0:0:0:
288,224,146582,1,4,0:0:0:0:
224,224,146752,1,0,0:0:0:0:
224,224,146838,1,0,0:0:0:0:
224,160,146923,1,8,0:0:0:0:
224,224,147008,1,0,0:0:0:0:
224,224,147093,1,0,0:0:0:0:
224,224,147178,1,0,0:0:0:0:
224,160,147264,1,8,0:0:0:0:
224,160,147349,1,8,0:0:0:0:
224,224,147434,1,0,0:0:0:0:
224,224,147519,1,0,0:0:0:0:
224,160,147605,1,8,0:0:0:0:
224,224,147775,1,0,0:0:0:0:
224,224,147860,1,0,0:0:0:0:
224,160,147946,1,8,0:0:0:0:
224,224,148116,1,0,0:0:0:0:
224,224,148159,1,0,0:0:0:0:
224,160,148286,1,8,0:0:0:0:
224,160,148329,1,8,0:0:0:0:
224,224,148457,1,0,0:0:0:0:
224,224,148499,1,0,0:0:0:0:
224,160,148627,1,8,0:0:0:0:
224,160,148670,1,8,0:0:0:0:
224,224,148798,1,0,0:0:0:0:
224,224,148840,1,0,0:0:0:0:
288,160,148968,1,12,0:0:0:0:
224,224,149139,1,0,0:0:0:0:
224,224,149224,1,0,0:0:0:0:
224,160,149309,1,8,0:0:0:0:
224,224,149480,1,0,0:0:0:0:
224,224,149565,1,0,0:0:0:0:
224,160,149650,1,8,0:0:0:0:
224,224,149735,1,0,0:0:0:0:
224,224,149821,1,0,0:0:0:0:
224,224,149906,1,0,0:0:0:0:
224,160,149991,1,8,0:0:0:0:
224,160,150076,1,8,0:0:0:0:
224,224,150161,1,0,0:0:0:0:
224,224,150247,1,0,0:0:0:0:
224,160,150332,1,8,0:0:0:0:
224,224,150502,1,0,0:0:0:0:
224,224,150588,1,0,0:0:0:0:
224,160,150673,1,8,0:0:0:0:
224,224,150843,1,0,0:0:0:0:
224,224,150886,1,0,0:0:0:0:
224,160,151014,1,8,0:0:0:0:
224,160,151056,1,8,0:0:0:0:
224,224,151184,1,0,0:0:0:0:
224,224,151227,1,0,0:0:0:0:
224,160,151355,1,8,0:0:0:0:
224,160,151397,1,8,0:0:0:0:
224,224,151525,1,0,0:0:0:0:
224,224,151568,1,0,0:0:0:0:
288,160,151696,1,12,0:0:0:0:
224,224,151866,1,0,0:0:0:0:
224,224,151951,1,0,0:0:0:0:
224,160,152036,1,8,0:0:0:0:
224,224,152207,1,0,0:0:0:0:
224,224,152292,1,0,0:0:0:0:
224,160,152377,1,8,0:0:0:0:
224,224,152463,1,0,0:0:0:0:
224,224,152548,1,0,0:0:0:0:
224,224,152633,1,0,0:0:0:0:
224,160,152718,1,8,0:0:0:0:
224,160,152803,1,8,0:0:0:0:
224,224,152889,1,0,0:0:0:0:
224,224,152974,1,0,0:0:0:0:
224,160,153059,1,8,0:0:0:0:
224,224,153230,1,0,0:0:0:0:
224,224,153315,1,0,0:0:0:0:
224,160,153400,1,8,0:0:0:0:
224,224,153571,1,0,0:0:0:0:
224,224,153613,1,0,0:0:0:0:
224,160,153741,1,8,0:0:0:0:
224,160,153784,1,8,0:0:0:0:
224,224,153911,1,0,0:0:0:0:
224,224,153954,1,0,0:0:0:0:
224,160,154082,1,8,0:0:0:0:
224,160,154124,1,8,0:0:0:0:
224,224,154252,1,0,0:0:0:0:
224,224,154295,1,0,0:0:0:0:
288,160,154423,1,12,0:0:0:0:
224,224,154593,1,0,0:0:0:0:
224,224,154678,1,0,0:0:0:0:
224,160,154764,1,8,0:0:0:0:
224,224,154934,1,0,0:0:0:0:
224,224,155019,1,0,0:0:0:0:
224,160,155105,1,8,0:0:0:0:
224,224,155190,1,0,0:0:0:0:
224,224,155275,1,0,0:0:0:0:
224,160,155360,1,8,0:0:0:0:
224,160,155446,1,8,0:0:0:0:
224,224,155531,1,0,0:0:0:0:
224,224,155616,1,0,0:0:0:0:
224,224,155701,1,0,0:0:0:0:
224,160,155786,1,8,0:0:0:0:
224,224,155872,1,0,0:0:0:0:
224,160,155957,1,8,0:0:0:0:
224,160,156042,1,8,0:0:0:0:
224,224,156127,1,0,0:0:0:0:
224,224,156298,1,0,0:0:0:0:
224,224,156340,1,0,0:0:0:0:
224,160,156468,1,8,0:0:0:0:
224,160,156511,1,8,0:0:0:0:
224,160,156639,1,8,0:0:0:0:
224,160,156682,1,8,0:0:0:0:
224,224,156810,1,0,0:0:0:0:
224,224,156852,1,0,0:0:0:0:
224,224,156980,1,0,0:0:0:0:
224,224,157022,1,0,0:0:0:0:
224,160,157150,1,8,0:0:0:0:
224,160,157193,1,8,0:0:0:0:
224,224,157321,1,0,0:0:0:0:
224,224,157363,1,0,0:0:0:0:
224,160,157491,1,8,0:0:0:0:
224,160,157534,1,8,0:0:0:0:
224,224,157661,1,0,0:0:0:0:
224,224,157704,1,0,0:0:0:0:
288,160,157835,1,12,0:0:0:0:
224,224,157964,1,0,0:0:0:0:
224,224,158094,1,0,0:0:0:0:
224,160,158224,1,8,0:0:0:0:
224,224,158289,1,0,0:0:0:0:
224,160,158354,1,8,0:0:0:0:
224,224,158419,1,0,0:0:0:0:
224,160,158484,1,8,0:0:0:0:
224,224,158549,1,0,0:0:0:0:
224,160,158614,1,8,0:0:0:0:
224,224,158744,1,0,0:0:0:0:
224,224,158809,1,0,0:0:0:0:
224,224,158873,1,0,0:0:0:0:
224,160,159003,1,8,0:0:0:0:
224,160,159068,1,8,0:0:0:0:
224,160,159133,1,8,0:0:0:0:
224,160,159198,1,8,0:0:0:0:
224,224,159263,1,0,0:0:0:0:
224,224,159328,1,0,0:0:0:0:
224,160,159393,1,8,0:0:0:0:
224,160,159458,1,8,0:0:0:0:
224,160,159523,1,8,0:0:0:0:
224,160,159588,1,8,0:0:0:0:
224,224,159653,1,0,0:0:0:0:
224,224,159718,1,0,0:0:0:0:
224,160,159783,1,8,0:0:0:0:
224,160,159847,1,8,0:0:0:0:
224,160,159912,1,8,0:0:0:0:
224,160,159977,1,8,0:0:0:0:
224,224,160042,1,0,0:0:0:0:
288,160,160172,1,12,0:0:0:0:
224,224,160302,1,0,0:0:0:0:
224,224,160432,1,0,0:0:0:0:
224,160,160562,1,8,0:0:0:0:
224,224,160627,1,0,0:0:0:0:
224,160,160692,1,8,0:0:0:0:
224,224,160757,1,0,0:0:0:0:
224,160,160822,1,8,0:0:0:0:
224,224,160886,1,0,0:0:0:0:
224,160,160951,1,8,0:0:0:0:
224,224,161081,1,0,0:0:0:0:
224,224,161146,1,0,0:0:0:0:
224,224,161211,1,0,0:0:0:0:
224,160,161341,1,8,0:0:0:0:
224,160,161406,1,8,0:0:0:0:
224,160,161471,1,8,0:0:0:0:
224,160,161536,1,8,0:0:0:0:
224,224,161601,1,0,0:0:0:0:
224,224,161666,1,0,0:0:0:0:
224,160,161731,1,8,0:0:0:0:
224,160,161796,1,8,0:0:0:0:
224,224,161860,1,0,0:0:0:0:
224,224,161925,1,0,0:0:0:0:
224,224,161990,1,0,0:0:0:0:
288,160,162120,1,12,0:0:0:0:
224,224,162250,1,0,0:0:0:0:
224,224,162315,1,0,0:0:0:0:
224,224,162380,1,0,0:0:0:0:
288,160,162510,1,12,0:0:0:0:
224,224,162640,1,0,0:0:0:0:
224,224,162770,1,0,0:0:0:0:
224,160,162899,1,8,0:0:0:0:
224,224,162964,1,0,0:0:0:0:
224,160,163029,1,8,0:0:0:0:
224,224,163094,1,0,0:0:0:0:
224,160,163159,1,8,0:0:0:0:
224,224,163224,1,0,0:0:0:0:
224,160,163289,1,8,0:0:0:0:
224,224,163419,1,0,0:0:0:0:
224,224,163484,1,0,0:0:0:0:
224,224,163549,1,0,0:0:0:0:
224,224,163679,1,0,0:0:0:0:
224,224,163744,1,0,0:0:0:0:
224,224,163809,1,0,0:0:0:0:
224,160,163873,1,8,0:0:0:0:
224,160,163938,1,8,0:0:0:0:
224,160,164003,1,8,0:0:0:0:
224,224,164068,1,0,0:0:0:0:
224,224,164133,1,0,0:0:0:0:
224,224,164198,1,0,0:0:0:0:
224,224,164263,1,0,0:0:0:0:
224,224,164328,1,0,0:0:0:0:
224,224,164393,1,0,0:0:0:0:
224,160,164458,1,8,0:0:0:0:
224,160,164523,1,8,0:0:0:0:
224,224,164588,1,0,0:0:0:0:
224,224,164718,1,0,0:0:0:0:
288,160,164847,1,12,0:0:0:0:
224,224,164977,1,0,0:0:0:0:
224,224,165107,1,0,0:0:0:0:
224,160,165237,1,8,0:0:0:0:
224,224,165302,1,0,0:0:0:0:
224,160,165367,1,8,0:0:0:0:
224,224,165432,1,0,0:0:0:0:
224,160,165497,1,8,0:0:0:0:
224,224,165562,1,0,0:0:0:0:
224,160,165627,1,8,0:0:0:0:
224,160,165757,1,8,0:0:0:0:
224,224,165822,1,0,0:0:0:0:
224,160,165886,1,8,0:0:0:0:
288,160,166016,1,12,0:0:0:0:
224,160,166146,1,8,0:0:0:0:
224,160,166211,1,8,0:0:0:0:
224,224,166276,1,0,0:0:0:0:
288,160,166406,1,12,0:0:0:0:
224,224,166536,1,0,0:0:0:0:
224,224,166601,1,0,0:0:0:0:
224,224,166666,1,0,0:0:0:0:
288,160,166796,1,12,0:0:0:0:
224,160,166925,1,8,0:0:0:0:
224,160,166990,1,8,0:0:0:0:
224,224,167055,1,0,0:0:0:0:
288,160,167185,1,12,0:0:0:0:
224,224,167315,1,0,0:0:0:0:
224,224,167380,1,0,0:0:0:0:
224,224,167445,1,0,0:0:0:0:
224,224,167510,1,0,0:0:0:0:
224,160,167575,1,8,0:0:0:0:
224,224,167640,1,0,0:0:0:0:
224,160,167705,1,8,0:0:0:0:
224,224,167770,1,0,0:0:0:0:
224,160,167835,1,8,0:0:0:0:
224,224,167899,1,0,0:0:0:0:
224,160,167964,1,8,0:0:0:0:
224,224,168094,1,0,0:0:0:0:
224,224,168159,1,0,0:0:0:0:
224,224,168224,1,0,0:0:0:0:
224,160,168354,1,8,0:0:0:0:
224,160,168419,1,8,0:0:0:0:
224,160,168484,1,8,0:0:0:0:
224,160,168549,1,8,0:0:0:0:
224,224,168614,1,0,0:0:0:0:
224,224,168679,1,0,0:0:0:0:
224,160,168744,1,8,0:0:0:0:
224,160,168809,1,8,0:0:0:0:
224,160,168873,1,8,0:0:0:0:
224,160,168938,1,8,0:0:0:0:
224,224,169003,1,0,0:0:0:0:
224,224,169068,1,0,0:0:0:0:
224,160,169133,1,8,0:0:0:0:
224,160,169198,1,8,0:0:0:0:
224,160,169263,1,8,0:0:0:0:
224,160,169328,1,8,0:0:0:0:
224,224,169393,1,0,0:0:0:0:
288,160,169523,1,12,0:0:0:0:
224,224,169653,1,0,0:0:0:0:
224,224,169718,1,0,0:0:0:0:
224,224,169783,1,0,0:0:0:0:
224,224,169847,1,0,0:0:0:0:
224,160,169912,1,8,0:0:0:0:
224,224,169977,1,0,0:0:0:0:
224,160,170042,1,8,0:0:0:0:
224,224,170107,1,0,0:0:0:0:
224,160,170172,1,8,0:0:0:0:
224,224,170237,1,0,0:0:0:0:
224,160,170302,1,8,0:0:0:0:
224,224,170432,1,0,0:0:0:0:
224,224,170497,1,0,0:0:0:0:
224,224,170562,1,0,0:0:0:0:
224,160,170692,1,8,0:0:0:0:
224,160,170757,1,8,0:0:0:0:
224,160,170822,1,8,0:0:0:0:
224,160,170886,1,8,0:0:0:0:
224,224,170951,1,0,0:0:0:0:
224,224,171016,1,0,0:0:0:0:
224,160,171081,1,8,0:0:0:0:
224,160,171146,1,8,0:0:0:0:
224,160,171211,1,8,0:0:0:0:
224,160,171276,1,8,0:0:0:0:
224,224,171341,1,0,0:0:0:0:
288,160,171471,1,12,0:0:0:0:
224,224,171601,1,0,0:0:0:0:
224,224,171666,1,0,0:0:0:0:
224,224,171731,1,0,0:0:0:0:
288,160,171860,1,12,0:0:0:0:
224,224,171990,1,0,0:0:0:0:
224,224,172055,1,0,0:0:0:0:
224,224,172120,1,0,0:0:0:0:
224,224,172185,1,0,0:0:0:0:
224,160,172250,1,8,0:0:0:0:
224,224,172315,1,0,0:0:0:0:
224,160,172380,1,8,0:0:0:0:
224,224,172445,1,0,0:0:0:0:
224,160,172510,1,8,0:0:0:0:
224,224,172575,1,0,0:0:0:0:
224,160,172640,1,8,0:0:0:0:
224,224,172770,1,0,0:0:0:0:
224,224,172835,1,0,0:0:0:0:
224,224,172899,1,0,0:0:0:0:
224,224,173029,1,0,0:0:0:0:
224,224,173094,1,0,0:0:0:0:
224,224,173159,1,0,0:0:0:0:
224,160,173224,1,8,0:0:0:0:
224,160,173289,1,8,0:0:0:0:
224,160,173354,1,8,0:0:0:0:
224,224,173419,1,0,0:0:0:0:
224,224,173484,1,0,0:0:0:0:
224,224,173549,1,0,0:0:0:0:
224,224,173614,1,0,0:0:0:0:
224,224,173679,1,0,0:0:0:0:
224,224,173744,1,0,0:0:0:0:
224,160,173809,1,8,0:0:0:0:
224,160,173873,1,8,0:0:0:0:
224,224,173938,1,0,0:0:0:0:
224,224,174068,1,0,0:0:0:0:
288,160,174198,1,12,0:0:0:0:
224,224,174328,1,0,0:0:0:0:
224,224,174393,1,0,0:0:0:0:
224,224,174458,1,0,0:0:0:0:
224,224,174523,1,0,0:0:0:0:
224,160,174588,1,8,0:0:0:0:
224,224,174653,1,0,0:0:0:0:
224,160,174718,1,8,0:0:0:0:
224,224,174783,1,0,0:0:0:0:
224,160,174847,1,8,0:0:0:0:
288,160,174977,1,12,0:0:0:0:
224,160,175107,1,8,0:0:0:0:
224,160,175172,1,8,0:0:0:0:
224,224,175237,1,0,0:0:0:0:
288,160,175367,1,12,0:0:0:0:
224,224,175497,1,0,0:0:0:0:
224,224,175562,1,0,0:0:0:0:
224,224,175627,1,0,0:0:0:0:
288,160,175757,1,12,0:0:0:0:
224,160,175886,1,8,0:0:0:0:
224,160,175951,1,8,0:0:0:0:
224,224,176016,1,0,0:0:0:0:
288,160,176146,1,12,0:0:0:0:
224,224,176276,1,0,0:0:0:0:
224,224,176341,1,0,0:0:0:0:
224,224,176406,1,0,0:0:0:0:
288,160,176536,1,12,0:0:0:0:
224,224,176666,1,0,0:0:0:0:
224,224,176796,1,0,0:0:0:0:
224,160,176925,1,8,0:0:0:0:
224,224,176990,1,0,0:0:0:0:
224,160,177055,1,8,0:0:0:0:
224,224,177120,1,0,0:0:0:0:
224,160,177185,1,8,0:0:0:0:
224,224,177250,1,0,0:0:0:0:
224,160,177315,1,8,0:0:0:0:
224,224,177445,1,0,0:0:0:0:
224,224,177510,1,0,0:0:0:0:
224,224,177575,1,0,0:0:0:0:
224,160,177705,1,8,0:0:0:0:
224,160,177770,1,8,0:0:0:0:
224,160,177835,1,8,0:0:0:0:
224,160,177899,1,8,0:0:0:0:
224,224,177964,1,0,0:0:0:0:
224,224,178029,1,0,0:0:0:0:
224,160,178094,1,8,0:0:0:0:
224,160,178159,1,8,0:0:0:0:
224,160,178224,1,8,0:0:0:0:
224,160,178289,1,8,0:0:0:0:
224,224,178354,1,0,0:0:0:0:
224,224,178419,1,0,0:0:0:0:
224,160,178484,1,8,0:0:0:0:
224,160,178549,1,8,0:0:0:0:
224,160,178614,1,8,0:0:0:0:
224,160,178679,1,8,0:0:0:0:
224,224,178744,1,0,0:0:0:0:
288,160,178873,1,12,0:0:0:0:
224,224,179003,1,0,0:0:0:0:
224,224,179133,1,0,0:0:0:0:
224,160,179263,1,8,0:0:0:0:
224,224,179328,1,0,0:0:0:0:
224,160,179393,1,8,0:0:0:0:
224,224,179458,1,0,0:0:0:0:
224,160,179523,1,8,0:0:0:0:
224,224,179588,1,0,0:0:0:0:
224,160,179653,1,8,0:0:0:0:
224,224,179783,1,0,0:0:0:0:
224,224,179847,1,0,0:0:0:0:
224,224,179912,1,0,0:0:0:0:
224,160,180042,1,8,0:0:0:0:
224,160,180107,1,8,0:0:0:0:
224,160,180172,5,8,0:0:0:0:
224,160,180237,1,8,0:0:0:0:
224,224,180302,1,0,0:0:0:0:
224,224,180367,1,0,0:0:0:0:
224,160,180432,1,8,0:0:0:0:
224,160,180497,1,8,0:0:0:0:
224,224,180562,1,0,0:0:0:0:
224,224,180627,1,0,0:0:0:0:
224,224,180692,1,0,0:0:0:0:
288,160,180822,1,12,0:0:0:0:
224,224,180951,1,0,0:0:0:0:
224,224,181016,1,0,0:0:0:0:
224,224,181081,1,0,0:0:0:0:
288,160,181211,5,12,0:0:0:0:
224,224,181341,1,0,0:0:0:0:
224,224,181406,1,0,0:0:0:0:
224,224,181471,1,0,0:0:0:0:
224,224,181536,1,0,0:0:0:0:
224,160,181601,1,8,0:0:0:0:
224,224,181666,1,0,0:0:0:0:
224,160,181731,1,8,0:0:0:0:
224,224,181796,1,0,0:0:0:0:
224,160,181860,1,8,0:0:0:0:
224,224,181925,1,0,0:0:0:0:
224,160,181990,1,8,0:0:0:0:
224,224,182120,1,0,0:0:0:0:
224,224,182185,1,0,0:0:0:0:
224,224,182250,1,0,0:0:0:0:
224,224,182380,1,0,0:0:0:0:
224,224,182445,1,0,0:0:0:0:
224,224,182510,1,0,0:0:0:0:
224,160,182575,1,8,0:0:0:0:
224,160,182640,1,8,0:0:0:0:
224,160,182705,1,8,0:0:0:0:
224,224,182770,1,0,0:0:0:0:
224,224,182835,1,0,0:0:0:0:
224,224,182899,1,0,0:0:0:0:
224,224,182964,1,0,0:0:0:0:
224,224,183029,1,0,0:0:0:0:
224,224,183094,1,0,0:0:0:0:
224,160,183159,1,8,0:0:0:0:
224,160,183224,1,8,0:0:0:0:
224,224,183289,1,0,0:0:0:0:
224,224,183419,1,0,0:0:0:0:
288,160,183549,1,12,0:0:0:0:
224,224,183679,1,0,0:0:0:0:
224,224,183744,1,0,0:0:0:0:
224,224,183809,1,0,0:0:0:0:
224,224,183873,1,0,0:0:0:0:
224,160,183938,1,8,0:0:0:0:
224,224,184003,1,0,0:0:0:0:
224,160,184068,1,8,0:0:0:0:
224,224,184133,1,0,0:0:0:0:
224,160,184198,1,8,0:0:0:0:
288,160,184328,1,12,0:0:0:0:
224,160,184458,1,8,0:0:0:0:
224,160,184523,1,8,0:0:0:0:
224,224,184588,1,0,0:0:0:0:
288,160,184718,1,12,0:0:0:0:
224,224,184847,1,0,0:0:0:0:
224,224,184912,1,0,0:0:0:0:
224,224,184977,1,0,0:0:0:0:
288,160,185107,1,12,0:0:0:0:
224,160,185237,1,8,0:0:0:0:
224,160,185302,1,8,0:0:0:0:
224,224,185367,1,0,0:0:0:0:
288,160,185497,1,12,0:0:0:0:
224,224,185627,1,0,0:0:0:0:
224,224,185692,1,0,0:0:0:0:
224,224,185757,1,0,0:0:0:0:
288,160,185886,5,12,0:0:0:0:
224,224,186016,1,0,0:0:0:0:
224,224,186146,1,0,0:0:0:0:
224,160,186276,1,8,0:0:0:0:
224,224,186341,1,0,0:0:0:0:
224,160,186406,1,8,0:0:0:0:
224,224,186471,1,0,0:0:0:0:
224,160,186536,1,8,0:0:0:0:
224,224,186601,1,0,0:0:0:0:
224,160,186666,1,8,0:0:0:0:
224,224,186796,1,0,0:0:0:0:
224,224,186860,1,0,0:0:0:0:
224,224,186925,1,0,0:0:0:0:
224,160,187055,1,8,0:0:0:0:
224,160,187120,1,8,0:0:0:0:
224,160,187185,1,8,0:0:0:0:
224,160,187250,1,8,0:0:0:0:
224,224,187315,1,0,0:0:0:0:
224,224,187380,1,0,0:0:0:0:
224,160,187445,1,8,0:0:0:0:
224,160,187510,1,8,0:0:0:0:
224,160,187575,1,8,0:0:0:0:
224,160,187640,1,8,0:0:0:0:
224,224,187705,1,0,0:0:0:0:
224,224,187770,1,0,0:0:0:0:
224,160,187835,1,8,0:0:0:0:
224,160,187899,1,8,0:0:0:0:
224,160,187964,1,8,0:0:0:0:
224,160,188029,1,8,0:0:0:0:
224,224,188094,1,0,0:0:0:0:
288,160,188224,1,12,0:0:0:0:
224,224,188354,1,0,0:0:0:0:
224,224,188484,1,0,0:0:0:0:
224,160,188614,1,8,0:0:0:0:
224,224,188679,1,0,0:0:0:0:
224,160,188744,1,8,0:0:0:0:
224,224,188809,1,0,0:0:0:0:
224,160,188873,1,8,0:0:0:0:
224,224,188938,1,0,0:0:0:0:
224,160,189003,1,8,0:0:0:0:
224,224,189133,1,0,0:0:0:0:
224,224,189198,1,0,0:0:0:0:
224,224,189263,1,0,0:0:0:0:
224,160,189393,1,8,0:0:0:0:
224,160,189458,1,8,0:0:0:0:
224,160,189523,5,8,0:0:0:0:
224,160,189588,1,8,0:0:0:0:
224,224,189653,1,0,0:0:0:0:
224,224,189718,1,0,0:0:0:0:
224,160,189783,1,8,0:0:0:0:
224,160,189847,1,8,0:0:0:0:
224,224,189912,1,0,0:0:0:0:
224,224,189977,1,0,0:0:0:0:
224,224,190042,1,0,0:0:0:0:
288,160,190172,1,12,0:0:0:0:
224,224,190302,1,0,0:0:0:0:
224,224,190367,1,0,0:0:0:0:
224,224,190432,1,0,0:0:0:0:
288,160,190562,5,12,0:0:0:0:
224,224,190692,1,0,0:0:0:0:
224,224,190757,1,0,0:0:0:0:
224,224,190822,1,0,0:0:0:0:
224,224,190886,1,0,0:0:0:0:
224,160,190951,1,8,0:0:0:0:
224,224,191016,1,0,0:0:0:0:
224,160,191081,1,8,0:0:0:0:
224,224,191146,1,0,0:0:0:0:
224,160,191211,1,8,0:0:0:0:
224,224,191276,1,0,0:0:0:0:
224,160,191341,1,8,0:0:0:0:
224,224,191471,1,0,0:0:0:0:
224,224,191536,1,0,0:0:0:0:
224,224,191601,1,0,0:0:0:0:
224,224,191731,1,0,0:0:0:0:
224,224,191796,1,0,0:0:0:0:
224,224,191860,1,0,0:0:0:0:
224,160,191925,1,8,0:0:0:0:
224,160,191990,1,8,0:0:0:0:
224,160,192055,1,8,0:0:0:0:
224,224,192120,1,0,0:0:0:0:
224,224,192185,1,0,0:0:0:0:
224,224,192250,1,0,0:0:0:0:
224,224,192315,1,0,0:0:0:0:
224,224,192380,1,0,0:0:0:0:
224,224,192445,1,0,0:0:0:0:
224,160,192510,1,8,0:0:0:0:
224,160,192575,1,8,0:0:0:0:
224,224,192640,1,0,0:0:0:0:
224,224,192770,1,0,0:0:0:0:
288,160,192899,1,12,0:0:0:0:
224,224,193029,1,0,0:0:0:0:
224,224,193094,1,0,0:0:0:0:
224,224,193159,1,0,0:0:0:0:
224,224,193224,1,0,0:0:0:0:
224,160,193289,1,8,0:0:0:0:
224,224,193354,1,0,0:0:0:0:
224,160,193419,1,8,0:0:0:0:
224,224,193484,1,0,0:0:0:0:
224,160,193549,1,8,0:0:0:0:
224,224,193614,1,0,0:0:0:0:
224,160,193679,1,8,0:0:0:0:
224,224,193809,1,0,0:0:0:0:
224,224,193873,1,0,0:0:0:0:
224,224,193938,1,0,0:0:0:0:
224,224,194003,1,0,0:0:0:0:
224,160,194068,1,8,0:0:0:0:
224,224,194133,1,0,0:0:0:0:
224,160,194198,1,8,0:0:0:0:
224,224,194263,1,0,0:0:0:0:
224,160,194328,1,8,0:0:0:0:
224,224,194393,1,0,0:0:0:0:
224,160,194458,1,8,0:0:0:0:
224,224,194588,1,0,0:0:0:0:
224,224,194653,1,0,0:0:0:0:
224,224,194718,1,0,0:0:0:0:
224,224,194783,1,0,0:0:0:0:
224,160,194847,1,8,0:0:0:0:
224,224,194945,1,0,0:0:0:0:
224,224,195042,1,0,0:0:0:0:
224,224,195140,1,0,0:0:0:0:
288,160,195237,5,12,0:0:0:0:
288,224,195432,1,4,0:0:0:0:
288,160,195627,1,12,0:0:0:0:
288,160,199912,5,12,0:0:0:0:
288,224,200107,1,4,0:0:0:0:
288,160,200302,1,12,0:0:0:0:
224,224,201666,1,0,0:0:0:0:
224,224,201731,1,0,0:0:0:0:
224,224,201796,1,0,0:0:0:0:
288,160,201860,1,12,0:0:0:0:
288,160,202250,1,12,0:0:0:0:
224,224,202396,1,0,0:0:0:0:
224,224,202445,1,0,0:0:0:0:
224,160,202640,1,8,0:0:0:0:
224,160,202737,1,8,0:0:0:0:
224,160,202835,1,8,0:0:0:0:
224,224,202932,1,0,0:0:0:0:
224,160,203029,1,8,0:0:0:0:
224,160,203127,1,8,0:0:0:0:
224,160,203224,1,8,0:0:0:0:
224,224,203322,1,0,0:0:0:0:
224,160,203419,1,8,0:0:0:0:
224,160,203516,1,8,0:0:0:0:
224,224,203614,1,0,0:0:0:0:
224,224,203679,1,0,0:0:0:0:
224,224,203744,1,0,0:0:0:0:
224,160,203809,1,8,0:0:0:0:
224,224,203906,1,0,0:0:0:0:
224,160,204003,1,8,0:0:0:0:
224,224,204068,1,0,0:0:0:0:
224,224,204133,1,0,0:0:0:0:
224,160,204198,1,8,0:0:0:0:
224,224,204296,1,8,0:0:0:0:
224,224,204393,1,0,0:0:0:0:
224,224,204490,1,0,0:0:0:0:
288,160,204588,1,12,0:0:0:0:
224,224,204977,1,0,0:0:0:0:
224,224,205172,1,0,0:0:0:0:
224,160,205367,1,8,0:0:0:0:
224,224,205562,1,0,0:0:0:0:
224,224,205757,1,0,0:0:0:0:
224,160,205822,1,8,0:0:0:0:
224,224,205886,1,0,0:0:0:0:
224,160,205951,1,8,0:0:0:0:
224,224,206016,1,0,0:0:0:0:
224,160,206146,1,8,0:0:0:0:
224,224,206341,1,0,0:0:0:0:
224,160,206536,1,8,0:0:0:0:
288,224,206925,1,4,0:0:0:0:
224,224,207120,1,0,0:0:0:0:
224,160,207315,1,8,0:0:0:0:
224,224,207510,1,0,0:0:0:0:
224,160,207705,1,8,0:0:0:0:
224,224,207899,1,0,0:0:0:0:
224,224,207997,1,0,0:0:0:0:
224,160,208094,1,8,0:0:0:0:
224,224,208289,5,0,0:0:0:0:
224,160,208484,1,8,0:0:0:0:
224,224,208679,1,0,0:0:0:0:
224,160,208873,1,8,0:0:0:0:
224,224,209068,1,0,0:0:0:0:
288,160,209263,5,12,0:0:0:0:
224,224,209653,1,0,0:0:0:0:
224,224,209847,1,0,0:0:0:0:
224,160,210042,1,8,0:0:0:0:
224,224,210237,1,0,0:0:0:0:
224,224,210432,1,0,0:0:0:0:
224,160,210497,1,8,0:0:0:0:
224,224,210562,1,0,0:0:0:0:
224,160,210627,1,8,0:0:0:0:
224,224,210692,1,0,0:0:0:0:
224,160,210822,1,8,0:0:0:0:
224,224,211016,1,0,0:0:0:0:
224,160,211211,1,8,0:0:0:0:
288,224,211406,1,4,0:0:0:0:
288,160,211601,1,12,0:0:0:0:
224,160,211990,1,8,0:0:0:0:
224,224,212185,1,0,0:0:0:0:
224,160,212380,1,8,0:0:0:0:
224,224,212575,1,0,0:0:0:0:
224,224,212672,1,0,0:0:0:0:
224,160,212770,1,8,0:0:0:0:
224,224,212867,1,0,0:0:0:0:
224,224,212964,1,0,0:0:0:0:
224,224,213062,1,0,0:0:0:0:
224,160,213159,1,8,0:0:0:0:
224,224,213257,1,0,0:0:0:0:
224,224,213354,1,0,0:0:0:0:
224,224,213419,1,0,0:0:0:0:
224,224,213484,1,0,0:0:0:0:
288,160,213549,1,12,0:0:0:0:
224,224,213744,1,0,0:0:0:0:
288,160,213938,1,12,0:0:0:0:
224,224,214328,1,0,0:0:0:0:
224,224,214523,1,0,0:0:0:0:
224,160,214718,1,8,0:0:0:0:
224,224,214912,1,0,0:0:0:0:
224,224,215107,1,0,0:0:0:0:
224,160,215172,1,8,0:0:0:0:
224,224,215237,1,0,0:0:0:0:
224,160,215302,1,8,0:0:0:0:
224,224,215367,1,0,0:0:0:0:
224,160,215497,1,8,0:0:0:0:
224,224,215692,1,0,0:0:0:0:
224,160,215886,1,8,0:0:0:0:
288,224,216276,1,4,0:0:0:0:
224,224,216471,1,0,0:0:0:0:
224,160,216666,1,8,0:0:0:0:
224,224,216860,1,0,0:0:0:0:
224,160,217055,1,8,0:0:0:0:
224,160,217445,1,8,0:0:0:0:
224,224,217640,5,0,0:0:0:0:
224,160,217835,1,8,0:0:0:0:
224,224,218029,1,0,0:0:0:0:
224,224,218094,1,0,0:0:0:0:
224,224,218159,1,0,0:0:0:0:
224,160,218224,1,8,0:0:0:0:
224,224,218419,1,0,0:0:0:0:
288,160,218614,5,12,0:0:0:0:
224,224,219003,1,0,0:0:0:0:
224,224,219198,1,0,0:0:0:0:
224,160,219393,1,8,0:0:0:0:
224,224,219588,1,0,0:0:0:0:
224,224,219783,1,0,0:0:0:0:
224,160,219847,1,8,0:0:0:0:
224,224,219912,1,0,0:0:0:0:
224,160,219977,1,8,0:0:0:0:
224,224,220042,1,0,0:0:0:0:
224,160,220172,1,8,0:0:0:0:
224,224,220367,1,0,0:0:0:0:
224,160,220562,1,8,0:0:0:0:
224,224,220757,1,0,0:0:0:0:
288,224,220951,1,4,0:0:0:0:
224,160,221341,1,8,0:0:0:0:
224,224,221536,1,0,0:0:0:0:
224,160,221731,1,8,0:0:0:0:
224,224,221925,1,0,0:0:0:0:
224,224,222023,1,0,0:0:0:0:
224,160,222120,1,8,0:0:0:0:
224,160,222218,1,8,0:0:0:0:
224,224,222315,1,0,0:0:0:0:
224,224,222412,1,0,0:0:0:0:
224,160,222510,1,8,0:0:0:0:
224,224,222607,1,0,0:0:0:0:
224,224,222705,1,0,0:0:0:0:
224,224,222802,1,0,0:0:0:0:
224,160,222899,1,8,0:0:0:0:
224,160,222997,1,8,0:0:0:0:
224,160,223094,1,8,0:0:0:0:
224,224,223192,1,0,0:0:0:0:
288,160,223289,1,12,0:0:0:0:
224,224,223679,1,0,0:0:0:0:
224,224,223873,1,0,0:0:0:0:
224,160,224068,1,8,0:0:0:0:
224,224,224263,1,0,0:0:0:0:
224,224,224458,1,0,0:0:0:0:
224,160,224523,1,8,0:0:0:0:
224,224,224588,1,0,0:0:0:0:
224,160,224653,1,8,0:0:0:0:
224,224,224718,1,0,0:0:0:0:
224,160,224847,1,8,0:0:0:0:
224,224,225042,1,0,0:0:0:0:
224,160,225237,1,8,0:0:0:0:
288,224,225627,1,4,0:0:0:0:
224,224,225822,1,0,0:0:0:0:
224,160,226016,1,8,0:0:0:0:
224,224,226211,1,0,0:0:0:0:
224,160,226406,1,8,0:0:0:0:
224,160,226796,1,8,0:0:0:0:
224,224,226990,5,0,0:0:0:0:
224,160,227185,1,8,0:0:0:0:
224,224,227380,1,0,0:0:0:0:
224,224,227445,1,0,0:0:0:0:
224,224,227510,1,0,0:0:0:0:
224,160,227575,1,8,0:0:0:0:
224,224,227770,1,0,0:0:0:0:
288,160,227964,5,12,0:0:0:0:
224,224,228354,1,0,0:0:0:0:
224,224,228549,1,0,0:0:0:0:
224,160,228744,1,8,0:0:0:0:
224,224,228938,1,0,0:0:0:0:
224,224,229133,1,0,0:0:0:0:
224,160,229198,1,8,0:0:0:0:
224,224,229263,1,0,0:0:0:0:
224,160,229328,1,8,0:0:0:0:
224,224,229393,1,0,0:0:0:0:
224,160,229523,1,8,0:0:0:0:
224,224,229718,1,0,0:0:0:0:
224,160,229912,1,8,0:0:0:0:
224,224,230107,1,0,0:0:0:0:
288,224,230302,1,4,0:0:0:0:
224,160,230692,1,8,0:0:0:0:
224,224,230886,1,0,0:0:0:0:
288,160,231081,1,12,0:0:0:0:
224,160,231276,1,8,0:0:0:0:
224,160,231325,1,8,0:0:0:0:
224,160,231471,1,8,0:0:0:0:
224,160,231568,1,8,0:0:0:0:
224,224,231666,1,0,0:0:0:0:
224,160,231763,1,8,0:0:0:0:
224,160,231861,1,8,0:0:0:0:
224,224,231958,1,0,0:0:0:0:
224,224,232055,1,0,0:0:0:0:
224,224,232153,1,0,0:0:0:0:
224,160,232250,1,8,0:0:0:0:
224,160,232347,1,8,0:0:0:0:
224,224,232445,1,0,0:0:0:0:
224,224,232542,1,0,0:0:0:0:
288,160,232640,1,12,0:0:0:0:
224,224,233029,1,0,0:0:0:0:
224,224,233224,1,0,0:0:0:0:
224,160,233419,1,8,0:0:0:0:
224,224,233614,1,0,0:0:0:0:
224,224,233809,1,0,0:0:0:0:
224,160,233873,1,8,0:0:0:0:
224,224,233938,1,0,0:0:0:0:
224,160,234003,1,8,0:0:0:0:
224,224,234068,1,0,0:0:0:0:
224,160,234198,1,8,0:0:0:0:
224,224,234393,1,0,0:0:0:0:
224,160,234588,1,8,0:0:0:0:
224,160,234783,1,8,0:0:0:0:
224,160,234880,1,8,0:0:0:0:
288,224,234977,1,4,0:0:0:0:
224,224,235172,1,0,0:0:0:0:
224,160,235367,1,8,0:0:0:0:
224,224,235562,1,0,0:0:0:0:
224,160,235757,1,8,0:0:0:0:
224,224,235951,1,0,0:0:0:0:
224,224,236049,1,0,0:0:0:0:
224,160,236146,1,8,0:0:0:0:
224,224,236341,5,0,0:0:0:0:
224,160,236536,1,8,0:0:0:0:
224,224,236731,1,0,0:0:0:0:
224,160,236925,1,8,0:0:0:0:
224,224,237120,1,0,0:0:0:0:
288,224,237315,5,4,0:0:0:0:
224,224,237705,1,0,0:0:0:0:
224,224,237899,1,0,0:0:0:0:
224,160,238094,1,8,0:0:0:0:
224,224,238289,1,0,0:0:0:0:
224,224,238484,1,0,0:0:0:0:
224,160,238549,1,8,0:0:0:0:
224,224,238614,1,0,0:0:0:0:
224,160,238679,1,8,0:0:0:0:
224,224,238744,1,0,0:0:0:0:
224,160,238873,1,8,0:0:0:0:
224,224,239068,1,0,0:0:0:0:
224,160,239263,1,8,0:0:0:0:
288,224,239458,1,4,0:0:0:0:
288,160,239653,1,12,0:0:0:0:
224,224,240042,1,0,0:0:0:0:
224,224,240237,1,0,0:0:0:0:
224,160,240432,1,8,0:0:0:0:
224,224,240627,1,0,0:0:0:0:
224,160,240822,1,8,0:0:0:0:
224,224,241016,1,0,0:0:0:0:
224,160,241211,1,8,0:0:0:0:
224,224,241406,1,0,0:0:0:0:
224,224,241601,1,0,0:0:0:0:
288,160,241796,1,12,0:0:0:0:
288,160,242770,1,12,0:0:0:0:
224,224,242964,1,0,0:0:0:0:
224,224,243159,1,0,0:0:0:0:
224,160,243224,1,8,0:0:0:0:
224,224,243289,1,0,0:0:0:0:
224,160,243354,1,8,0:0:0:0:
224,224,243419,1,0,0:0:0:0:
224,160,243549,1,8,0:0:0:0:
224,224,243744,1,0,0:0:0:0:
224,160,243938,1,8,0:0:0:0:
224,224,244133,1,0,0:0:0:0:
288,224,244328,1,4,0:0:0:0:
224,224,244718,1,0,0:0:0:0:
224,224,244912,1,0,0:0:0:0:
224,160,245107,1,8,0:0:0:0:
224,224,245497,1,0,0:0:0:0:
224,224,245692,5,0,0:0:0:0:
224,160,245886,1,8,0:0:0:0:
224,224,246081,1,0,0:0:0:0:
224,160,246276,1,8,0:0:0:0:
224,224,246471,1,0,0:0:0:0:
288,224,246666,5,4,0:0:0:0:
224,224,247055,1,0,0:0:0:0:
224,224,247250,1,0,0:0:0:0:
224,160,247445,1,8,0:0:0:0:
224,224,247640,1,0,0:0:0:0:
224,224,247835,1,0,0:0:0:0:
224,160,247899,1,8,0:0:0:0:
224,224,247964,1,0,0:0:0:0:
224,160,248029,1,8,0:0:0:0:
224,224,248094,1,0,0:0:0:0:
224,160,248224,1,8,0:0:0:0:
224,224,248419,1,0,0:0:0:0:
224,160,248614,1,8,0:0:0:0:
224,224,248809,1,0,0:0:0:0:
224,160,249003,1,8,0:0:0:0:
224,224,249393,1,0,0:0:0:0:
224,224,249588,1,0,0:0:0:0:
224,160,249783,1,8,0:0:0:0:
224,224,249977,1,0,0:0:0:0:
224,160,250172,1,8,0:0:0:0:
224,224,250270,1,0,0:0:0:0:
224,160,250367,1,8,0:0:0:0:
224,160,250464,1,8,0:0:0:0:
224,224,250562,1,0,0:0:0:0:
224,160,250659,1,8,0:0:0:0:
224,160,250757,1,8,0:0:0:0:
224,224,250854,1,0,0:0:0:0:
224,160,250951,1,8,0:0:0:0:
224,160,251146,1,8,0:0:0:0:
224,224,251244,1,0,0:0:0:0:
288,160,251341,5,12,0:0:0:0:
224,160,251731,1,8,0:0:0:0:
224,224,251925,1,0,0:0:0:0:
224,160,252120,1,8,0:0:0:0:
224,224,252315,1,0,0:0:0:0:
224,224,252510,1,0,0:0:0:0:
224,160,252575,1,8,0:0:0:0:
224,224,252640,1,0,0:0:0:0:
224,160,252705,1,8,0:0:0:0:
224,224,252770,1,0,0:0:0:0:
224,160,252899,1,8,0:0:0:0:
224,224,253094,1,0,0:0:0:0:
224,160,253289,1,8,0:0:0:0:
224,224,253484,1,0,0:0:0:0:
224,224,253549,1,0,0:0:0:0:
224,224,253614,1,0,0:0:0:0:
288,160,253679,1,12,0:0:0:0:
224,224,253873,1,0,0:0:0:0:
224,160,254068,1,8,0:0:0:0:
224,224,254263,1,0,0:0:0:0:
224,160,254458,1,8,0:0:0:0:
224,224,254653,1,0,0:0:0:0:
224,224,254750,1,0,0:0:0:0:
224,160,254847,1,8,0:0:0:0:
224,224,255042,1,0,0:0:0:0:
224,224,255140,1,0,0:0:0:0:
224,160,255237,1,8,0:0:0:0:
224,224,255432,1,0,0:0:0:0:
224,224,255497,1,0,0:0:0:0:
224,224,255562,1,0,0:0:0:0:
224,160,255627,1,8,0:0:0:0:
224,224,255822,1,0,0:0:0:0:
288,160,256016,1,12,0:0:0:0:
224,224,256406,1,0,0:0:0:0:
224,224,256601,1,0,0:0:0:0:
224,160,256796,1,8,0:0:0:0:
224,224,256990,1,0,0:0:0:0:
224,160,257088,1,8,0:0:0:0:
224,224,257185,1,0,0:0:0:0:
224,160,257250,1,8,0:0:0:0:
224,224,257315,1,0,0:0:0:0:
224,160,257380,1,8,0:0:0:0:
224,224,257445,1,0,0:0:0:0:
224,160,257575,1,8,0:0:0:0:
224,224,257770,1,0,0:0:0:0:
224,160,257964,1,8,0:0:0:0:
224,224,258159,1,0,0:0:0:0:
288,160,258354,1,12,0:0:0:0:
224,224,258744,1,0,0:0:0:0:
224,224,258938,1,0,0:0:0:0:
224,160,259133,1,8,0:0:0:0:
224,224,259328,1,0,0:0:0:0:
224,224,259425,1,0,0:0:0:0:
224,160,259523,1,8,0:0:0:0:
224,224,259718,1,0,0:0:0:0:
224,224,259815,1,0,0:0:0:0:
224,224,259912,1,0,0:0:0:0:
224,224,259977,1,0,0:0:0:0:
224,224,260042,1,0,0:0:0:0:
288,160,260107,1,12,0:0:0:0:
224,224,260302,1,0,0:0:0:0:
288,160,260497,1,12,0:0:0:0:
288,160,260692,1,12,0:0:0:0:
224,224,261081,1,0,0:0:0:0:
224,224,261276,1,0,0:0:0:0:
224,160,261471,1,8,0:0:0:0:
224,224,261666,1,0,0:0:0:0:
224,224,261860,1,0,0:0:0:0:
224,160,261925,1,8,0:0:0:0:
224,224,261990,1,0,0:0:0:0:
224,160,262055,1,8,0:0:0:0:
224,224,262120,1,0,0:0:0:0:
224,160,262250,1,8,0:0:0:0:
224,224,262445,1,0,0:0:0:0:
224,160,262640,1,8,0:0:0:0:
224,224,263029,1,0,0:0:0:0:
224,224,263224,1,0,0:0:0:0:
224,160,263419,1,8,0:0:0:0:
224,224,263614,1,0,0:0:0:0:
224,160,263809,1,8,0:0:0:0:
224,160,264003,1,8,0:0:0:0:
224,224,264198,1,0,0:0:0:0:
224,224,264393,1,0,0:0:0:0:
224,160,264588,1,8,0:0:0:0:
224,224,264783,1,0,0:0:0:0:
224,160,264977,5,8,0:0:0:0:
224,224,265172,5,0,0:0:0:0:
288,160,265367,5,12,0:0:0:0:
224,160,265757,1,8,0:0:0:0:
224,224,265951,1,0,0:0:0:0:
224,160,266146,1,8,0:0:0:0:
224,224,266341,1,0,0:0:0:0:
224,160,266438,1,8,0:0:0:0:
224,224,266536,5,0,0:0:0:0:
224,160,266601,1,8,0:0:0:0:
224,224,266666,1,0,0:0:0:0:
224,160,266731,1,8,0:0:0:0:
224,224,266796,1,0,0:0:0:0:
224,160,266925,1,8,0:0:0:0:
224,224,267120,1,0,0:0:0:0:
224,160,267315,1,8,0:0:0:0:
224,224,267510,1,0,0:0:0:0:
288,160,267705,1,12,0:0:0:0:
224,224,268094,1,0,0:0:0:0:
224,224,268289,1,0,0:0:0:0:
224,160,268484,1,8,0:0:0:0:
224,224,268679,5,0,0:0:0:0:
224,224,268744,1,0,0:0:0:0:
224,224,268809,1,0,0:0:0:0:
224,160,268873,1,8,0:0:0:0:
224,224,269068,1,0,0:0:0:0:
224,224,269263,1,0,0:0:0:0:
224,160,269458,1,8,0:0:0:0:
224,160,269653,1,8,0:0:0:0:
224,224,269847,1,0,0:0:0:0:
224,160,269912,1,8,0:0:0:0:
224,160,269977,1,8,0:0:0:0:
224,224,270042,1,0,0:0:0:0:
224,224,270432,1,0,0:0:0:0:
288,160,270822,1,12,0:0:0:0:
256,192,271211,2,0,L|256:160,4,17.500000667572
224,224,271601,1,0,0:0:0:0:
288,160,271990,1,12,0:0:0:0:
224,224,272380,1,0,0:0:0:0:
288,160,272770,1,12,0:0:0:0:
224,224,273159,1,0,0:0:0:0:
256,192,273354,2,0,L|256:160,6,17.500000667572
288,160,273938,1,12,0:0:0:0:
224,224,274328,1,0,0:0:0:0:
224,224,274718,1,0,0:0:0:0:
288,160,275107,1,12,0:0:0:0:
256,192,275497,2,0,L|256:160,4,17.500000667572
288,160,275886,1,12,0:0:0:0:
224,224,276276,1,0,0:0:0:0:
224,224,276666,1,0,0:0:0:0:
288,160,277055,1,12,0:0:0:0:
224,224,277445,1,0,0:0:0:0:
256,192,277835,2,0,L|256:160,4,17.500000667572
288,160,278224,1,12,0:0:0:0:
224,160,278614,1,8,0:0:0:0:
224,160,278679,1,8,0:0:0:0:
224,224,278744,1,0,0:0:0:0:
224,224,278809,1,0,0:0:0:0:
224,224,278873,1,0,0:0:0:0:
224,224,278938,1,0,0:0:0:0:
224,160,279003,1,8,0:0:0:0:
224,160,279068,1,8,0:0:0:0:
224,224,279133,1,0,0:0:0:0:
224,224,279198,1,0,0:0:0:0:
224,224,279263,1,0,0:0:0:0:
224,224,279328,1,0,0:0:0:0:
288,160,279393,1,12,0:0:0:0:
224,224,279523,1,0,0:0:0:0:
224,224,279653,1,0,0:0:0:0:
224,160,279783,1,8,0:0:0:0:
224,224,279847,1,0,0:0:0:0:
224,160,279912,1,8,0:0:0:0:
224,224,279977,1,0,0:0:0:0:
224,160,280042,1,8,0:0:0:0:
224,224,280107,1,0,0:0:0:0:
224,160,280172,1,8,0:0:0:0:
224,224,280302,1,0,0:0:0:0:
224,224,280367,1,0,0:0:0:0:
224,224,280432,1,0,0:0:0:0:
224,160,280562,1,8,0:0:0:0:
224,160,280627,1,8,0:0:0:0:
224,160,280692,1,8,0:0:0:0:
224,160,280757,1,8,0:0:0:0:
224,224,280822,1,0,0:0:0:0:
224,224,280886,1,0,0:0:0:0:
224,160,280951,1,8,0:0:0:0:
224,160,281016,1,8,0:0:0:0:
224,160,281081,1,8,0:0:0:0:
224,160,281146,1,8,0:0:0:0:
224,224,281211,1,0,0:0:0:0:
224,224,281276,1,0,0:0:0:0:
224,160,281341,1,8,0:0:0:0:
224,160,281406,1,8,0:0:0:0:
224,160,281471,1,8,0:0:0:0:
224,160,281536,1,8,0:0:0:0:
224,224,281601,1,0,0:0:0:0:
288,160,281731,1,12,0:0:0:0:
224,224,281860,1,0,0:0:0:0:
224,224,281990,1,0,0:0:0:0:
224,160,282120,1,8,0:0:0:0:
224,224,282185,1,0,0:0:0:0:
224,160,282250,1,8,0:0:0:0:
224,224,282315,1,0,0:0:0:0:
224,160,282380,1,8,0:0:0:0:
224,224,282445,1,0,0:0:0:0:
224,160,282510,1,8,0:0:0:0:
224,224,282640,1,0,0:0:0:0:
224,224,282705,1,0,0:0:0:0:
224,224,282770,1,0,0:0:0:0:
224,160,282899,1,8,0:0:0:0:
224,160,282964,1,8,0:0:0:0:
224,160,283029,1,8,0:0:0:0:
224,160,283094,1,8,0:0:0:0:
224,224,283159,1,0,0:0:0:0:
224,224,283224,1,0,0:0:0:0:
224,160,283289,1,8,0:0:0:0:
224,160,283354,1,8,0:0:0:0:
224,224,283419,1,0,0:0:0:0:
224,224,283484,1,0,0:0:0:0:
224,224,283549,1,0,0:0:0:0:
288,160,283679,1,12,0:0:0:0:
224,224,283809,1,0,0:0:0:0:
224,224,283873,1,0,0:0:0:0:
224,224,283938,1,0,0:0:0:0:
288,160,284068,1,12,0:0:0:0:
224,224,284198,1,0,0:0:0:0:
224,224,284328,1,0,0:0:0:0:
224,160,284458,1,8,0:0:0:0:
224,224,284523,1,0,0:0:0:0:
224,160,284588,1,8,0:0:0:0:
224,224,284653,1,0,0:0:0:0:
224,160,284718,1,8,0:0:0:0:
224,224,284783,1,0,0:0:0:0:
224,160,284847,1,8,0:0:0:0:
224,224,284977,1,0,0:0:0:0:
224,224,285042,1,0,0:0:0:0:
224,224,285107,1,0,0:0:0:0:
224,224,285237,1,0,0:0:0:0:
224,224,285302,1,0,0:0:0:0:
224,224,285367,1,0,0:0:0:0:
224,160,285432,1,8,0:0:0:0:
224,160,285497,1,8,0:0:0:0:
224,160,285562,1,8,0:0:0:0:
224,224,285627,1,0,0:0:0:0:
224,224,285692,1,0,0:0:0:0:
224,224,285757,1,0,0:0:0:0:
224,224,285822,1,0,0:0:0:0:
224,224,285886,1,0,0:0:0:0:
224,224,285951,1,0,0:0:0:0:
224,160,286016,1,8,0:0:0:0:
224,160,286081,1,8,0:0:0:0:
224,224,286146,1,0,0:0:0:0:
224,224,286276,1,0,0:0:0:0:
288,160,286406,1,12,0:0:0:0:
224,224,286536,1,0,0:0:0:0:
224,224,286666,1,0,0:0:0:0:
224,160,286796,1,8,0:0:0:0:
224,224,286860,1,0,0:0:0:0:
224,160,286925,1,8,0:0:0:0:
224,224,286990,1,0,0:0:0:0:
224,160,287055,1,8,0:0:0:0:
288,160,287185,1,12,0:0:0:0:
224,224,287315,1,0,0:0:0:0:
224,224,287380,1,0,0:0:0:0:
224,224,287445,1,0,0:0:0:0:
224,160,287575,1,8,0:0:0:0:
224,224,287640,1,0,0:0:0:0:
224,160,287705,1,8,0:0:0:0:
224,224,287770,1,0,0:0:0:0:
224,160,287835,1,8,0:0:0:0:
224,224,287899,1,0,0:0:0:0:
224,160,287964,1,8,0:0:0:0:
224,160,288029,1,8,0:0:0:0:
224,224,288094,1,0,0:0:0:0:
224,224,288159,1,0,0:0:0:0:
224,224,288224,1,0,0:0:0:0:
224,224,288289,1,0,0:0:0:0:
224,160,288354,1,8,0:0:0:0:
224,160,288419,1,8,0:0:0:0:
224,224,288484,1,0,0:0:0:0:
224,224,288549,1,0,0:0:0:0:
224,224,288614,1,0,0:0:0:0:
288,160,288744,1,12,0:0:0:0:
224,224,288873,1,0,0:0:0:0:
224,224,289003,1,0,0:0:0:0:
224,224,289068,1,0,0:0:0:0:
224,160,289133,1,8,0:0:0:0:
224,224,289198,1,0,0:0:0:0:
224,160,289263,1,8,0:0:0:0:
224,224,289328,1,0,0:0:0:0:
224,160,289393,1,8,0:0:0:0:
224,224,289458,1,0,0:0:0:0:
224,160,289523,1,8,0:0:0:0:
224,224,289653,1,0,0:0:0:0:
224,224,289718,1,0,0:0:0:0:
224,224,289783,1,0,0:0:0:0:
224,160,289912,1,8,0:0:0:0:
224,160,289977,1,8,0:0:0:0:
224,160,290042,1,8,0:0:0:0:
224,160,290107,1,8,0:0:0:0:
224,224,290172,1,0,0:0:0:0:
224,224,290237,1,0,0:0:0:0:
224,160,290302,1,8,0:0:0:0:
224,160,290367,1,8,0:0:0:0:
224,160,290432,1,8,0:0:0:0:
224,160,290497,1,8,0:0:0:0:
224,224,290562,1,0,0:0:0:0:
224,224,290627,1,0,0:0:0:0:
224,160,290692,1,8,0:0:0:0:
224,160,290757,1,8,0:0:0:0:
224,160,290822,1,8,0:0:0:0:
224,160,290886,1,8,0:0:0:0:
224,224,290951,1,0,0:0:0:0:
288,160,291081,1,12,0:0:0:0:
224,224,291211,1,0,0:0:0:0:
224,224,291276,1,0,0:0:0:0:
224,224,291341,1,0,0:0:0:0:
224,224,291406,1,0,0:0:0:0:
224,160,291471,1,8,0:0:0:0:
224,224,291536,1,0,0:0:0:0:
224,160,291601,1,8,0:0:0:0:
224,224,291666,1,0,0:0:0:0:
224,160,291731,1,8,0:0:0:0:
224,224,291796,1,0,0:0:0:0:
224,160,291860,1,8,0:0:0:0:
224,224,291990,1,0,0:0:0:0:
224,224,292055,1,0,0:0:0:0:
224,224,292120,1,0,0:0:0:0:
224,224,292250,1,0,0:0:0:0:
224,224,292315,1,0,0:0:0:0:
224,160,292380,1,8,0:0:0:0:
224,160,292445,1,8,0:0:0:0:
224,224,292510,1,0,0:0:0:0:
224,224,292575,1,0,0:0:0:0:
224,160,292640,1,8,0:0:0:0:
224,160,292705,1,8,0:0:0:0:
224,224,292770,1,0,0:0:0:0:
224,224,292835,1,0,0:0:0:0:
224,224,292899,1,0,0:0:0:0:
224,160,293029,1,8,0:0:0:0:
224,160,293094,1,8,0:0:0:0:
224,160,293159,1,8,0:0:0:0:
224,160,293224,1,8,0:0:0:0:
224,224,293289,1,0,0:0:0:0:
224,224,293354,1,0,0:0:0:0:
288,160,293419,1,12,0:0:0:0:
224,224,293549,1,0,0:0:0:0:
224,224,293614,1,0,0:0:0:0:
224,224,293679,1,0,0:0:0:0:
224,224,293744,1,0,0:0:0:0:
224,160,293809,1,8,0:0:0:0:
224,224,293873,1,0,0:0:0:0:
224,160,293938,1,8,0:0:0:0:
224,224,294003,1,0,0:0:0:0:
224,160,294068,1,8,0:0:0:0:
224,224,294133,1,0,0:0:0:0:
224,160,294198,1,8,0:0:0:0:
224,224,294328,1,0,0:0:0:0:
224,224,294393,1,0,0:0:0:0:
224,224,294458,1,0,0:0:0:0:
224,224,294588,1,0,0:0:0:0:
224,224,294653,1,0,0:0:0:0:
224,224,294718,1,0,0:0:0:0:
224,160,294783,1,8,0:0:0:0:
224,160,294848,1,8,0:0:0:0:
224,160,294913,1,8,0:0:0:0:
224,224,294977,1,0,0:0:0:0:
224,224,295042,1,0,0:0:0:0:
224,224,295107,1,0,0:0:0:0:
224,224,295172,1,0,0:0:0:0:
224,224,295237,1,0,0:0:0:0:
224,224,295302,1,0,0:0:0:0:
224,160,295367,1,8,0:0:0:0:
224,160,295432,1,8,0:0:0:0:
224,224,295497,1,0,0:0:0:0:
224,224,295627,1,0,0:0:0:0:
288,160,295757,1,12,0:0:0:0:
224,224,295886,1,0,0:0:0:0:
224,224,296016,1,0,0:0:0:0:
224,160,296146,1,8,0:0:0:0:
224,224,296211,1,0,0:0:0:0:
224,160,296276,1,8,0:0:0:0:
224,224,296341,1,0,0:0:0:0:
224,160,296406,1,8,0:0:0:0:
224,224,296471,1,0,0:0:0:0:
224,160,296536,1,8,0:0:0:0:
224,224,296633,1,0,0:0:0:0:
224,224,296731,1,0,0:0:0:0:
224,224,296828,1,0,0:0:0:0:
224,160,296925,1,8,0:0:0:0:
224,160,296990,1,8,0:0:0:0:
224,160,297055,1,8,0:0:0:0:
224,224,297120,1,0,0:0:0:0:
224,224,297218,1,0,0:0:0:0:
288,160,297315,1,12,0:0:0:0:
288,224,298094,5,4,0:0:0:0:
224,160,298275,1,8,0:0:0:0:
224,160,298336,1,8,0:0:0:0:
224,160,298397,1,8,0:0:0:0:
224,160,298457,1,8,0:0:0:0:
224,224,298639,1,0,0:0:0:0:
224,160,298821,1,8,0:0:0:0:
224,224,299003,1,0,0:0:0:0:
224,224,299094,5,0,0:0:0:0:
224,160,299184,1,8,0:0:0:0:
224,224,299366,5,0,0:0:0:0:
224,160,299548,1,8,0:0:0:0:
224,160,299821,1,8,0:0:0:0:
224,160,299912,1,8,0:0:0:0:
224,160,300094,1,8,0:0:0:0:
224,224,300184,1,0,0:0:0:0:
224,224,300275,1,0,0:0:0:0:
224,160,300366,1,8,0:0:0:0:
224,160,300457,1,8,0:0:0:0:
224,224,300548,1,0,0:0:0:0:
224,160,300639,1,8,0:0:0:0:
224,224,300730,1,0,0:0:0:0:
224,224,300821,1,0,0:0:0:0:
224,224,300881,1,0,0:0:0:0:
224,224,300942,1,0,0:0:0:0:
288,160,301003,5,12,0:0:0:0:
224,224,301184,1,0,0:0:0:0:
224,160,301366,1,8,0:0:0:0:
224,224,301548,1,0,0:0:0:0:
224,160,301730,1,8,0:0:0:0:
224,224,301912,1,0,0:0:0:0:
288,160,302094,5,12,0:0:0:0:
224,160,302457,1,8,0:0:0:0:
224,224,302639,1,0,0:0:0:0:
224,224,302821,1,0,0:0:0:0:
224,160,303184,1,8,0:0:0:0:
224,160,303548,1,8,0:0:0:0:
224,224,303730,1,0,0:0:0:0:
288,224,303912,5,4,0:0:0:0:
224,160,304275,1,8,0:0:0:0:
224,224,304457,1,0,0:0:0:0:
224,160,304639,1,8,0:0:0:0:
224,224,304821,1,0,0:0:0:0:
288,224,305003,5,4,0:0:0:0:
224,160,305366,1,8,0:0:0:0:
224,224,305548,1,0,0:0:0:0:
224,224,305730,1,0,0:0:0:0:
224,160,306094,1,8,0:0:0:0:
224,160,306457,1,8,0:0:0:0:
288,224,306821,5,4,0:0:0:0:
224,224,307003,1,0,0:0:0:0:
224,160,307184,1,8,0:0:0:0:
224,224,307366,1,0,0:0:0:0:
224,160,307548,1,8,0:0:0:0:
224,224,307730,1,0,0:0:0:0:
288,160,307912,5,12,0:0:0:0:
224,160,308275,1,8,0:0:0:0:
224,224,308457,1,0,0:0:0:0:
288,160,308639,5,12,0:0:0:0:
224,160,308821,1,8,0:0:0:0:
224,224,308881,1,0,0:0:0:0:
224,224,308942,1,0,0:0:0:0:
224,160,309003,1,8,0:0:0:0:
224,160,309124,1,8,0:0:0:0:
224,224,309245,1,0,0:0:0:0:
224,160,309366,1,8,0:0:0:0:
224,160,309487,1,8,0:0:0:0:
224,224,309609,1,0,0:0:0:0:
288,160,309730,5,12,0:0:0:0:
224,224,309851,1,0,0:0:0:0:
224,224,309972,1,0,0:0:0:0:
224,160,310094,1,8,0:0:0:0:
224,224,310215,1,0,0:0:0:0:
224,224,310336,1,0,0:0:0:0:
224,160,310457,1,8,0:0:0:0:
224,160,310578,1,8,0:0:0:0:
224,224,310700,1,0,0:0:0:0:
224,160,310821,1,8,0:0:0:0:
224,224,310942,1,0,0:0:0:0:
224,224,311063,1,0,0:0:0:0:
224,160,311184,1,8,0:0:0:0:
224,224,311306,1,0,0:0:0:0:
224,224,311427,1,0,0:0:0:0:
224,160,311548,1,8,0:0:0:0:
224,224,311669,1,0,0:0:0:0:
224,224,311790,1,0,0:0:0:0:
224,160,311912,1,8,0:0:0:0:
224,224,312033,1,0,0:0:0:0:
224,224,312154,1,0,0:0:0:0:
224,160,312275,1,8,0:0:0:0:
224,160,312397,1,8,0:0:0:0:
224,224,312518,1,0,0:0:0:0:
224,160,312639,1,8,0:0:0:0:
224,224,312760,1,0,0:0:0:0:
224,224,312881,1,0,0:0:0:0:
224,160,313003,1,8,0:0:0:0:
224,224,313124,1,0,0:0:0:0:
224,224,313245,1,0,0:0:0:0:
224,160,313366,1,8,0:0:0:0:
224,160,313487,1,8,0:0:0:0:
224,224,313609,1,0,0:0:0:0:
224,160,313730,1,8,0:0:0:0:
224,224,313851,1,0,0:0:0:0:
224,224,313972,1,0,0:0:0:0:
224,160,314094,1,8,0:0:0:0:
224,224,314215,1,0,0:0:0:0:
224,224,314336,1,0,0:0:0:0:
224,160,314457,1,8,0:0:0:0:
224,224,314548,1,0,0:0:0:0:
224,224,314639,1,0,0:0:0:0:
224,224,314730,1,0,0:0:0:0:
224,160,314821,1,8,0:0:0:0:
224,224,314942,1,0,0:0:0:0:
224,224,315063,1,0,0:0:0:0:
224,160,315184,1,8,0:0:0:0:
224,224,315275,1,0,0:0:0:0:
224,224,315366,1,0,0:0:0:0:
224,224,315457,1,0,0:0:0:0:
224,160,315548,1,8,0:0:0:0:
224,224,315639,1,0,0:0:0:0:
224,224,315730,1,0,0:0:0:0:
224,224,315821,1,0,0:0:0:0:
224,160,315912,1,8,0:0:0:0:
224,224,316003,1,0,0:0:0:0:
224,224,316094,1,0,0:0:0:0:
224,224,316184,1,0,0:0:0:0:
224,160,316275,1,8,0:0:0:0:
224,160,316366,1,8,0:0:0:0:
224,224,316457,1,0,0:0:0:0:
224,224,316548,1,0,0:0:0:0:
224,160,316639,1,8,0:0:0:0:
224,224,316730,1,0,0:0:0:0:
224,224,316821,1,0,0:0:0:0:
224,224,316912,1,0,0:0:0:0:
224,160,317003,1,8,0:0:0:0:
224,160,317094,1,8,0:0:0:0:
224,224,317184,1,0,0:0:0:0:
224,224,317275,1,0,0:0:0:0:
224,160,317366,1,8,0:0:0:0:
224,224,317457,1,0,0:0:0:0:
224,224,317548,1,0,0:0:0:0:
224,224,317639,1,0,0:0:0:0:
224,160,317730,1,8,0:0:0:0:
224,160,317821,1,8,0:0:0:0:
224,224,317912,1,0,0:0:0:0:
224,224,318003,1,0,0:0:0:0:
224,160,318094,1,8,0:0:0:0:
224,224,318184,1,0,0:0:0:0:
224,224,318275,1,0,0:0:0:0:
224,224,318366,1,0,0:0:0:0:
224,160,318457,1,8,0:0:0:0:
224,224,318548,1,0,0:0:0:0:
224,224,318639,1,0,0:0:0:0:
224,224,318730,1,0,0:0:0:0:
224,160,318821,1,8,0:0:0:0:
224,224,318912,1,0,0:0:0:0:
224,224,319003,1,0,0:0:0:0:
224,224,319094,1,0,0:0:0:0:
224,160,319184,1,8,0:0:0:0:
224,160,319275,1,8,0:0:0:0:
224,224,319366,1,0,0:0:0:0:
224,160,319457,1,8,0:0:0:0:
224,224,319548,5,0,0:0:0:0:
224,224,319609,1,0,0:0:0:0:
224,224,319669,1,0,0:0:0:0:
224,160,319730,1,8,0:0:0:0:
224,160,319912,1,8,0:0:0:0:
224,160,319972,1,8,0:0:0:0:
224,160,320033,1,8,0:0:0:0:
224,224,320094,1,0,0:0:0:0:
224,224,320184,1,0,0:0:0:0:
224,160,320275,1,8,0:0:0:0:
224,160,320336,1,8,0:0:0:0:
224,224,320397,1,0,0:0:0:0:
224,224,320457,1,0,0:0:0:0:
224,224,320548,1,0,0:0:0:0:
224,160,320639,1,8,0:0:0:0:
224,160,320700,1,8,0:0:0:0:
224,160,320760,1,8,0:0:0:0:
224,224,320821,1,0,0:0:0:0:
224,224,320912,1,0,0:0:0:0:
224,160,321003,1,8,0:0:0:0:
224,224,321094,1,0,0:0:0:0:
224,160,321184,1,8,0:0:0:0:
224,160,321275,1,8,0:0:0:0:
288,224,321366,5,4,0:0:0:0:
224,160,321730,1,8,0:0:0:0:
224,224,321912,1,0,0:0:0:0:
224,160,322094,1,8,0:0:0:0:
224,224,322275,1,0,0:0:0:0:
288,224,322457,5,4,0:0:0:0:
224,160,322821,1,8,0:0:0:0:
224,224,323003,1,0,0:0:0:0:
224,224,323184,1,0,0:0:0:0:
224,160,323548,1,8,0:0:0:0:
224,160,323912,1,8,0:0:0:0:
224,160,324094,1,8,0:0:0:0:
288,224,324275,5,4,0:0:0:0:
224,224,324457,1,0,0:0:0:0:
224,160,324639,1,8,0:0:0:0:
224,224,324821,1,0,0:0:0:0:
224,160,325003,1,8,0:0:0:0:
224,224,325184,1,0,0:0:0:0:
288,160,325366,5,12,0:0:0:0:
224,160,325730,1,8,0:0:0:0:
224,224,325912,1,0,0:0:0:0:
224,224,326094,1,0,0:0:0:0:
224,160,326457,1,8,0:0:0:0:
224,224,326639,1,0,0:0:0:0:
224,224,326700,1,0,0:0:0:0:
224,224,326760,1,0,0:0:0:0:
224,160,326821,1,8,0:0:0:0:
224,224,327003,1,0,0:0:0:0:
288,224,327184,1,4,0:0:0:0:
224,160,327548,1,8,0:0:0:0:
224,224,327730,1,0,0:0:0:0:
224,160,327912,1,8,0:0:0:0:
224,224,328094,1,0,0:0:0:0:
288,224,328275,5,4,0:0:0:0:
224,160,328639,1,8,0:0:0:0:
224,224,328821,1,0,0:0:0:0:
224,224,329003,1,0,0:0:0:0:
224,160,329366,1,8,0:0:0:0:
224,224,329548,1,0,0:0:0:0:
224,160,329730,1,8,0:0:0:0:
224,160,329912,1,8,0:0:0:0:
288,224,330094,5,4,0:0:0:0:
224,224,330275,1,0,0:0:0:0:
224,160,330457,1,8,0:0:0:0:
224,224,330639,1,0,0:0:0:0:
224,160,330821,1,8,0:0:0:0:
224,224,331003,1,0,0:0:0:0:
224,224,331063,1,0,0:0:0:0:
224,224,331124,1,0,0:0:0:0:
224,160,331184,5,8,0:0:0:0:
224,224,331366,1,0,0:0:0:0:
224,160,331548,1,8,0:0:0:0:
224,224,331730,1,0,0:0:0:0:
224,160,331912,5,8,0:0:0:0:
224,224,332094,1,0,0:0:0:0:
224,224,332184,1,0,0:0:0:0:
224,160,332275,1,8,0:0:0:0:
224,224,332457,1,0,0:0:0:0:
224,160,332639,1,8,0:0:0:0:
288,160,333003,1,12,0:0:0:0:
288,224,333548,1,4,0:0:0:0:
288,160,334094,1,12,0:0:0:0:
224,160,334215,1,8,0:0:0:0:
224,160,334275,1,8,0:0:0:0:
224,160,334336,1,8,0:0:0:0:
224,160,334397,1,8,0:0:0:0:
224,224,334457,1,0,0:0:0:0:
224,224,334518,1,0,0:0:0:0:
224,224,334578,1,0,0:0:0:0:
224,224,334639,1,0,0:0:0:0:
224,224,334700,1,0,0:0:0:0:
224,224,334760,1,0,0:0:0:0:
224,160,334821,1,8,0:0:0:0:
224,224,334942,1,0,0:0:0:0:
224,224,335063,1,0,0:0:0:0:
224,160,335184,1,8,0:0:0:0:
224,160,335245,1,8,0:0:0:0:
224,160,335306,1,8,0:0:0:0:
224,160,335366,1,8,0:0:0:0:
224,224,335427,1,0,0:0:0:0:
224,224,335548,1,0,0:0:0:0:
224,160,335639,1,8,0:0:0:0:
224,224,335730,1,0,0:0:0:0:
224,224,335821,1,0,0:0:0:0:
288,160,335912,1,12,0:0:0:0:
288,224,336457,1,4,0:0:0:0:
288,160,337003,1,12,0:0:0:0:
224,160,337730,1,8,0:0:0:0:
224,160,337790,1,8,0:0:0:0:
224,224,337851,1,0,0:0:0:0:
224,224,337912,1,0,0:0:0:0:
224,224,337972,1,0,0:0:0:0:
224,160,338094,1,8,0:0:0:0:
224,160,338215,1,8,0:0:0:0:
224,160,338336,1,8,0:0:0:0:
224,224,338457,1,0,0:0:0:0:
224,224,338548,1,0,0:0:0:0:
224,224,338639,1,0,0:0:0:0:
224,224,338700,1,0,0:0:0:0:
224,224,338760,1,0,0:0:0:0:
288,160,338821,1,12,0:0:0:0:
224,224,338991,1,0,0:0:0:0:
224,224,339076,1,0,0:0:0:0:
224,224,339161,1,0,0:0:0:0:
224,224,339218,1,0,0:0:0:0:
224,224,339275,1,0,0:0:0:0:
288,160,339332,1,12,0:0:0:0:
224,224,339502,1,0,0:0:0:0:
224,224,339588,1,0,0:0:0:0:
224,224,339673,1,0,0:0:0:0:
224,224,339730,1,0,0:0:0:0:
224,224,339786,1,0,0:0:0:0:
288,160,339843,1,12,0:0:0:0:
224,160,340525,1,8,0:0:0:0:
224,160,340582,1,8,0:0:0:0:
224,160,340639,1,8,0:0:0:0:
224,160,340696,1,8,0:0:0:0:
224,224,340752,1,0,0:0:0:0:
224,224,340809,1,0,0:0:0:0:
224,160,340866,1,8,0:0:0:0:
224,160,340923,1,8,0:0:0:0:
224,224,340980,1,0,0:0:0:0:
224,224,341036,1,0,0:0:0:0:
224,224,341093,1,0,0:0:0:0:
224,224,341150,1,0,0:0:0:0:
224,160,341207,1,8,0:0:0:0:
224,224,341264,1,0,0:0:0:0:
224,224,341321,1,0,0:0:0:0:
224,224,341377,1,0,0:0:0:0:
224,224,341434,1,0,0:0:0:0:
224,224,341491,1,0,0:0:0:0:
288,160,341548,1,12,0:0:0:0:
224,224,341718,1,0,0:0:0:0:
224,224,341803,1,0,0:0:0:0:
224,160,341888,1,8,0:0:0:0:
224,224,341974,1,0,0:0:0:0:
224,160,342059,1,8,0:0:0:0:
224,160,342144,1,8,0:0:0:0:
224,224,342229,1,0,0:0:0:0:
224,160,342315,1,8,0:0:0:0:
224,224,342400,1,0,0:0:0:0:
224,224,342485,1,0,0:0:0:0:
224,160,342570,1,8,0:0:0:0:
224,224,342655,1,0,0:0:0:0:
224,224,342741,1,0,0:0:0:0:
224,224,342826,1,0,0:0:0:0:
224,160,342911,1,8,0:0:0:0:
224,224,342996,1,0,0:0:0:0:
224,160,343082,1,8,0:0:0:0:
224,160,343167,1,8,0:0:0:0:
224,224,343252,1,0,0:0:0:0:
224,160,343337,1,8,0:0:0:0:
224,224,343423,1,0,0:0:0:0:
224,224,343508,1,0,0:0:0:0:
224,160,343593,1,8,0:0:0:0:
224,224,343678,1,0,0:0:0:0:
224,224,343763,1,0,0:0:0:0:
224,224,343849,1,0,0:0:0:0:
224,160,343934,1,8,0:0:0:0:
224,224,344019,1,0,0:0:0:0:
224,160,344104,1,8,0:0:0:0:
224,160,344190,1,8,0:0:0:0:
224,224,344275,1,0,0:0:0:0:
224,160,344360,1,8,0:0:0:0:
224,160,344445,1,8,0:0:0:0:
224,224,344530,1,0,0:0:0:0:
224,160,344616,5,8,0:0:0:0:
224,224,344701,1,0,0:0:0:0:
224,160,344786,1,8,0:0:0:0:
224,160,344871,1,8,0:0:0:0:
224,224,344957,1,0,0:0:0:0:
224,224,345042,1,0,0:0:0:0:
224,160,345127,1,8,0:0:0:0:
224,224,345212,1,0,0:0:0:0:
288,160,345298,1,12,0:0:0:0:
224,224,345468,1,0,0:0:0:0:
224,224,345553,1,0,0:0:0:0:
224,160,345638,1,8,0:0:0:0:
224,224,345724,1,0,0:0:0:0:
224,160,345809,1,8,0:0:0:0:
224,160,345894,1,8,0:0:0:0:
224,224,345979,1,0,0:0:0:0:
224,160,346065,1,8,0:0:0:0:
224,224,346150,1,0,0:0:0:0:
224,224,346235,1,0,0:0:0:0:
224,160,346320,1,8,0:0:0:0:
224,224,346405,1,0,0:0:0:0:
224,224,346491,1,0,0:0:0:0:
224,224,346576,1,0,0:0:0:0:
224,160,346661,1,8,0:0:0:0:
224,224,346746,1,0,0:0:0:0:
224,160,346832,1,8,0:0:0:0:
224,224,346917,1,0,0:0:0:0:
224,160,347002,1,8,0:0:0:0:
224,224,347087,5,0,0:0:0:0:
224,224,347173,5,0,0:0:0:0:
224,224,347229,1,0,0:0:0:0:
224,224,347286,1,0,0:0:0:0:
224,160,347343,1,8,0:0:0:0:
224,160,347428,1,8,0:0:0:0:
224,224,347513,1,0,0:0:0:0:
224,224,347570,1,0,0:0:0:0:
224,224,347627,1,0,0:0:0:0:
224,160,347684,1,8,0:0:0:0:
224,160,347769,1,8,0:0:0:0:
224,224,347854,1,0,0:0:0:0:
224,224,347911,1,0,0:0:0:0:
224,224,347968,1,0,0:0:0:0:
288,160,348025,1,12,0:0:0:0:
224,224,348195,1,0,0:0:0:0:
224,224,348280,1,0,0:0:0:0:
224,160,348365,1,8,0:0:0:0:
224,224,348451,1,0,0:0:0:0:
224,160,348536,1,8,0:0:0:0:
224,160,348621,1,8,0:0:0:0:
224,224,348706,1,0,0:0:0:0:
224,160,348792,1,8,0:0:0:0:
224,224,348877,1,0,0:0:0:0:
224,224,348962,1,0,0:0:0:0:
224,160,349047,1,8,0:0:0:0:
224,224,349132,1,0,0:0:0:0:
224,224,349218,1,0,0:0:0:0:
224,224,349303,1,0,0:0:0:0:
224,160,349388,1,8,0:0:0:0:
224,224,349473,1,0,0:0:0:0:
224,160,349559,1,8,0:0:0:0:
224,160,349644,1,8,0:0:0:0:
224,224,349729,1,0,0:0:0:0:
224,160,349814,1,8,0:0:0:0:
224,224,349900,1,0,0:0:0:0:
224,224,349985,1,0,0:0:0:0:
224,160,350070,1,8,0:0:0:0:
224,224,350155,1,0,0:0:0:0:
224,224,350240,1,0,0:0:0:0:
224,224,350326,1,0,0:0:0:0:
224,160,350411,1,8,0:0:0:0:
224,224,350496,1,0,0:0:0:0:
224,160,350581,1,8,0:0:0:0:
224,160,350667,1,8,0:0:0:0:
224,224,350752,1,0,0:0:0:0:
224,160,350837,1,8,0:0:0:0:
224,160,350922,1,8,0:0:0:0:
224,224,351007,1,0,0:0:0:0:
224,160,351093,5,8,0:0:0:0:
224,224,351178,1,0,0:0:0:0:
224,160,351263,1,8,0:0:0:0:
224,160,351348,1,8,0:0:0:0:
224,224,351434,1,0,0:0:0:0:
224,224,351519,1,0,0:0:0:0:
224,160,351604,1,8,0:0:0:0:
224,224,351689,1,0,0:0:0:0:
288,160,351775,1,12,0:0:0:0:
224,224,351945,1,0,0:0:0:0:
224,224,352030,1,0,0:0:0:0:
224,160,352115,1,8,0:0:0:0:
224,224,352201,1,0,0:0:0:0:
224,160,352286,1,8,0:0:0:0:
224,160,352371,1,8,0:0:0:0:
224,224,352456,1,0,0:0:0:0:
224,160,352542,1,8,0:0:0:0:
224,224,352627,1,0,0:0:0:0:
224,224,352712,1,0,0:0:0:0:
224,160,352797,1,8,0:0:0:0:
224,224,352882,1,0,0:0:0:0:
224,224,352968,1,0,0:0:0:0:
224,224,353053,1,0,0:0:0:0:
224,160,353138,1,8,0:0:0:0:
224,224,353223,1,0,0:0:0:0:
224,160,353309,1,8,0:0:0:0:
224,160,353394,1,8,0:0:0:0:
224,160,353479,1,8,0:0:0:0:
224,224,353564,1,0,0:0:0:0:
224,224,353650,5,0,0:0:0:0:
224,160,353735,5,8,0:0:0:0:
224,160,353820,1,8,0:0:0:0:
224,224,353905,1,0,0:0:0:0:
224,224,353990,1,0,0:0:0:0:
224,224,354076,1,0,0:0:0:0:
224,160,354161,1,8,0:0:0:0:
224,160,354246,1,8,0:0:0:0:
224,224,354331,1,0,0:0:0:0:
224,224,354388,1,0,0:0:0:0:
224,224,354445,1,0,0:0:0:0:
288,160,354502,1,12,0:0:0:0:
224,160,354843,1,8,0:0:0:0:
224,160,354928,1,8,0:0:0:0:
224,224,355013,1,0,0:0:0:0:
224,224,355098,1,0,0:0:0:0:
224,160,355184,1,8,0:0:0:0:
224,160,355269,1,8,0:0:0:0:
224,224,355354,1,0,0:0:0:0:
224,224,355411,1,0,0:0:0:0:
224,224,355468,1,0,0:0:0:0:
288,160,355525,1,12,0:0:0:0:
224,160,355865,1,8,0:0:0:0:
224,160,355951,1,8,0:0:0:0:
224,224,356036,1,0,0:0:0:0:
224,224,356121,1,0,0:0:0:0:
224,160,356206,1,8,0:0:0:0:
224,160,356292,1,8,0:0:0:0:
224,224,356377,1,0,0:0:0:0:
224,224,356434,1,0,0:0:0:0:
224,224,356490,1,0,0:0:0:0:
288,160,356547,5,12,0:0:0:0:
224,160,356888,1,8,0:0:0:0:
224,160,356973,1,8,0:0:0:0:
224,224,357059,1,0,0:0:0:0:
224,224,357144,1,0,0:0:0:0:
224,160,357229,1,8,0:0:0:0:
224,160,357314,1,8,0:0:0:0:
224,224,357400,1,0,0:0:0:0:
224,224,357456,1,0,0:0:0:0:
224,224,357513,1,0,0:0:0:0:
288,160,357570,1,12,0:0:0:0:
256,192,357911,12,0,358934,0:0:0:0:
