osu file format v14

[General]
AudioFilename: audio.mp3
AudioLeadIn: 0
PreviewTime: 26194
Countdown: 0
SampleSet: Soft
StackLeniency: 0.7
Mode: 0
LetterboxInBreaks: 0
WidescreenStoryboard: 1

[Editor]
DistanceSpacing: 0.5
BeatDivisor: 4
GridSize: 32
TimelineZoom: 2.3

[Metadata]
Title:Thinkin' About U (Cut Ver.)
TitleUnicode:Thinkin' About U (Cut Ver.)
Artist:EmoCosine
ArtistUnicode:EmoCosine
Creator:Laquarius
Version:Normal
Source:
Tags:ayate ayayabob electronic TERRA-FORMING TERRAGAZER jersey club instrumental dance yae miko terraforming terra forming featured artist fa thinking you love kills ep
BeatmapID:3480125
BeatmapSetID:1703282

[Difficulty]
HPDrainRate:3
CircleSize:3
OverallDifficulty:4
ApproachRate:5
SliderMultiplier:1.00000000596046
SliderTickRate:1

[Events]
//Background and Video events
0,0,"yae.jpg",0,0
//Break Periods
//Storyboard Layer 0 (Background)
//Storyboard Layer 1 (Fail)
//Storyboard Layer 2 (Pass)
//Storyboard Layer 3 (Foreground)
//Storyboard Layer 4 (Overlay)
//Storyboard Sound Samples

[TimingPoints]
2236,375,4,2,0,70,1,0
26236,-80,4,2,0,90,0,0
36736,-80,4,2,0,70,0,0
38236,-80,4,2,0,90,0,1
41236,-80,4,2,0,80,0,0
50236,-80,4,2,0,90,0,1
60736,-80,4,2,0,80,0,1
62236,-80,4,2,0,80,0,0

[Colours]
Combo1 : 140,255,198
Combo2 : 255,128,192
Combo3 : 255,255,128
Combo4 : 56,207,224
Combo5 : 141,164,252
Combo6 : 255,0,0
Combo7 : 255,128,128
Combo8 : 165,74,255

[HitObjects]
38,141,2236,38,0,B|135:149|116:211|231:221,1,200.000001192092,4|8,1:0|0:0,0:0:0:0:
292,168,3361,1,2,0:3:0:0:
361,225,3736,2,0,L|340:336,1,100.000000596046,0|2,1:0|0:3,0:0:0:0:
413,378,4486,1,10,0:0:0:0:
496,218,5236,70,0,P|485:125|372:93,1,200.000001192092,2|8,1:2|0:0,0:0:0:0:
337,17,6361,1,2,0:3:0:0:
269,76,6736,2,0,B|253:121|253:121|271:169,1,100.000000596046,0|2,1:0|0:3,0:0:0:0:
351,212,7486,2,0,B|369:260|369:260|353:305,1,100.000000596046,10|0,0:0|1:0,0:0:0:0:
277,354,8236,38,0,P|72:329|41:323,1,200.000001192092,4|8,1:0|0:0,0:0:0:0:
23,259,9361,1,2,0:3:0:0:
84,193,9736,2,0,P|129:175|143:129,1,100.000000596046,0|2,1:0|0:3,0:0:0:0:
108,45,10486,1,10,0:0:0:0:
283,3,11236,70,0,B|252:101|316:95|282:200,1,200.000001192092,2|8,1:2|0:0,0:0:0:0:
351,257,12361,1,2,0:3:0:0:
303,333,12736,2,0,P|253:325|205:337,1,100.000000596046,2|2,1:2|0:3,0:0:0:0:
142,273,13486,1,8,3:2:0:0:
58,305,13861,1,14,0:3:0:0:
6,229,14236,38,0,P|21:135|111:104,1,200.000001192092,4|8,1:0|0:0,0:0:0:0:
173,38,15361,1,2,0:3:0:0:
240,97,15736,2,0,B|285:113|285:113|335:99,1,100.000000596046,0|2,1:2|0:3,0:0:0:0:
421,73,16486,2,0,L|436:-13,2,75.0000004470345,10|2|2,0:0|0:3|0:3,0:0:0:0:
447,109,17236,70,0,B|433:250|433:250|383:281,1,200.000001192092,2|8,1:2|0:0,0:0:0:0:
360,367,18361,1,2,0:3:0:0:
283,320,18736,2,0,L|166:301,1,100.000000596046,2|2,1:2|0:3,0:0:0:0:
124,236,19486,2,0,L|48:251,2,75.0000004470345,8|2|2,0:0|0:3|0:3,0:0:0:0:
157,205,20236,38,0,B|181:157|239:153|239:153|258:199|318:207,1,200.000001192092,4|8,1:0|0:0,0:0:0:0:
400,175,21361,2,0,L|413:117,1,50.000000298023,2|2,0:3|0:3,0:0:0:0:
442,94,21736,2,0,P|418:52|371:36,1,100.000000596046,2|2,1:3|0:3,0:0:0:0:
283,50,22486,2,0,L|300:128,2,75.0000004470345,8|2|2,0:0|0:3|0:3,0:0:0:0:
256,192,23236,12,8,25486,3:2:0:0:
404,49,26236,86,0,L|387:172,1,125.000000745057,4|2,1:0|1:3,0:0:0:0:
425,222,26798,1,4,1:3:0:0:
425,222,26986,2,0,L|434:283,1,62.5000003725287,8|0,0:0|3:0,0:0:0:0:
409,341,27361,1,2,1:3:0:0:
301,276,27736,86,0,L|239:266,1,62.5000003725287,4|0,1:3|3:0,0:0:0:0:
187,302,28111,1,2,1:3:0:0:
63,324,28486,2,0,P|39:303|32:273,1,62.5000003725287,10|0,0:0|0:0,0:0:0:0:
17,212,28861,2,0,P|37:188|67:181,1,62.5000003725287,2|0,1:3|1:0,0:0:0:0:
95,125,29236,102,0,B|156:116|159:155|217:143,1,125.000000745057,4|2,1:3|1:3,0:0:0:0:
259,98,29798,1,4,1:3:0:0:
259,98,29986,2,0,L|344:117,1,62.5000003725287,10|0,0:0|3:0,0:0:0:0:
371,74,30361,1,2,1:3:0:0:
472,146,30736,6,0,B|477:178|477:178|469:208,1,62.5000003725287,6|2,1:3|0:0,0:0:0:0:
419,246,31111,2,0,B|414:277|414:277|422:307,1,62.5000003725287,2|2,1:3|0:0,0:0:0:0:
395,363,31486,1,6,1:3:0:0:
284,304,31861,1,2,1:3:0:0:
284,304,32048,1,0,1:0:0:0:
284,304,32236,22,0,P|224:292|174:327,1,125.000000745057,4|2,1:0|1:3,0:0:0:0:
118,301,32798,1,0,1:0:0:0:
118,301,32986,2,0,P|106:241|141:191,1,125.000000745057,4|2,1:3|1:3,0:0:0:0:
262,158,33736,86,0,L|284:20,1,125.000000745057,4|2,1:3|1:3,0:0:0:0:
338,8,34298,1,0,1:0:0:0:
338,8,34486,2,0,L|413:34,1,62.5000003725287,4|0,1:3|0:0,0:0:0:0:
457,13,34861,2,0,L|483:88,1,62.5000003725287,2|4,1:3|1:3,0:0:0:0:
256,192,35236,12,0,36736,1:0:0:0:
124,99,38236,86,0,L|112:36,2,62.5000003725287,4|0|0,1:0|1:0|1:0,0:0:0:0:
171,141,38798,1,4,1:3:0:0:
171,141,38986,2,0,L|154:267,1,125.000000745057,0|0,1:0|1:0,0:0:0:0:
184,318,39548,1,0,1:0:0:0:
184,318,39736,6,0,P|210:334|241:336,1,62.5000003725287,2|2,1:2|1:2,0:0:0:0:
283,384,40111,2,0,P|313:382|340:365,1,62.5000003725287,2|2,1:2|1:2,0:0:0:0:
402,356,40486,2,0,B|411:292|371:296|373:237,1,125.000000745057,0|6,1:0|1:3,0:0:0:0:
471,153,41236,54,0,P|437:102|377:93,1,125.000000745057,4|4,1:0|1:3,0:0:0:0:
321,120,41798,1,2,0:0:0:0:
321,120,41986,1,6,1:3:0:0:
212,58,42361,2,0,P|180:61|151:72,1,62.5000003725287,8|4,1:2|1:3,0:0:0:0:
99,46,42736,6,0,L|90:130,1,62.5000003725287,6|2,1:3|0:0,0:0:0:0:
63,163,43111,1,6,1:3:0:0:
88,285,43486,2,0,B|40:298|40:298|0:278,2,93.7500005587931,4|4|4,1:3|1:3|1:3,0:0:0:0:
148,267,44236,102,0,B|211:273|203:310|268:318,1,125.000000745057,6|4,1:3|1:3,0:0:0:0:
301,364,44798,1,2,0:0:0:0:
301,364,44986,1,6,1:3:0:0:
422,347,45361,2,0,P|436:319|441:288,1,62.5000003725287,8|4,1:2|1:3,0:0:0:0:
410,232,45736,6,0,P|398:171|395:109,1,125.000000745057,6|4,1:3|1:3,0:0:0:0:
339,81,46298,1,2,0:0:0:0:
339,81,46486,1,6,1:3:0:0:
254,172,46861,2,0,P|272:197|282:226,1,62.5000003725287,8|4,1:2|1:3,0:0:0:0:
256,192,47236,12,6,49486,0:3:0:0:
58,311,50236,54,0,P|109:343|170:334,1,125.000000745057,4|2,1:0|1:3,0:0:0:0:
234,319,50798,1,2,0:0:0:0:
234,319,50986,1,6,1:3:0:0:
201,201,51361,2,0,L|184:120,1,62.5000003725287,2|4,1:3|1:3,0:0:0:0:
205,79,51736,70,0,B|259:44|259:44|319:72,1,125.000000745057,6|2,1:3|1:3,0:0:0:0:
368,110,52298,1,2,0:0:0:0:
368,110,52486,1,6,1:3:0:0:
486,149,52861,1,2,1:3:0:0:
486,149,53048,1,0,1:0:0:0:
486,149,53236,38,0,L|468:288,1,125.000000745057,6|2,1:3|1:3,0:0:0:0:
467,339,53798,1,2,0:0:0:0:
467,339,53986,1,2,1:3:0:0:
348,377,54361,2,0,P|317:378|291:361,1,62.5000003725287,2|4,1:3|1:3,0:0:0:0:
234,334,54736,70,0,L|242:254,1,62.5000003725287,6|2,1:3|3:2,0:0:0:0:
273,218,55111,1,2,1:3:0:0:
170,146,55486,2,0,L|162:66,1,62.5000003725287,6|0,1:3|0:0,0:0:0:0:
124,35,55861,2,0,L|44:27,1,62.5000003725287,2|0,1:3|1:0,0:0:0:0:
18,73,56236,38,0,B|15:127|63:123|60:186,1,125.000000745057,4|6,1:0|1:3,0:0:0:0:
92,239,56798,1,2,1:2:0:0:
92,239,56986,2,0,P|83:269|80:301,1,62.5000003725287,6|0,1:3|1:0,0:0:0:0:
113,354,57361,2,0,P|142:362|174:365,1,62.5000003725287,2|4,1:3|1:3,0:0:0:0:
226,330,57736,70,0,B|263:323|280:299|280:299|296:320|332:328,1,125.000000745057,4|6,1:3|1:3,0:0:0:0:
392,344,58298,1,2,1:2:0:0:
391,344,58486,2,0,P|410:319|406:289,1,62.5000003725287,6|0,1:3|1:0,0:0:0:0:
446,241,58861,2,0,P|434:213|405:201,1,62.5000003725287,6|4,1:3|1:3,0:0:0:0:
256,192,59236,12,10,62236,0:0:0:0:
