osu file format v14

[General]
AudioFilename: audio.mp3
AudioLeadIn: 0
PreviewTime: 26194
Countdown: 0
SampleSet: Soft
StackLeniency: 0.7
Mode: 0
LetterboxInBreaks: 0
WidescreenStoryboard: 0

[Editor]
DistanceSpacing: 0.5
BeatDivisor: 4
GridSize: 32
TimelineZoom: 2.2

[Metadata]
Title:Thinkin' About U (Cut Ver.)
TitleUnicode:Thinkin' About U (Cut Ver.)
Artist:EmoCosine
ArtistUnicode:EmoCosine
Creator:Laquarius
Version:Insane
Source:
Tags:ayate ayayabob electronic TERRA-FORMING TERRAGAZER jersey club instrumental dance yae miko terraforming terra forming featured artist fa thinking you love kills ep
BeatmapID:3480124
BeatmapSetID:1703282

[Difficulty]
HPDrainRate:6
CircleSize:4
OverallDifficulty:8
ApproachRate:9
SliderMultiplier:1.65
SliderTickRate:1

[Events]
//Background and Video events
0,0,"yae.jpg",0,0
//Break Periods
//Storyboard Layer 0 (Background)
//Storyboard Layer 1 (Fail)
//Storyboard Layer 2 (Pass)
//Storyboard Layer 3 (Foreground)
//Storyboard Layer 4 (Overlay)
//Storyboard Sound Samples

[TimingPoints]
2236,375,4,2,0,70,1,0
12736,-100,4,2,0,70,0,0
26236,-80,4,2,0,90,0,0
36736,-133.333333333333,4,2,0,70,0,0
37486,-66.6666666666667,4,2,0,70,0,0
38236,-66.6666666666667,4,2,0,90,0,1
40861,-100,4,2,0,90,0,1
41236,-80,4,2,0,80,0,0
49673,-66.6666666666667,4,2,0,80,0,0
50236,-66.6666666666667,4,2,0,90,0,1
60736,-66.6666666666667,4,2,0,80,0,1
61111,-100,4,2,0,80,0,1
61486,-66.6666666666667,4,2,0,80,0,1
62236,-66.6666666666667,4,2,0,80,0,0

[Colours]
Combo1 : 140,255,198
Combo2 : 255,128,192
Combo3 : 255,255,128
Combo4 : 56,207,224
Combo5 : 141,164,252
Combo6 : 255,0,0
Combo7 : 255,128,128
Combo8 : 165,74,255

[HitObjects]
418,44,2236,38,0,P|429:126|429:208,1,165,4|2,1:0|0:3,0:0:0:0:
352,181,2798,2,0,P|352:160|351:139,1,41.25,2|0,0:0|0:0,0:0:0:0:
339,65,2986,1,8,0:0:0:0:
339,65,3361,70,0,B|268:68|274:126|183:125,1,165,2|0,0:3|1:0,0:0:0:0:
110,103,3923,1,2,0:0:0:0:
48,155,4111,1,2,0:3:0:0:
48,155,4486,38,0,P|64:192|67:233,1,82.5,10|0,0:0|0:0,0:0:0:0:
148,262,4861,2,0,P|136:301|131:342,1,82.5,2|0,0:3|0:0,0:0:0:0:
260,384,5236,70,0,P|329:349|320:272,1,165,2|2,1:2|0:3,0:0:0:0:
261,215,5798,2,0,P|241:212|222:204,1,41.25,2|0,0:0|0:0,0:0:0:0:
164,147,5986,1,8,0:0:0:0:
164,147,6361,38,0,P|183:71|260:63,1,165,2|0,0:3|1:0,0:0:0:0:
327,103,6923,1,2,0:0:0:0:
379,41,7111,1,2,0:3:0:0:
379,41,7486,70,0,P|398:51|418:55,1,41.25,10|0,0:0|0:0,0:0:0:0:
494,83,7673,1,2,0:3:0:0:
426,148,7861,37,0,1:0:0:0:
407,152,8048,1,2,0:3:0:0:
276,44,8236,70,0,P|264:125|247:208,1,165,4|2,1:0|0:3,0:0:0:0:
178,251,8798,2,0,P|148:244|133:222,1,41.25,2|0,0:0|0:0,0:0:0:0:
81,181,8986,1,8,0:0:0:0:
81,181,9361,38,0,P|9:212|0:293,1,165,2|0,0:3|1:0,0:0:0:0:
42,353,9923,1,2,0:0:0:0:
122,331,10111,1,2,0:3:0:0:
122,331,10486,70,0,P|175:350|211:352,1,82.5,10|0,0:0|0:0,0:0:0:0:
262,297,10861,2,0,P|243:244|241:208,1,82.5,2|0,0:3|0:0,0:0:0:0:
400,210,11236,38,0,B|391:283|340:281|341:361,1,165,2|2,1:2|0:3,0:0:0:0:
420,383,11798,2,0,P|440:382|459:374,1,41.25,2|0,0:0|0:0,0:0:0:0:
501,303,11986,1,8,0:0:0:0:
501,303,12361,70,0,P|489:264|489:223,1,82.5,2|0,0:3|0:0,0:0:0:0:
364,85,12736,38,0,P|329:101|319:146,1,82.5,2|2,1:2|0:2,0:0:0:0:
184,224,13111,1,2,0:3:0:0:
320,273,13298,1,2,0:2:0:0:
232,110,13486,69,8,3:2:0:0:
232,110,13579,1,0,3:2:0:0:
232,110,13673,2,0,L|223:174,1,41.25,2|0,3:3|3:0,0:0:0:0:
204,351,13861,1,14,0:3:0:0:
204,351,14236,38,0,B|133:334|114:395|45:376,1,165,4|2,1:0|0:3,0:0:0:0:
15,299,14798,2,0,L|33:248,1,41.25,2|0,0:0|0:0,0:0:0:0:
65,187,14986,2,0,P|98:209|109:248,1,82.5,8|0,0:0|0:0,0:0:0:0:
309,268,15361,70,0,P|223:271|190:202,1,165,2|0,0:3|1:2,0:0:0:0:
195,130,15923,1,2,0:0:0:0:
139,75,16111,2,0,P|102:91|61:98,1,82.5,2|0,0:3|0:0,0:0:0:0:
275,182,16486,2,0,P|283:142|296:103,1,82.5,10|0,0:0|0:0,0:0:0:0:
296,103,16767,1,2,0:3:0:0:
296,103,16861,2,0,L|279:39,1,41.25,2|0,0:3|0:0,0:0:0:0:
373,1,17048,2,0,L|362:40,1,41.25,2|0,0:3|0:0,0:0:0:0:
195,130,17236,38,0,P|120:107|111:30,1,165,2|2,1:2|0:3,0:0:0:0:
17,9,17798,2,0,P|25:51|23:76,1,41.25,2|0,0:0|0:0,0:0:0:0:
32,127,17986,2,0,P|24:167|18:208,1,82.5,8|0,0:0|0:0,0:0:0:0:
103,208,18361,2,0,P|108:248|117:289,1,82.5,2|0,0:3|0:0,0:0:0:0:
270,273,18736,69,2,1:2:0:0:
229,201,18923,1,2,0:0:0:0:
196,317,19111,1,2,0:3:0:0:
347,244,19298,1,2,0:0:0:0:
232,104,19486,2,0,P|192:117|152:123,1,82.5,8|0,0:0|0:0,0:0:0:0:
147,118,19767,1,2,0:3:0:0:
143,113,19861,2,0,L|160:64,1,41.25,2|0,0:3|0:0,0:0:0:0:
180,0,20048,2,0,L|218:13,1,41.25,2|0,0:3|0:0,0:0:0:0:
405,133,20236,38,0,B|321:125|321:125|269:196,1,165,4|2,1:0|0:3,0:0:0:0:
271,274,20798,2,0,P|253:266|232:263,1,41.25,2|0,0:0|0:0,0:0:0:0:
170,192,20986,2,0,P|124:212|67:205,1,82.5,8|0,0:0|0:0,0:0:0:0:
92,212,21267,1,2,0:3:0:0:
92,212,21361,2,0,P|90:187|84:150,1,41.25,2|0,0:3|0:0,0:0:0:0:
5,185,21548,2,0,P|7:210|13:247,1,41.25,2|0,0:3|0:0,0:0:0:0:
79,325,21736,70,0,P|39:317|-1:305,2,82.5,2|2|2,1:3|0:0|0:3,0:0:0:0:
159,305,22298,1,0,0:0:0:0:
238,384,22486,2,0,P|254:348|291:333,1,82.5,8|0,0:0|0:0,0:0:0:0:
291,333,22767,1,2,0:3:0:0:
291,333,22861,2,0,L|295:289,1,41.25,2|0,0:3|0:0,0:0:0:0:
372,278,23048,2,0,L|368:234,1,41.25,2|0,0:3|0:0,0:0:0:0:
328,147,23236,38,0,L|274:136,2,55,2|2|2,1:2|0:0|0:0,0:0:0:0:
400,118,23611,2,0,L|410:64,2,55,2|2|2,0:0|0:0|0:0,0:0:0:0:
429,190,23986,2,0,L|482:200,2,55,10|2|2,0:0|0:0|0:0,0:0:0:0:
357,219,24361,2,0,L|346:272,2,55,2|2|2,0:0|0:0|0:0,0:0:0:0:
328,147,24736,69,2,1:2:0:0:
291,73,24923,1,2,0:2:0:0:
142,159,25111,1,2,0:3:0:0:
233,10,25298,1,2,0:2:0:0:
260,197,25486,37,8,3:2:0:0:
260,197,25579,1,0,3:2:0:0:
260,197,25673,2,0,L|195:182,1,41.25,2|0,0:3|0:0,0:0:0:0:
51,143,25861,1,14,0:3:0:0:
58,313,26048,1,0,3:1:0:0:
58,313,26142,1,0,3:0:0:0:
58,313,26236,86,0,B|69:222|127:219|131:171,1,154.6875,4|0,1:0|0:0,0:0:0:0:
142,159,26611,1,2,1:3:0:0:
0,225,26798,1,4,1:3:0:0:
95,384,26986,2,0,P|144:369|195:360,1,103.125,8|0,0:0|3:0,0:0:0:0:
323,223,27361,2,0,P|272:213|222:199,1,103.125,2|0,1:3|3:0,0:0:0:0:
151,164,27642,1,0,3:0:0:0:
142,159,27736,86,0,P|145:108|179:70,1,103.125,4|0,1:3|3:0,0:0:0:0:
403,204,28111,2,0,P|399:254|365:292,1,103.125,2|4,1:3|1:3,0:0:0:0:
222,199,28486,2,0,P|253:269|277:343,1,154.6875,10|0,0:0|0:0,0:0:0:0:
248,383,28861,1,2,1:3:0:0:
235,379,28954,1,0,1:0:0:0:
223,375,29048,1,0,1:0:0:0:
211,371,29142,1,0,1:0:0:0:
199,367,29236,22,0,P|141:358|93:344,1,103.125,4|0,1:3|3:0,0:0:0:0:
222,199,29611,1,2,1:3:0:0:
79,81,29798,1,4,1:3:0:0:
54,271,29986,2,0,P|104:257|155:247,1,103.125,10|0,0:0|3:0,0:0:0:0:
245,98,30361,2,0,P|231:147|221:198,1,103.125,2|0,1:3|3:0,0:0:0:0:
276,260,30642,1,0,3:0:0:0:
276,260,30736,86,0,P|299:250|324:243,1,51.5625,6|0,1:3|0:0,0:0:0:0:
401,211,30923,1,2,0:0:0:0:
230,334,31111,22,0,P|253:343|278:350,1,51.5625,2|0,1:3|0:0,0:0:0:0:
429,384,31298,1,2,0:0:0:0:
476,178,31486,86,0,P|447:136|397:128,1,103.125,6|0,1:3|3:0,0:0:0:0:
318,104,31767,1,4,1:3:0:0:
305,100,31861,2,0,P|314:125|323:159,1,51.5625,2|0,1:3|0:0,0:0:0:0:
356,302,32048,1,0,1:0:0:0:
368,297,32142,1,0,1:0:0:0:
355,292,32236,21,4,1:0:0:0:
244,249,32423,1,0,1:0:0:0:
92,360,32611,85,2,1:3:0:0:
210,330,32798,1,0,1:0:0:0:
244,164,32986,22,0,P|221:96|211:57,1,103.125,4|0,1:3|1:0,0:0:0:0:
138,57,33267,1,4,1:3:0:0:
133,68,33361,2,0,P|131:93|125:118,1,51.5625,2|0,1:3|0:0,0:0:0:0:
105,226,33548,1,4,1:3:0:0:
313,110,33736,86,0,B|362:106|362:106|406:140,1,103.125,4|0,1:3|1:0,0:0:0:0:
512,275,34111,2,0,B|468:307|468:307|419:303,1,103.125,2|0,1:3|1:0,0:0:0:0:
244,164,34486,22,0,P|263:211|270:262,1,103.125,4|0,1:3|1:0,0:0:0:0:
329,324,34767,1,4,1:3:0:0:
338,318,34861,2,0,P|341:293|349:268,1,51.5625,2|0,1:3|0:0,0:0:0:0:
405,138,35048,1,4,1:3:0:0:
289,76,35236,85,4,1:0:0:0:
276,79,35329,1,0,3:0:0:0:
264,83,35423,1,0,3:0:0:0:
251,86,35517,1,0,3:0:0:0:
236,85,35611,21,2,1:3:0:0:
210,79,35704,1,0,3:0:0:0:
185,73,35798,1,0,3:0:0:0:
160,67,35892,1,0,3:0:0:0:
124,84,35986,86,0,L|149:183,1,103.125,4|0,1:3|0:0,0:0:0:0:
221,220,36267,1,4,1:3:0:0:
230,213,36361,2,0,P|233:187|243:163,1,51.5625,2|0,1:3|0:0,0:0:0:0:
48,117,36548,2,0,P|44:142|34:166,1,51.5625,4|0,1:3|0:0,0:0:0:0:
100,358,36736,53,0,1:0:0:0:
100,358,36923,1,0,1:0:0:0:
202,294,37111,70,0,L|194:336,1,30.937501180172,2|2,0:0|0:0,0:0:0:0:
276,280,37298,2,0,L|284:322,1,30.937501180172,2|2,0:0|0:0,0:0:0:0:
381,384,37486,37,8,3:2:0:0:
381,384,37579,1,0,3:2:0:0:
381,384,37673,2,0,L|388:322,1,61.875002360344,2|0,3:3|3:0,0:0:0:0:
421,163,37861,1,14,0:3:0:0:
421,163,38236,22,0,L|443:80,1,61.875002360344,4|0,1:0|0:0,0:0:0:0:
396,138,38423,2,0,L|383:63,1,61.875002360344,0|0,1:0|0:0,0:0:0:0:
368,125,38611,2,0,L|328:55,1,61.875002360344,0|0,1:0|0:0,0:0:0:0:
218,2,38798,5,4,1:3:0:0:
237,23,38892,1,4,1:3:0:0:
251,51,38986,2,0,L|226:135,1,61.875002360344,0|0,1:0|0:0,0:0:0:0:
317,200,39173,1,0,1:0:0:0:
317,200,39267,1,4,1:3:0:0:
317,200,39361,2,0,L|252:229,1,61.875002360344,0|0,1:0|0:0,0:0:0:0:
236,348,39548,2,0,L|143:331,1,61.875002360344,0|0,1:0|0:0,0:0:0:0:
61,178,39736,102,0,P|63:150|89:157,1,61.875002360344,2|0,1:2|0:0,0:0:0:0:
132,222,39923,2,0,P|130:249|104:243,1,61.875002360344,2|0,1:2|0:0,0:0:0:0:
65,172,40111,6,0,P|72:144|96:156,1,61.875002360344,2|0,1:2|0:0,0:0:0:0:
127,227,40298,2,0,P|121:254|96:243,1,61.875002360344,2|0,1:2|0:0,0:0:0:0:
202,68,40486,102,0,L|181:151,1,61.875002360344,0|0,1:0|0:0,0:0:0:0:
246,195,40673,1,0,1:0:0:0:
269,189,40767,1,0,1:0:0:0:
279,173,40861,2,0,L|262:121,3,41.25,6|0|0|0,1:3|3:0|3:0|3:0,0:0:0:0:
383,177,41236,70,0,P|275:225|278:300,1,206.25,4|4,1:0|1:3,0:0:0:0:
425,354,41798,1,2,0:0:0:0:
433,350,41892,1,2,0:0:0:0:
439,347,41986,2,0,B|431:294|400:307|391:256,1,103.125,6|0,1:3|0:0,0:0:0:0:
500,195,42267,1,4,1:3:0:0:
484,195,42361,2,0,P|473:218|469:243,1,51.5625,8|0,1:2|0:0,0:0:0:0:
326,313,42548,2,0,P|302:302|277:298,1,51.5625,4|0,1:3|0:0,0:0:0:0:
97,217,42736,5,6,1:3:0:0:
97,217,42923,1,2,0:0:0:0:
200,281,43111,2,0,P|204:255|210:230,1,51.5625,6|0,1:3|0:0,0:0:0:0:
142,116,43298,1,0,3:0:0:0:
136,121,43392,1,0,3:0:0:0:
131,126,43486,102,0,B|154:141|161:165|161:165|183:150|209:153,1,103.125,4|0,1:3|0:0,0:0:0:0:
263,91,43767,2,0,B|286:75|294:51|294:51|315:66|343:64,1,103.125,4|0,1:3|0:0,0:0:0:0:
414,100,44048,2,0,P|399:120|396:146,1,51.5625,4|0,1:3|0:0,0:0:0:0:
426,245,44236,6,0,B|419:141|347:171|342:62,1,206.25,6|4,1:3|1:3,0:0:0:0:
512,15,44798,1,2,0:0:0:0:
500,6,44892,1,2,0:0:0:0:
488,0,44986,2,0,P|439:16|426:69,1,103.125,6|0,1:3|0:0,0:0:0:0:
342,63,45267,1,4,1:3:0:0:
335,71,45361,2,0,P|309:70|286:59,1,51.5625,8|0,1:2|0:0,0:0:0:0:
230,166,45548,2,0,P|255:163|278:152,1,51.5625,4|0,1:3|0:0,0:0:0:0:
209,34,45736,102,0,P|154:63|158:202,1,206.25,6|4,1:3|1:3,0:0:0:0:
47,326,46298,1,2,0:0:0:0:
52,335,46392,1,2,0:0:0:0:
55,341,46486,2,0,P|93:306|103:256,1,103.125,6|0,1:3|0:0,0:0:0:0:
11,175,46767,1,4,1:3:0:0:
17,168,46861,2,0,P|39:181|64:187,1,51.5625,8|0,1:2|0:0,0:0:0:0:
150,193,47048,2,0,P|172:182|197:176,1,51.5625,4|0,1:3|0:0,0:0:0:0:
229,55,47236,6,0,P|214:18|180:-5,2,68.75,6|2|2,1:3|0:0|0:0,0:0:0:0:
298,97,47611,2,0,P|314:60|306:20,2,68.75,6|2|2,1:3|0:0|0:0,0:0:0:0:
267,217,47986,102,0,P|281:253|315:277,2,68.75,6|2|2,1:3|0:0|0:0,0:0:0:0:
198,175,48361,2,0,P|181:211|189:251,2,68.75,8|2|2,1:2|0:0|0:0,0:0:0:0:
140,98,48736,6,0,L|115:91,2,25.78125,4|0|0,1:3|3:0|3:0,3:0:0:0:
229,39,48923,2,0,L|253:45,2,25.78125,0|0|0,3:3|3:0|3:0,3:0:0:0:
67,24,49111,102,0,L|60:0,2,25.78125,4|0|0,1:3|3:0|3:0,3:0:0:0:
107,172,49298,2,0,L|100:196,2,25.78125,0|0|0,3:0|3:0|3:0,3:0:0:0:
2,113,49486,5,4,1:3:0:0:
2,113,49579,1,0,3:0:0:0:
2,113,49673,2,0,L|25:219,1,61.875002360344,2|0,3:0|3:0,3:0:0:0:
68,323,49861,1,6,0:3:0:0:
68,323,50048,1,4,0:3:0:0:
189,384,50236,54,0,B|200:303|276:308|279:228,1,185.625007081032,4|0,1:0|0:0,0:0:0:0:
271,204,50611,1,2,1:3:0:0:
177,65,50798,1,2,0:0:0:0:
170,76,50892,1,2,0:0:0:0:
161,87,50986,2,0,B|204:129|204:129|267:120,1,123.750004720688,6|0,1:3|0:0,0:0:0:0:
285,44,51267,1,4,1:3:0:0:
282,33,51361,2,0,P|262:10|232:8,1,61.875002360344,2|0,1:3|0:0,0:0:0:0:
72,93,51548,2,0,L|87:178,1,61.875002360344,4|0,1:3|0:0,0:0:0:0:
271,204,51736,70,0,B|186:214|196:266|101:272,1,185.625007081032,6|0,1:3|0:0,0:0:0:0:
89,255,52111,1,2,1:3:0:0:
236,327,52298,1,2,0:0:0:0:
253,331,52392,1,2,0:0:0:0:
270,332,52486,2,0,P|325:309|338:251,1,123.750004720688,6|0,1:3|0:0,0:0:0:0:
379,179,52767,1,4,1:3:0:0:
384,172,52861,37,2,1:3:0:0:
353,167,52954,1,0,1:0:0:0:
322,172,53048,1,0,1:0:0:0:
294,185,53142,1,0,1:0:0:0:
271,204,53236,70,0,B|142:167|142:167|132:137|104:117,1,185.625007081032,6|0,1:3|0:0,0:0:0:0:
124,110,53611,1,2,1:3:0:0:
34,8,53798,1,2,0:0:0:0:
17,2,53892,1,2,0:0:0:0:
0,0,53986,2,0,L|31:119,1,123.750004720688,2|0,1:3|0:0,0:0:0:0:
19,226,54267,1,4,1:3:0:0:
12,217,54361,2,0,P|38:201|69:195,1,61.875002360344,2|0,1:3|0:0,0:0:0:0:
184,36,54548,2,0,P|210:51|241:57,1,61.875002360344,4|0,1:3|0:0,0:0:0:0:
385,155,54736,38,0,P|376:184|371:215,1,61.875002360344,6|0,1:3|0:0,0:0:0:0:
355,301,54923,1,2,3:2:0:0:
277,131,55111,70,0,P|281:161|290:191,1,61.875002360344,2|0,1:3|0:0,0:0:0:0:
428,360,55298,1,0,3:0:0:0:
428,360,55392,1,0,3:0:0:0:
428,360,55486,2,0,P|485:340|512:286,1,123.750004720688,6|0,1:3|0:0,0:0:0:0:
498,205,55767,1,4,1:3:0:0:
489,198,55861,37,2,1:3:0:0:
461,211,55954,1,0,1:0:0:0:
431,219,56048,1,0,1:0:0:0:
400,220,56142,1,0,1:0:0:0:
370,215,56236,69,4,1:0:0:0:
233,372,56423,1,0,1:0:0:0:
361,296,56611,37,6,1:3:0:0:
222,158,56798,1,2,1:2:0:0:
200,151,56892,1,2,0:2:0:0:
177,145,56986,70,0,P|127:180|118:240,1,123.750004720688,6|0,1:3|1:0,0:0:0:0:
192,275,57267,1,4,1:3:0:0:
195,264,57361,2,0,P|223:249|252:239,1,61.875002360344,2|0,1:3|0:0,0:0:0:0:
56,146,57548,2,0,P|26:135|0:121,1,61.875002360344,4|0,1:3|0:0,0:0:0:0:
196,59,57736,37,4,1:3:0:0:
118,240,57923,1,0,1:0:0:0:
105,25,58111,69,6,1:3:0:0:
254,152,58298,1,2,1:2:0:0:
279,161,58392,1,2,0:2:0:0:
300,167,58486,38,0,L|418:130,1,123.750004720688,6|0,1:3|1:0,0:0:0:0:
461,62,58767,1,4,1:3:0:0:
457,50,58861,2,0,P|426:43|399:28,1,61.875002360344,6|0,1:3|0:0,0:0:0:0:
268,11,59048,2,0,P|252:37|246:68,1,61.875002360344,4|0,1:3|0:0,0:0:0:0:
306,251,59236,69,6,1:3:0:0:
317,261,59329,1,0,3:0:0:0:
330,268,59423,1,0,3:0:0:0:
345,273,59517,1,0,3:0:0:0:
360,273,59611,37,6,1:3:0:0:
350,317,59704,1,0,3:0:0:0:
320,352,59798,1,0,3:0:0:0:
277,369,59892,1,0,3:0:0:0:
231,363,59986,70,0,L|211:282,3,61.875002360344,6|0|0|0,1:3|3:0|3:0|3:0,0:0:0:0:
111,228,60361,2,0,L|96:288,3,61.875002360344,6|0|4|0,1:3|3:0|3:0|3:0,0:0:0:0:
224,102,60736,102,0,B|244:156|195:170|216:225,1,123.750004720688,12|0,1:0|0:0,0:0:0:0:
215,222,61017,1,0,0:0:0:0:
214,222,61111,2,0,P|234:224|252:234,1,41.25,2|0,0:3|0:0,0:0:0:0:
311,177,61298,2,0,P|323:193|329:212,1,41.25,2|0,0:3|0:0,0:0:0:0:
385,325,61486,69,0,3:0:0:0:
385,325,61579,1,0,3:0:0:0:
385,325,61673,2,0,L|405:236,1,61.875002360344,2|0,3:0|3:0,3:0:0:0:
431,125,61861,1,14,0:3:0:0:
431,125,62236,37,10,0:0:0:0:
