osu file format v14

[General]
AudioFilename: audio.mp3
AudioLeadIn: 0
PreviewTime: 26194
Countdown: 0
SampleSet: Soft
StackLeniency: 0.7
Mode: 0
LetterboxInBreaks: 0
WidescreenStoryboard: 1

[Editor]
DistanceSpacing: 1.1
BeatDivisor: 4
GridSize: 32
TimelineZoom: 1.7

[Metadata]
Title:Thinkin' About U (Cut Ver.)
TitleUnicode:Thinkin' About U (Cut Ver.)
Artist:EmoCosine
ArtistUnicode:EmoCosine
Creator:Laquarius
Version:Hard
Source:
Tags:ayate ayayabob electronic TERRA-FORMING TERRAGAZER jersey club instrumental dance yae miko terraforming terra forming featured artist fa thinking you love kills ep
BeatmapID:3480123
BeatmapSetID:1703282

[Difficulty]
HPDrainRate:4
CircleSize:3.8
OverallDifficulty:6
ApproachRate:8
SliderMultiplier:1.40000000596046
SliderTickRate:1

[Events]
//Background and Video events
0,0,"yae.jpg",0,0
//Break Periods
//Storyboard Layer 0 (Background)
//Storyboard Layer 1 (Fail)
//Storyboard Layer 2 (Pass)
//Storyboard Layer 3 (Foreground)
//Storyboard Layer 4 (Overlay)
//Storyboard Sound Samples

[TimingPoints]
2236,375,4,2,0,70,1,0
12736,-100,4,2,0,70,0,0
26236,-80,4,2,0,90,0,0
36736,-80,4,2,0,70,0,0
37111,-133.333333333333,4,2,0,70,0,0
37486,-100,4,2,0,70,0,0
38236,-66.6666666666667,4,2,0,90,0,1
41236,-80,4,2,0,80,0,0
49486,-100,4,2,0,80,0,0
50236,-66.6666666666667,4,2,0,90,0,1
60736,-100,4,2,0,80,0,1
62236,-66.6666666666667,4,2,0,80,0,0

[Colours]
Combo1 : 140,255,198
Combo2 : 255,128,192
Combo3 : 255,255,128
Combo4 : 56,207,224
Combo5 : 141,164,252
Combo6 : 255,0,0
Combo7 : 255,128,128
Combo8 : 165,74,255

[HitObjects]
62,338,2236,38,0,P|130:324|199:314,1,140.000000596046,4|2,1:0|0:3,0:0:0:0:
213,231,2798,1,2,0:0:0:0:
128,226,2986,1,8,0:0:0:0:
128,226,3361,70,0,P|77:180|75:112,1,140.000000596046,2|0,0:3|1:0,0:0:0:0:
141,59,3923,2,0,P|176:60|210:69,1,70.000000298023,2|2,0:0|0:3,0:0:0:0:
213,74,4486,38,0,B|221:139|268:136|269:200,1,140.000000596046,10|2,0:0|0:3,0:0:0:0:
353,344,5236,70,0,P|418:330|430:265,1,140.000000596046,2|2,1:2|0:3,0:0:0:0:
473,193,5798,1,2,0:0:0:0:
430,120,5986,1,8,0:0:0:0:
430,120,6361,38,0,L|276:102,1,140.000000596046,2|0,0:3|1:0,0:0:0:0:
301,187,6923,2,0,P|338:190|371:194,1,70.000000298023,2|2,0:0|0:3,0:0:0:0:
374,199,7486,70,0,P|377:233|359:261,1,70.000000298023,10|2,0:0|0:3,0:0:0:0:
297,318,7861,1,0,1:0:0:0:
297,318,8048,1,2,0:3:0:0:
244,251,8236,38,0,B|180:214|180:214|117:235,1,140.000000596046,4|2,1:0|0:3,0:0:0:0:
34,247,8798,1,2,0:0:0:0:
48,164,8986,1,8,0:0:0:0:
48,164,9361,70,0,B|64:95|11:96|33:9,1,140.000000596046,2|0,0:3|1:0,0:0:0:0:
107,0,9923,2,0,P|134:22|140:56,1,70.000000298023,2|2,0:0|0:3,0:0:0:0:
140,63,10486,38,0,P|183:115|250:113,1,140.000000596046,10|2,0:0|0:3,0:0:0:0:
399,192,11236,70,0,P|346:235|348:302,1,140.000000596046,2|2,1:2|0:3,0:0:0:0:
306,375,11798,1,2,0:0:0:0:
232,334,11986,1,8,0:0:0:0:
232,334,12361,38,0,L|162:323,1,70.000000298023,2|0,0:3|0:0,0:0:0:0:
102,264,12736,69,2,1:2:0:0:
102,264,12923,1,2,0:2:0:0:
137,187,13111,1,2,0:3:0:0:
137,187,13298,1,2,0:2:0:0:
79,125,13486,38,0,L|32:114,2,35.0000001490115,8|0|2,3:2|3:2|3:3,0:0:0:0:
192,109,13861,1,14,0:3:0:0:
326,7,14236,70,0,P|314:76|306:145,1,140.000000596046,4|2,1:0|0:3,0:0:0:0:
341,222,14798,1,2,0:0:0:0:
271,269,14986,2,0,P|238:256|203:250,1,70.000000298023,8|0,0:0|0:0,0:0:0:0:
149,186,15361,38,0,P|81:193|44:250,1,140.000000596046,2|0,0:3|1:2,0:0:0:0:
64,332,15923,1,2,0:0:0:0:
141,365,16111,1,2,0:3:0:0:
141,365,16486,70,0,L|259:348,1,105.000000447034,10|2,0:0|0:3,0:0:0:0:
283,367,16861,1,2,0:3:0:0:
338,304,17048,1,2,0:3:0:0:
282,240,17236,38,0,B|277:171|231:181|233:112,1,140.000000596046,2|2,1:2|0:3,0:0:0:0:
284,44,17798,1,2,0:0:0:0:
322,119,17986,2,0,P|352:134|387:139,1,70.000000298023,8|0,0:0|0:0,0:0:0:0:
451,193,18361,2,0,P|431:223|419:255,1,70.000000298023,2|0,0:3|0:0,0:0:0:0:
379,329,18736,69,2,1:2:0:0:
379,329,18923,1,2,0:0:0:0:
305,299,19111,1,2,0:3:0:0:
305,299,19298,1,2,0:0:0:0:
227,331,19486,2,0,P|152:322|127:302,1,105.000000447034,8|2,0:0|0:3,0:0:0:0:
127,263,19861,1,2,0:3:0:0:
189,207,20048,1,2,0:3:0:0:
184,122,20236,38,0,B|133:75|133:75|65:97,1,140.000000596046,4|2,1:0|0:3,0:0:0:0:
3,155,20798,1,2,0:0:0:0:
34,233,20986,2,0,P|51:282|54:334,1,105.000000447034,8|2,0:0|0:3,0:0:0:0:
90,356,21361,1,2,0:3:0:0:
158,307,21548,1,2,0:3:0:0:
232,345,21736,70,0,L|331:371,1,70.000000298023,2|2,1:3|0:0,0:0:0:0:
351,296,22111,2,0,L|450:270,1,70.000000298023,2|0,0:3|0:0,0:0:0:0:
475,214,22486,2,0,P|462:165|416:142,1,105.000000447034,8|2,0:0|0:3,0:0:0:0:
376,153,22861,1,2,0:3:0:0:
318,92,23048,1,2,0:3:0:0:
259,152,23236,38,0,L|277:208,2,46.6666668653487,2|2|2,1:2|0:0|0:0,0:0:0:0:
202,157,23611,2,0,L|189:214,2,46.6666668653487,2|2|2,0:0|0:0|0:0,0:0:0:0:
151,133,23986,2,0,L|111:176,2,46.6666668653487,10|2|2,0:0|0:0|0:0,0:0:0:0:
118,87,24361,2,0,L|61:105,2,46.6666668653487,2|2|2,0:0|0:0|0:0,0:0:0:0:
138,35,24736,69,2,1:2:0:0:
138,35,24923,1,2,0:2:0:0:
219,15,25111,1,2,0:3:0:0:
219,15,25298,1,2,0:2:0:0:
265,85,25486,38,0,L|255:131,2,35.0000001490115,8|0|2,3:2|3:2|0:3,0:0:0:0:
342,0,25861,1,14,0:3:0:0:
342,0,26236,86,0,P|418:31|421:113,1,175.000000745057,4|2,1:0|1:3,0:0:0:0:
377,208,26798,1,4,1:3:0:0:
280,166,26986,2,0,L|183:184,1,87.5000003725287,8|0,0:0|3:0,0:0:0:0:
130,265,27361,2,0,L|216:280,1,87.5000003725287,2|0,1:3|3:0,0:0:0:0:
261,376,27736,86,0,P|303:370|335:340,1,87.5000003725287,4|0,1:3|3:0,0:0:0:0:
421,281,28111,2,0,P|389:251|346:245,1,87.5000003725287,2|4,1:3|1:3,0:0:0:0:
280,166,28486,2,0,L|300:77,1,87.5000003725287,10|0,0:0|0:0,0:0:0:0:
200,42,28861,2,0,L|193:-5,3,43.7500001862644,2|0|0|0,1:3|1:0|1:0|1:0,0:0:0:0:
183,72,29236,22,0,B|111:81|118:146|32:153,1,175.000000745057,4|2,1:3|1:3,0:0:0:0:
3,253,29798,1,4,1:3:0:0:
86,317,29986,2,0,P|115:285|121:242,1,87.5000003725287,10|0,0:0|3:0,0:0:0:0:
206,179,30361,2,0,P|235:210|241:253,1,87.5000003725287,2|0,1:3|3:0,0:0:0:0:
318,325,30736,85,6,1:3:0:0:
318,325,30923,1,2,0:0:0:0:
409,272,31111,1,2,1:3:0:0:
409,272,31298,1,2,0:0:0:0:
511,296,31486,2,0,L|488:161,1,131.250000558793,6|4,1:3|1:3,0:0:0:0:
446,135,31861,2,0,L|462:72,3,43.7500001862644,2|0|0|0,1:3|0:0|1:0|1:0,0:0:0:0:
396,146,32236,22,0,B|366:177|366:177|321:177,1,87.5000003725287,4|0,1:0|1:0,0:0:0:0:
253,257,32611,2,0,B|223:226|223:226|178:226,1,87.5000003725287,2|0,1:3|1:0,0:0:0:0:
85,276,32986,2,0,P|29:247|15:183,1,131.250000558793,4|4,1:3|1:3,0:0:0:0:
40,139,33361,1,2,1:3:0:0:
138,103,33548,1,4,1:3:0:0:
232,148,33736,86,0,L|245:61,1,87.5000003725287,4|0,1:3|1:0,0:0:0:0:
337,112,34111,2,0,L|350:198,1,87.5000003725287,2|0,1:3|1:0,0:0:0:0:
435,260,34486,2,0,B|374:276|389:316|328:331,1,131.250000558793,4|4,1:3|1:3,0:0:0:0:
283,304,34861,1,2,1:3:0:0:
194,360,35048,1,4,1:3:0:0:
112,292,35236,21,4,1:0:0:0:
111,287,35329,1,0,3:0:0:0:
109,282,35423,1,0,3:0:0:0:
108,276,35517,1,0,3:0:0:0:
107,271,35611,2,0,L|125:211,3,43.7500001862644,2|0|0|0,1:3|3:0|3:0|3:0,0:0:0:0:
96,180,35986,86,0,P|147:143|212:147,1,131.250000558793,4|4,1:3|1:3,0:0:0:0:
247,113,36361,2,0,L|234:51,2,43.7500001862644,2|0|4,1:3|0:0|1:3,0:0:0:0:
275,205,36736,53,0,1:0:0:0:
512,285,37111,69,2,0:0:0:0:
512,285,37204,1,2,0:0:0:0:
512,285,37298,1,2,0:0:0:0:
455,347,37486,38,0,L|466:389,2,35.0000001490115,8|0|2,3:2|3:2|3:3,0:0:0:0:
423,225,37861,1,14,0:3:0:0:
423,225,38236,21,0,1:0:0:0:
326,287,38423,1,0,1:0:0:0:
224,232,38611,1,0,1:0:0:0:
129,302,38798,5,4,1:3:0:0:
129,302,38892,1,4,1:3:0:0:
129,302,38986,2,0,B|100:283|100:283|83:209,1,105.000004452467,0|0,1:0|1:0,0:0:0:0:
35,193,39267,1,4,1:3:0:0:
35,193,39361,2,0,B|27:137|27:137|70:102,1,105.000004452467,2|0,1:3|1:0,0:0:0:0:
131,12,39736,101,2,1:2:0:0:
131,12,39923,1,2,1:2:0:0:
175,124,40111,5,2,1:2:0:0:
175,124,40298,1,2,1:2:0:0:
284,85,40486,102,0,L|265:148,3,52.5000022262334,0|0|0|0,1:0|0:0|1:0|1:0,0:0:0:0:
265,188,40861,2,0,L|284:251,3,52.5000022262334,6|0|0|0,1:3|3:0|3:0|3:0,0:0:0:0:
266,288,41236,70,0,B|362:293|335:356|423:355,1,175.000000745057,4|4,1:0|1:3,0:0:0:0:
493,278,41798,1,2,0:0:0:0:
493,278,41892,1,2,0:0:0:0:
493,278,41986,2,0,P|484:212|481:146,1,131.250000558793,6|4,1:3|1:3,0:0:0:0:
434,121,42361,1,8,1:2:0:0:
370,204,42548,1,4,1:3:0:0:
296,129,42736,6,0,P|252:121|211:108,1,87.5000003725287,6|2,1:3|0:0,0:0:0:0:
129,174,43111,2,0,P|121:130|108:89,1,87.5000003725287,6|0,1:3|3:0,0:0:0:0:
45,4,43486,2,0,B|18:34|-13:34|-13:34|12:52|16:88,2,131.250000558793,4|4|4,1:3|1:3|1:3,0:0:0:0:
158,5,44236,102,0,P|226:60|211:145,1,175.000000745057,6|4,1:3|1:3,0:0:0:0:
201,249,44798,1,2,0:0:0:0:
201,249,44892,1,2,0:0:0:0:
201,249,44986,2,0,P|260:223|324:230,1,131.250000558793,6|4,1:3|1:3,0:0:0:0:
351,276,45361,1,8,1:2:0:0:
295,365,45548,1,4,1:3:0:0:
190,340,45736,6,0,B|116:316|111:387|23:364,1,175.000000745057,6|4,1:3|1:3,0:0:0:0:
0,262,46298,1,2,0:0:0:0:
0,262,46392,1,2,0:0:0:0:
0,262,46486,2,0,P|30:207|92:205,1,131.250000558793,6|4,1:3|1:3,0:0:0:0:
127,245,46861,1,8,1:2:0:0:
224,207,47048,1,4,1:3:0:0:
235,102,47236,102,0,L|248:45,2,58.3333335816858,6|2|2,1:3|0:0|0:0,0:0:0:0:
301,152,47611,2,0,L|314:208,2,58.3333335816858,6|2|2,1:3|0:0|0:0,0:0:0:0:
323,72,47986,2,0,L|336:15,2,58.3333335816858,6|2|2,1:3|0:0|0:0,0:0:0:0:
389,122,48361,2,0,L|402:178,2,58.3333335816858,8|2|2,1:2|0:0|0:0,0:0:0:0:
424,45,48736,5,4,1:3:0:0:
424,45,48923,1,0,3:3:0:0:
500,124,49111,1,4,1:3:0:0:
500,124,49298,1,0,3:0:0:0:
464,239,49486,102,0,L|498:230,2,35.0000001490115,4|0|2,1:3|3:0|3:0,0:0:0:0:
317,267,49861,1,6,0:3:0:0:
317,267,50048,1,4,0:3:0:0:
241,165,50236,70,0,P|224:268|212:373,1,210.000008904934,4|2,1:0|1:3,0:0:0:0:
106,358,50798,1,2,0:0:0:0:
106,358,50892,1,2,0:0:0:0:
106,358,50986,2,0,P|37:326|30:251,1,157.5000066787,6|4,1:3|1:3,0:0:0:0:
75,215,51361,1,2,1:3:0:0:
23,114,51548,1,4,1:3:0:0:
111,39,51736,70,0,B|184:60|184:60|223:109|223:109|292:127,1,210.000008904934,6|2,1:3|1:3,0:0:0:0:
402,80,52298,1,2,0:0:0:0:
402,80,52392,1,2,0:0:0:0:
402,80,52486,2,0,B|378:202|378:202|393:232,1,157.5000066787,6|4,1:3|1:3,0:0:0:0:
376,287,52861,2,0,L|390:337,3,52.5000022262334,2|0|0|0,1:3|1:0|1:0|1:0,0:0:0:0:
336,360,53236,38,0,P|227:363|181:272,1,210.000008904934,6|2,1:3|1:3,0:0:0:0:
114,205,53798,1,2,0:0:0:0:
114,205,53892,1,2,0:0:0:0:
114,205,53986,2,0,P|192:200|267:178,1,157.5000066787,2|4,1:3|1:3,0:0:0:0:
319,203,54361,1,2,1:3:0:0:
416,140,54548,1,4,1:3:0:0:
497,221,54736,70,0,P|509:245|512:271,1,52.5000022262334,6|0,1:3|0:0,0:0:0:0:
476,315,54923,1,2,3:2:0:0:
360,302,55111,38,0,P|337:291|311:288,1,52.5000022262334,2|0,1:3|0:0,0:0:0:0:
259,315,55298,1,0,3:0:0:0:
163,249,55486,70,0,B|173:177|224:192|238:113,1,157.5000066787,6|4,1:3|1:3,0:0:0:0:
194,75,55861,2,0,L|183:13,3,52.5000022262334,2|0|0|0,1:3|1:0|1:0|1:0,0:0:0:0:
238,0,56236,38,0,B|291:-4|291:-4|326:34,1,105.000004452467,4|0,1:0|1:0,0:0:0:0:
431,83,56611,2,0,B|395:121|395:121|342:117,1,105.000004452467,6|2,1:3|1:2,0:0:0:0:
313,168,56892,1,2,0:2:0:0:
313,168,56986,2,0,B|297:223|297:223|311:261|311:261|290:341,1,157.5000066787,6|4,1:3|1:3,0:0:0:0:
279,374,57361,1,2,1:3:0:0:
162,368,57548,1,4,1:3:0:0:
103,268,57736,70,0,P|54:252|1:249,1,105.000004452467,4|0,1:3|1:0,0:0:0:0:
59,149,58111,2,0,P|111:145|161:129,1,105.000004452467,4|0,1:3|1:0,0:0:0:0:
189,81,58392,1,2,0:2:0:0:
189,81,58486,2,0,B|257:98|241:152|312:173,1,157.5000066787,6|4,1:3|1:3,0:0:0:0:
362,144,58861,1,6,1:3:0:0:
466,192,59048,1,4,1:3:0:0:
384,274,59236,37,6,1:3:0:0:
377,275,59329,1,0,3:0:0:0:
371,277,59423,1,0,3:0:0:0:
364,278,59517,1,0,3:0:0:0:
357,282,59611,2,0,L|267:258,3,52.5000022262334,6|0|0|0,1:3|3:0|3:0|3:0,0:0:0:0:
276,318,59986,2,0,L|225:331,3,52.5000022262334,6|0|0|0,1:3|3:0|3:0|3:0,0:0:0:0:
184,289,60361,2,0,L|133:276,3,52.5000022262334,6|0|4|0,1:3|3:0|3:0|3:0,0:0:0:0:
108,231,60736,53,12,1:0:0:0:
108,231,60923,1,0,0:0:0:0:
142,156,61111,1,2,0:3:0:0:
142,156,61298,1,2,0:3:0:0:
58,132,61486,70,0,L|23:137,2,35.0000001490115,0|0|2,3:0|3:0|3:0,0:0:0:0:
210,104,61861,1,14,0:3:0:0:
210,104,62236,37,10,0:0:0:0:
