osu file format v14

[General]
AudioFilename: audio.mp3
AudioLeadIn: 0
PreviewTime: 123067
Countdown: 0
SampleSet: Normal
StackLeniency: 1
Mode: 1
LetterboxInBreaks: 0
WidescreenStoryboard: 1

[Editor]
Bookmarks: 1050,13681,17892,34734,43155,59997,68418,76839,85260,102102,118944,123155,139997,148418
DistanceSpacing: 1.1
BeatDivisor: 2
GridSize: 32
TimelineZoom: 1

[Metadata]
Title:Reincarnation
TitleUnicode:Reincarnation
Artist:EmoCosine
ArtistUnicode:EmoCosine
Creator:Rycy
Version:Muzukashii
Source:Deemo
Tags:emoco. featured artist fa piano rhythm video game instrumental waltz rayark inc.
BeatmapID:3534797
BeatmapSetID:1729604

[Difficulty]
HPDrainRate:6.5
CircleSize:2
OverallDifficulty:4
ApproachRate:0
SliderMultiplier:1.4
SliderTickRate:1

[Events]
//Background and Video events
0,0,"BG.png",0,0
//Break Periods
2,119114,120272
//Storyboard Layer 0 (Background)
//Storyboard Layer 1 (Fail)
//Storyboard Layer 2 (Pass)
//Storyboard Layer 3 (Foreground)
//Storyboard Layer 4 (Overlay)
//Storyboard Sound Samples

[TimingPoints]
1020,350.877192982456,6,1,0,60,1,0
1020,-117.647058823529,6,1,0,60,0,0
13651,-116.279069767442,6,1,0,65,0,0
13827,-114.942528735632,6,1,0,65,0,0
14002,-113.636363636364,6,1,0,65,0,0
14353,-112.359550561798,6,1,0,65,0,0
14528,-111.111111111111,6,1,0,65,0,0
14704,-109.89010989011,6,1,0,65,0,0
15230,-108.695652173913,6,1,0,65,0,0
15405,-107.52688172043,6,1,0,70,0,0
15756,-106.382978723404,6,1,0,70,0,0
16107,-105.263157894737,6,1,0,70,0,0
16458,-104.166666666667,6,1,0,70,0,0
16809,-103.092783505155,6,1,0,70,0,0
17862,-100,6,1,0,85,0,0
34704,-117.647058823529,6,1,0,70,0,0
41721,-116.279069767442,6,1,0,70,0,0
42072,-114.942528735632,6,1,0,70,0,0
42423,-113.636363636364,6,1,0,70,0,0
42774,-112.359550561798,6,1,0,70,0,0
43125,-111.111111111111,6,1,0,75,0,0
51546,-110.333397388447,4,1,0,75,0,0
52598,-109.561127213493,4,1,0,75,0,0
53300,-108.794262484553,4,1,0,75,0,0
53476,-108.032765366621,4,1,0,75,0,0
53651,-107.276598289514,4,1,0,75,0,0
54177,-106.52572394602,4,1,0,75,0,0
54704,-105.780105290055,4,1,0,75,0,0
55055,-105.039705534834,4,1,0,75,0,0
55405,-104.304488151063,4,1,0,75,0,0
55756,-103.574416865129,4,1,0,75,0,0
56809,-102.849455657312,4,1,0,75,0,0
57511,-102.129568760013,4,1,0,75,0,0
57686,-101.414720655984,4,1,0,75,0,0
57862,-100.704876076575,4,1,0,75,0,0
58212,-100,4,1,0,75,0,0
58563,-99.502487562189,4,1,0,75,0,0
58739,-99.009900990099,4,1,0,75,0,0
58914,-98.5221674876847,4,1,0,75,0,0
59090,-98.0392156862745,4,1,0,75,0,0
59265,-97.5609756097561,4,1,0,75,0,0
59616,-97.0873786407767,4,1,0,75,0,0
59967,-96.6183574879227,6,1,0,60,0,0
61019,-109.89010989011,6,1,0,60,0,0
62072,-113.636363636364,6,1,0,60,0,0
63125,-117.647058823529,6,1,0,60,0,0
68388,-111.111111111111,6,1,0,65,0,0
76458,-109.89010989011,6,1,0,65,0,0
76634,-108.695652173913,6,1,0,65,0,0
76809,-107.52688172043,6,1,0,75,0,0
77511,-107.181136120043,6,1,0,75,0,0
77686,-106.837606837607,6,1,0,75,0,0
77862,-106.382978723404,6,1,0,75,0,0
78563,-106.044538706257,6,1,0,75,0,0
78739,-105.708245243129,6,1,0,75,0,0
78914,-105.263157894737,6,1,0,75,0,0
79265,-104.931794333683,6,1,0,75,0,0
79616,-104.602510460251,6,1,0,75,0,0
79967,-104.166666666667,6,1,0,75,0,0
80493,-103.896103896104,6,1,0,75,0,0
80669,-103.626943005181,6,1,0,75,0,0
80844,-103.359173126615,6,1,0,75,0,0
81019,-103.092783505155,6,1,0,75,0,0
81370,-102.774922918808,6,1,0,75,0,0
81721,-102.459016393443,6,1,0,75,0,0
82072,-102.040816326531,6,1,0,75,0,0
82598,-101.522842639594,6,1,0,75,0,0
82774,-101.010101010101,6,1,0,75,0,0
85230,-100,6,1,0,85,0,0
102072,-100,6,1,0,90,0,0
118914,-100,6,1,0,50,0,0
119002,-125,6,1,0,50,0,0
122072,-100,6,1,0,75,0,0
123125,-100,6,1,0,100,0,1
138914,-106.382978723404,6,1,0,100,0,1
139616,-107.52688172043,6,1,0,100,0,1
139704,-108.695652173913,6,1,0,100,0,1
139791,-109.89010989011,6,1,0,100,0,1
139967,-111.111111111111,6,1,0,70,0,0
144177,-109.89010989011,6,1,0,73,0,0
144528,-109.289617486339,6,1,0,73,0,0
144704,-108.695652173913,6,1,0,73,0,0
144879,-108.108108108108,6,1,0,73,0,0
145230,-107.52688172043,6,1,0,75,0,0
145581,-106.951871657754,6,1,0,75,0,0
145756,-106.382978723404,6,1,0,75,0,0
145932,-105.820105820106,6,1,0,75,0,0
146283,-105.263157894737,6,1,0,78,0,0
146634,-104.712041884817,6,1,0,78,0,0
146809,-104.166666666667,6,1,0,78,0,0
146984,-103.626943005181,6,1,0,78,0,0
147335,-103.092783505155,6,1,0,80,0,0
147686,-102.564102564103,6,1,0,80,0,0
147862,-102.040816326531,6,1,0,80,0,0
148037,-101.522842639594,6,1,0,80,0,0

[HitObjects]
256,192,1020,5,0,0:0:0:0:
256,192,1370,1,0,0:0:0:0:
256,192,1721,1,0,0:0:0:0:
256,192,2072,1,8,0:0:0:0:
256,192,2423,1,0,0:0:0:0:
256,192,2774,1,8,0:0:0:0:
256,192,3125,1,8,0:0:0:0:
256,192,3651,1,0,0:0:0:0:
256,192,4177,1,8,0:0:0:0:
256,192,4528,1,8,0:0:0:0:
256,192,4879,1,0,0:0:0:0:
256,192,5055,1,0,0:0:0:0:
256,192,5230,1,8,0:0:0:0:
256,192,5756,1,0,0:0:0:0:
256,192,6283,1,8,0:0:0:0:
256,192,6809,1,8,0:0:0:0:
256,192,6984,1,0,0:0:0:0:
256,192,7335,1,8,0:0:0:0:
256,192,7862,1,8,0:0:0:0:
256,192,8212,1,0,0:0:0:0:
256,192,8388,1,8,0:0:0:0:
256,192,8739,1,8,0:0:0:0:
256,192,9090,1,0,0:0:0:0:
256,192,9265,1,8,0:0:0:0:
256,192,9441,5,0,0:0:0:0:
256,192,9967,1,0,0:0:0:0:
256,192,10493,1,8,0:0:0:0:
256,192,10844,1,0,0:0:0:0:
256,192,11195,1,0,0:0:0:0:
256,192,11370,1,8,0:0:0:0:
256,192,11546,1,8,0:0:0:0:
256,192,11897,1,0,0:0:0:0:
256,192,12248,1,8,0:0:0:0:
256,192,12598,1,8,0:0:0:0:
256,192,13125,1,8,0:0:0:0:
256,192,13300,1,0,0:0:0:0:
256,192,13651,1,8,0:0:0:0:
256,192,13827,1,0,0:0:0:0:
256,192,14002,1,0,0:0:0:0:
256,192,14353,1,0,0:0:0:0:
256,192,14528,1,0,0:0:0:0:
256,192,14704,1,8,0:0:0:0:
256,192,15230,1,0,0:0:0:0:
256,192,15405,1,8,0:0:0:0:
256,192,15756,1,0,0:0:0:0:
256,192,16107,1,0,0:0:0:0:
256,192,16458,1,0,0:0:0:0:
256,192,16809,1,8,0:0:0:0:
256,192,17511,1,8,0:0:0:0:
256,192,17598,1,8,0:0:0:0:
256,192,17686,1,8,0:0:0:0:
160,192,17862,5,4,0:0:0:0:
256,192,18388,1,0,0:0:0:0:
256,192,18739,1,0,0:0:0:0:
256,192,18914,1,8,0:0:0:0:
256,192,19265,1,8,0:0:0:0:
256,192,19616,1,8,0:0:0:0:
256,192,19791,1,0,0:0:0:0:
256,192,19967,1,8,0:0:0:0:
256,192,20318,1,8,0:0:0:0:
256,192,20669,1,0,0:0:0:0:
256,192,20844,1,0,0:0:0:0:
256,192,21019,1,8,0:0:0:0:
256,192,21546,1,8,0:0:0:0:
256,192,21721,1,0,0:0:0:0:
256,192,21897,1,0,0:0:0:0:
256,192,22072,1,8,0:0:0:0:
256,192,22423,1,0,0:0:0:0:
256,192,22774,1,0,0:0:0:0:
256,192,23125,1,8,0:0:0:0:
256,192,23476,1,8,0:0:0:0:
256,192,23651,1,0,0:0:0:0:
256,192,23827,1,0,0:0:0:0:
256,192,24002,1,8,0:0:0:0:
256,192,24177,1,8,0:0:0:0:
256,192,24528,1,8,0:0:0:0:
256,192,24879,1,0,0:0:0:0:
256,192,25230,1,8,0:0:0:0:
256,192,25756,1,8,0:0:0:0:
256,192,25932,1,0,0:0:0:0:
256,192,26107,1,8,0:0:0:0:
160,192,26283,5,4,0:0:0:0:
256,192,26634,1,0,0:0:0:0:
256,192,26984,1,8,0:0:0:0:
256,192,27160,1,0,0:0:0:0:
256,192,27335,1,8,0:0:0:0:
256,192,27686,1,0,0:0:0:0:
256,192,28037,1,0,0:0:0:0:
256,192,28212,1,8,0:0:0:0:
256,192,28388,1,8,0:0:0:0:
256,192,28739,1,0,0:0:0:0:
256,192,29090,1,8,0:0:0:0:
256,192,29441,1,8,0:0:0:0:
256,192,29967,1,8,0:0:0:0:
256,192,30142,1,8,0:0:0:0:
256,192,30318,1,8,0:0:0:0:
256,192,30493,1,0,0:0:0:0:
256,192,30844,1,8,0:0:0:0:
256,192,31195,1,0,0:0:0:0:
256,192,31546,1,8,0:0:0:0:
256,192,31897,1,8,0:0:0:0:
256,192,32072,1,0,0:0:0:0:
256,192,32248,1,0,0:0:0:0:
256,192,32423,1,8,0:0:0:0:
256,192,32598,1,0,0:0:0:0:
256,192,33651,1,8,0:0:0:0:
160,192,34704,5,4,0:0:0:0:
256,192,35756,1,8,0:0:0:0:
256,192,36458,1,0,0:0:0:0:
256,192,36809,1,8,0:0:0:0:
256,192,37511,1,8,0:0:0:0:
256,192,37862,1,0,0:0:0:0:
256,192,38212,1,0,0:0:0:0:
256,192,38563,1,8,0:0:0:0:
256,192,38914,1,8,0:0:0:0:
256,192,39967,1,0,0:0:0:0:
256,192,40669,1,0,0:0:0:0:
256,192,41019,1,8,0:0:0:0:
256,192,41721,1,8,0:0:0:0:
256,192,42072,1,8,0:0:0:0:
256,192,42423,1,0,0:0:0:0:
256,192,42774,1,0,0:0:0:0:
352,192,43125,5,12,0:0:0:0:
256,192,44177,1,8,0:0:0:0:
256,192,44879,1,0,0:0:0:0:
256,192,45055,1,0,0:0:0:0:
256,192,45230,1,8,0:0:0:0:
256,192,45756,1,8,0:0:0:0:
256,192,46283,1,8,0:0:0:0:
256,192,46634,1,0,0:0:0:0:
256,192,46984,1,0,0:0:0:0:
256,192,47335,1,8,0:0:0:0:
256,192,48388,1,8,0:0:0:0:
256,192,49090,1,0,0:0:0:0:
256,192,49265,1,0,0:0:0:0:
256,192,49441,1,8,0:0:0:0:
256,192,49791,1,0,0:0:0:0:
256,192,50142,1,0,0:0:0:0:
256,192,50318,1,8,0:0:0:0:
256,192,50493,1,8,0:0:0:0:
256,192,50669,1,0,0:0:0:0:
256,192,50844,1,0,0:0:0:0:
256,192,51195,1,0,0:0:0:0:
352,192,51546,5,12,0:0:0:0:
256,192,52598,1,8,0:0:0:0:
256,192,53300,1,0,0:0:0:0:
256,192,53476,1,0,0:0:0:0:
256,192,53651,1,8,0:0:0:0:
256,192,54177,1,8,0:0:0:0:
256,192,54704,1,8,0:0:0:0:
256,192,55055,1,0,0:0:0:0:
256,192,55405,1,8,0:0:0:0:
256,192,55756,1,8,0:0:0:0:
256,192,56809,1,8,0:0:0:0:
256,192,57511,1,0,0:0:0:0:
256,192,57686,1,0,0:0:0:0:
256,192,57862,1,8,0:0:0:0:
256,192,58212,1,8,0:0:0:0:
256,192,58563,1,0,0:0:0:0:
256,192,58739,1,8,0:0:0:0:
256,192,58914,1,8,0:0:0:0:
256,192,59090,1,8,0:0:0:0:
256,192,59265,1,0,0:0:0:0:
256,192,59616,1,0,0:0:0:0:
160,192,59967,5,4,0:0:0:0:
256,192,61019,1,8,0:0:0:0:
256,192,62072,1,0,0:0:0:0:
256,192,63125,1,8,0:0:0:0:
256,192,64177,1,0,0:0:0:0:
256,192,65230,1,8,0:0:0:0:
256,192,66283,1,8,0:0:0:0:
256,192,66634,1,0,0:0:0:0:
256,192,66984,1,0,0:0:0:0:
256,192,67335,1,8,0:0:0:0:
256,192,67686,1,0,0:0:0:0:
352,192,68388,5,12,0:0:0:0:
256,192,68914,1,0,0:0:0:0:
256,192,69441,1,8,0:0:0:0:
256,192,69791,1,0,0:0:0:0:
256,192,70142,1,8,0:0:0:0:
256,192,70493,1,0,0:0:0:0:
256,192,71019,1,0,0:0:0:0:
256,192,71546,1,8,0:0:0:0:
256,192,71897,1,8,0:0:0:0:
256,192,72248,1,0,0:0:0:0:
256,192,72423,1,0,0:0:0:0:
256,192,72598,1,8,0:0:0:0:
256,192,73125,1,0,0:0:0:0:
256,192,73651,1,8,0:0:0:0:
256,192,74002,1,8,0:0:0:0:
256,192,74177,1,8,0:0:0:0:
256,192,74353,1,0,0:0:0:0:
256,192,74704,1,8,0:0:0:0:
256,192,75230,1,8,0:0:0:0:
256,192,75581,1,0,0:0:0:0:
256,192,75756,1,8,0:0:0:0:
256,192,76107,1,8,0:0:0:0:
256,192,76458,1,0,0:0:0:0:
256,192,76634,1,8,0:0:0:0:
160,192,76809,5,4,0:0:0:0:
256,192,77160,1,8,0:0:0:0:
256,192,77511,1,8,0:0:0:0:
256,192,77686,1,0,0:0:0:0:
160,192,77862,1,4,0:0:0:0:
256,192,78212,1,8,0:0:0:0:
256,192,78563,1,8,0:0:0:0:
256,192,78739,1,8,0:0:0:0:
160,192,78914,1,4,0:0:0:0:
256,192,79265,1,8,0:0:0:0:
256,192,79616,1,8,0:0:0:0:
160,192,79967,1,4,0:0:0:0:
256,192,80493,1,8,0:0:0:0:
256,192,80669,1,0,0:0:0:0:
256,192,80844,1,8,0:0:0:0:
160,192,81019,1,4,0:0:0:0:
256,192,81370,1,8,0:0:0:0:
256,192,81721,1,0,0:0:0:0:
160,192,82072,1,4,0:0:0:0:
256,192,82598,1,8,0:0:0:0:
256,192,82774,1,0,0:0:0:0:
256,192,83125,1,8,0:0:0:0:
256,192,83300,1,0,0:0:0:0:
256,192,83476,1,0,0:0:0:0:
256,192,83651,1,8,0:0:0:0:
256,192,84002,1,0,0:0:0:0:
256,192,84177,1,8,0:0:0:0:
256,192,84528,1,0,0:0:0:0:
256,192,84704,1,8,0:0:0:0:
256,192,84879,1,8,0:0:0:0:
256,192,84967,1,8,0:0:0:0:
256,192,85055,1,8,0:0:0:0:
160,192,85230,5,4,0:0:0:0:
256,192,85756,1,0,0:0:0:0:
256,192,86107,1,0,0:0:0:0:
256,192,86283,1,8,0:0:0:0:
256,192,86634,1,8,0:0:0:0:
256,192,86984,1,0,0:0:0:0:
256,192,87160,1,8,0:0:0:0:
256,192,87335,1,8,0:0:0:0:
256,192,87686,1,0,0:0:0:0:
256,192,88037,1,0,0:0:0:0:
256,192,88212,1,0,0:0:0:0:
256,192,88388,1,8,0:0:0:0:
256,192,88914,1,8,0:0:0:0:
256,192,89090,1,8,0:0:0:0:
256,192,89265,1,0,0:0:0:0:
256,192,89441,1,0,0:0:0:0:
256,192,89791,1,8,0:0:0:0:
256,192,90142,1,0,0:0:0:0:
256,192,90493,1,8,0:0:0:0:
256,192,90844,1,8,0:0:0:0:
256,192,91019,1,0,0:0:0:0:
256,192,91195,1,0,0:0:0:0:
256,192,91370,1,8,0:0:0:0:
256,192,91546,1,8,0:0:0:0:
256,192,91897,1,8,0:0:0:0:
256,192,92248,1,0,0:0:0:0:
256,192,92598,1,8,0:0:0:0:
256,192,93125,1,0,0:0:0:0:
256,192,93300,1,0,0:0:0:0:
256,192,93476,1,8,0:0:0:0:
160,192,93651,5,4,0:0:0:0:
256,192,94002,1,8,0:0:0:0:
256,192,94353,1,0,0:0:0:0:
256,192,94528,1,0,0:0:0:0:
256,192,94704,1,8,0:0:0:0:
256,192,95230,1,0,0:0:0:0:
256,192,95405,1,8,0:0:0:0:
256,192,95581,1,8,0:0:0:0:
256,192,95756,1,0,0:0:0:0:
256,192,96107,1,0,0:0:0:0:
256,192,96458,1,8,0:0:0:0:
256,192,96809,1,8,0:0:0:0:
256,192,97160,1,0,0:0:0:0:
256,192,97511,1,0,0:0:0:0:
256,192,97686,1,8,0:0:0:0:
256,192,97862,1,0,0:0:0:0:
256,192,98212,1,8,0:0:0:0:
256,192,98563,1,0,0:0:0:0:
256,192,98914,1,8,0:0:0:0:
256,192,99265,1,8,0:0:0:0:
256,192,99441,1,0,0:0:0:0:
256,192,99616,1,0,0:0:0:0:
256,192,99791,1,8,0:0:0:0:
256,192,99967,1,0,0:0:0:0:
256,192,101019,1,8,0:0:0:0:
256,192,101721,1,0,0:0:0:0:
256,192,101809,1,0,0:0:0:0:
256,192,101897,1,0,0:0:0:0:
352,192,102072,5,12,0:0:0:0:
256,192,102598,1,8,0:0:0:0:
256,192,102949,1,0,0:0:0:0:
256,192,103125,1,8,0:0:0:0:
256,192,103476,1,8,0:0:0:0:
256,192,103827,1,0,0:0:0:0:
256,192,104002,1,8,0:0:0:0:
256,192,104177,1,8,0:0:0:0:
256,192,104528,1,0,0:0:0:0:
256,192,104879,1,0,0:0:0:0:
256,192,105055,1,0,0:0:0:0:
256,192,105230,1,8,0:0:0:0:
256,192,105756,1,8,0:0:0:0:
256,192,105932,1,0,0:0:0:0:
256,192,106107,1,0,0:0:0:0:
256,192,106283,1,8,0:0:0:0:
256,192,106634,1,0,0:0:0:0:
256,192,106984,1,0,0:0:0:0:
256,192,107335,1,8,0:0:0:0:
256,192,107686,1,8,0:0:0:0:
256,192,107862,1,0,0:0:0:0:
256,192,108037,1,8,0:0:0:0:
256,192,108212,1,8,0:0:0:0:
256,192,108388,1,8,0:0:0:0:
256,192,108739,1,8,0:0:0:0:
256,192,109090,1,0,0:0:0:0:
256,192,109441,1,8,0:0:0:0:
256,192,109967,1,8,0:0:0:0:
256,192,110142,1,0,0:0:0:0:
256,192,110318,1,8,0:0:0:0:
160,192,110493,5,4,0:0:0:0:
256,192,110844,1,0,0:0:0:0:
256,192,111195,1,8,0:0:0:0:
256,192,111370,1,0,0:0:0:0:
256,192,111546,1,8,0:0:0:0:
256,192,111897,1,0,0:0:0:0:
256,192,112072,1,8,0:0:0:0:
256,192,112248,1,0,0:0:0:0:
256,192,112335,1,0,0:0:0:0:
256,192,112423,1,0,0:0:0:0:
352,192,112598,1,12,0:0:0:0:
352,192,113125,1,12,0:0:0:0:
160,192,113476,1,12,0:0:0:0:
352,192,113651,1,4,0:0:0:0:
352,192,114002,1,12,0:0:0:0:
352,192,114353,1,12,0:0:0:0:
160,192,114704,1,4,0:0:0:0:
256,192,115055,1,8,0:0:0:0:
256,192,115405,1,0,0:0:0:0:
256,192,115581,1,0,0:0:0:0:
256,192,115756,1,8,0:0:0:0:
256,192,116107,1,8,0:0:0:0:
256,192,116283,1,0,0:0:0:0:
256,192,116458,1,8,0:0:0:0:
256,192,116634,1,8,0:0:0:0:
256,192,116809,1,0,0:0:0:0:
256,192,117862,1,8,0:0:0:0:
256,192,118388,1,0,0:0:0:0:
256,192,118739,1,8,0:0:0:0:
256,192,118914,5,0,0:0:0:0:
256,192,122072,12,0,122774,0:0:0:0:
352,192,123125,5,12,0:0:0:0:
256,192,123476,1,0,0:0:0:0:
256,192,123827,1,8,0:0:0:0:
256,192,124002,1,8,0:0:0:0:
256,192,124177,1,8,0:0:0:0:
256,192,124528,1,0,0:0:0:0:
256,192,124879,1,8,0:0:0:0:
256,192,125230,1,8,0:0:0:0:
256,192,125581,1,8,0:0:0:0:
256,192,125756,1,0,0:0:0:0:
256,192,125932,1,0,0:0:0:0:
256,192,126107,1,0,0:0:0:0:
256,192,126283,1,8,0:0:0:0:
256,192,126634,1,8,0:0:0:0:
256,192,126721,1,8,0:0:0:0:
256,192,126809,1,8,0:0:0:0:
256,192,126984,1,0,0:0:0:0:
256,192,127160,1,8,0:0:0:0:
256,192,127335,1,8,0:0:0:0:
256,192,127686,1,8,0:0:0:0:
256,192,128037,1,0,0:0:0:0:
256,192,128212,1,0,0:0:0:0:
256,192,128388,1,8,0:0:0:0:
256,192,128739,1,0,0:0:0:0:
256,192,129090,1,8,0:0:0:0:
256,192,129441,1,8,0:0:0:0:
256,192,129791,1,0,0:0:0:0:
256,192,129967,1,8,0:0:0:0:
256,192,130142,1,0,0:0:0:0:
256,192,130318,1,8,0:0:0:0:
256,192,130493,1,8,0:0:0:0:
256,192,130844,1,0,0:0:0:0:
256,192,130932,1,0,0:0:0:0:
256,192,131019,1,0,0:0:0:0:
256,192,131195,1,8,0:0:0:0:
352,192,131546,5,12,0:0:0:0:
256,192,131897,1,0,0:0:0:0:
256,192,132248,1,0,0:0:0:0:
256,192,132423,1,8,0:0:0:0:
256,192,132598,1,8,0:0:0:0:
256,192,132949,1,0,0:0:0:0:
256,192,133300,1,0,0:0:0:0:
256,192,133651,1,8,0:0:0:0:
256,192,134002,1,8,0:0:0:0:
256,192,134177,1,0,0:0:0:0:
256,192,134353,1,0,0:0:0:0:
256,192,134528,1,8,0:0:0:0:
256,192,134704,1,8,0:0:0:0:
256,192,135055,1,8,0:0:0:0:
256,192,135142,1,8,0:0:0:0:
256,192,135230,1,8,0:0:0:0:
256,192,135405,1,0,0:0:0:0:
256,192,135581,1,8,0:0:0:0:
256,192,135756,1,8,0:0:0:0:
256,192,136107,1,8,0:0:0:0:
256,192,136458,1,0,0:0:0:0:
256,192,136634,1,8,0:0:0:0:
256,192,136809,1,8,0:0:0:0:
256,192,137160,1,8,0:0:0:0:
256,192,137511,1,0,0:0:0:0:
256,192,137862,1,8,0:0:0:0:
256,192,138914,1,8,0:0:0:0:
256,192,139616,1,8,0:0:0:0:
256,192,139704,1,8,0:0:0:0:
256,192,139791,1,8,0:0:0:0:
160,192,139967,5,4,0:0:0:0:
256,192,140318,1,8,0:0:0:0:
256,192,140493,1,8,0:0:0:0:
256,192,140669,1,0,0:0:0:0:
256,192,141019,1,8,0:0:0:0:
256,192,141370,1,0,0:0:0:0:
256,192,141546,1,8,0:0:0:0:
256,192,141721,1,0,0:0:0:0:
256,192,142072,1,0,0:0:0:0:
256,192,142423,1,8,0:0:0:0:
256,192,142598,1,8,0:0:0:0:
256,192,142774,1,0,0:0:0:0:
256,192,143125,1,8,0:0:0:0:
256,192,143476,1,0,0:0:0:0:
256,192,143651,1,8,0:0:0:0:
256,192,143827,1,0,0:0:0:0:
256,192,144177,1,0,0:0:0:0:
256,192,144528,1,8,0:0:0:0:
256,192,144704,1,8,0:0:0:0:
256,192,144879,1,0,0:0:0:0:
256,192,145230,1,8,0:0:0:0:
256,192,145581,1,0,0:0:0:0:
256,192,145756,1,8,0:0:0:0:
256,192,145932,1,0,0:0:0:0:
256,192,146283,1,0,0:0:0:0:
256,192,146634,1,8,0:0:0:0:
256,192,146809,1,8,0:0:0:0:
256,192,146984,1,0,0:0:0:0:
256,192,147335,1,8,0:0:0:0:
256,192,147686,1,0,0:0:0:0:
256,192,147862,1,8,0:0:0:0:
256,192,148037,1,0,0:0:0:0:
