osu file format v14

[General]
AudioFilename: audio.mp3
AudioLeadIn: 0
PreviewTime: 123067
Countdown: 0
SampleSet: Normal
StackLeniency: 1
Mode: 1
LetterboxInBreaks: 0
WidescreenStoryboard: 1

[Editor]
Bookmarks: 1050,13681,17892,34734,43155,59997,68418,76839,85260,102102,118944,123155,139997,148418
DistanceSpacing: 1.1
BeatDivisor: 2
GridSize: 32
TimelineZoom: 1

[Metadata]
Title:Reincarnation
TitleUnicode:Reincarnation
Artist:EmoCosine
ArtistUnicode:EmoCosine
Creator:Rycy
Version:Kantan
Source:Deemo
Tags:emoco. featured artist fa piano rhythm video game instrumental waltz rayark inc.
BeatmapID:3534796
BeatmapSetID:1729604

[Difficulty]
HPDrainRate:8.5
CircleSize:2
OverallDifficulty:2
ApproachRate:0
SliderMultiplier:1.4
SliderTickRate:1

[Events]
//Background and Video events
0,0,"BG.png",0,0
//Break Periods
2,119114,120272
//Storyboard Layer 0 (Background)
//Storyboard Layer 1 (Fail)
//Storyboard Layer 2 (Pass)
//Storyboard Layer 3 (Foreground)
//Storyboard Layer 4 (Overlay)
//Storyboard Sound Samples

[TimingPoints]
1020,350.877192982456,6,1,0,60,1,0
1020,-111.111111111111,6,1,0,60,0,0
13651,-108.108108108108,6,1,0,65,0,0
15756,-105.263157894737,6,1,0,70,0,0
17862,-100,6,1,0,85,0,0
34704,-105.263157894737,6,1,0,70,0,0
43125,-105.263157894737,6,1,0,75,0,0
59967,-111.111111111111,6,1,0,60,0,0
68388,-111.111111111111,6,1,0,65,0,0
76809,-109.89010989011,6,1,0,75,0,0
77862,-108.695652173913,6,1,0,75,0,0
78914,-107.52688172043,6,1,0,75,0,0
79967,-106.382978723404,6,1,0,75,0,0
81019,-105.263157894737,6,1,0,75,0,0
82072,-104.166666666667,6,1,0,75,0,0
83651,-103.092783505155,6,1,0,75,0,0
84177,-102.040816326531,6,1,0,75,0,0
84704,-101.010101010101,6,1,0,75,0,0
85230,-100,6,1,0,85,0,0
102072,-100,6,1,0,90,0,0
118739,-100,6,1,0,50,0,0
119090,-111.111111111111,6,1,0,50,0,0
122072,-100,6,1,0,75,0,0
123125,-100,6,1,0,100,0,1
139967,-105.263157894737,6,1,0,70,0,0
144177,-104.166666666667,6,1,0,73,0,0
145230,-103.092783505155,6,1,0,75,0,0
146283,-102.040816326531,6,1,0,78,0,0
147335,-101.010101010101,6,1,0,80,0,0
148037,-100,6,1,0,80,0,0

[HitObjects]
256,192,1020,5,0,0:0:0:0:
256,192,2072,1,8,0:0:0:0:
256,192,2774,1,8,0:0:0:0:
256,192,3125,1,0,0:0:0:0:
256,192,4177,1,8,0:0:0:0:
256,192,4879,1,0,0:0:0:0:
256,192,5230,1,8,0:0:0:0:
256,192,6283,1,0,0:0:0:0:
256,192,6984,1,0,0:0:0:0:
256,192,7335,1,8,0:0:0:0:
256,192,7862,1,0,0:0:0:0:
256,192,8388,1,8,0:0:0:0:
256,192,9441,5,0,0:0:0:0:
256,192,10493,1,8,0:0:0:0:
256,192,11546,1,8,0:0:0:0:
256,192,12248,1,0,0:0:0:0:
256,192,12598,1,8,0:0:0:0:
256,192,13300,1,8,0:0:0:0:
256,192,13651,1,8,0:0:0:0:
256,192,14353,1,0,0:0:0:0:
256,192,14704,1,8,0:0:0:0:
256,192,15405,1,8,0:0:0:0:
256,192,15756,1,0,0:0:0:0:
256,192,16107,1,0,0:0:0:0:
256,192,16458,1,0,0:0:0:0:
256,192,16809,1,8,0:0:0:0:
160,192,17862,5,4,0:0:0:0:
256,192,18388,1,0,0:0:0:0:
256,192,18914,1,8,0:0:0:0:
256,192,19616,1,8,0:0:0:0:
256,192,19967,1,8,0:0:0:0:
256,192,20669,1,0,0:0:0:0:
256,192,21019,1,8,0:0:0:0:
256,192,22072,1,0,0:0:0:0:
256,192,22774,1,0,0:0:0:0:
256,192,23125,1,8,0:0:0:0:
256,192,23476,1,0,0:0:0:0:
256,192,23827,1,0,0:0:0:0:
256,192,24177,1,8,0:0:0:0:
256,192,24879,1,0,0:0:0:0:
256,192,25230,1,8,0:0:0:0:
256,192,25932,1,8,0:0:0:0:
160,192,26283,5,4,0:0:0:0:
256,192,27335,1,8,0:0:0:0:
256,192,28037,1,0,0:0:0:0:
256,192,28388,1,8,0:0:0:0:
256,192,28739,1,0,0:0:0:0:
256,192,29090,1,8,0:0:0:0:
256,192,29441,1,8,0:0:0:0:
256,192,30493,1,0,0:0:0:0:
256,192,31195,1,0,0:0:0:0:
256,192,31546,1,8,0:0:0:0:
256,192,32248,1,0,0:0:0:0:
256,192,32598,1,0,0:0:0:0:
256,192,33651,1,8,0:0:0:0:
160,192,34704,5,4,0:0:0:0:
256,192,35756,1,8,0:0:0:0:
256,192,36458,1,0,0:0:0:0:
256,192,36809,1,8,0:0:0:0:
256,192,37511,1,8,0:0:0:0:
256,192,37862,1,0,0:0:0:0:
256,192,38212,1,0,0:0:0:0:
256,192,38914,1,8,0:0:0:0:
256,192,39967,1,0,0:0:0:0:
256,192,40669,1,0,0:0:0:0:
256,192,41019,1,8,0:0:0:0:
256,192,41721,1,8,0:0:0:0:
256,192,42072,1,8,0:0:0:0:
256,192,42423,1,0,0:0:0:0:
256,192,42774,1,0,0:0:0:0:
352,192,43125,5,12,0:0:0:0:
256,192,44177,1,8,0:0:0:0:
256,192,44879,1,0,0:0:0:0:
256,192,45230,1,8,0:0:0:0:
256,192,45756,1,8,0:0:0:0:
256,192,46283,1,8,0:0:0:0:
256,192,46634,1,0,0:0:0:0:
256,192,47335,1,8,0:0:0:0:
256,192,48388,1,8,0:0:0:0:
256,192,49090,1,0,0:0:0:0:
256,192,49441,1,8,0:0:0:0:
256,192,49967,1,0,0:0:0:0:
256,192,50493,1,8,0:0:0:0:
256,192,50844,1,0,0:0:0:0:
352,192,51546,5,12,0:0:0:0:
256,192,52598,1,8,0:0:0:0:
256,192,53300,1,0,0:0:0:0:
256,192,53651,1,8,0:0:0:0:
256,192,54177,1,8,0:0:0:0:
256,192,54704,1,8,0:0:0:0:
256,192,55055,1,0,0:0:0:0:
256,192,55756,1,8,0:0:0:0:
256,192,56809,1,8,0:0:0:0:
256,192,57511,1,8,0:0:0:0:
256,192,57862,1,0,0:0:0:0:
256,192,58388,1,8,0:0:0:0:
256,192,58914,1,8,0:0:0:0:
256,192,59265,1,0,0:0:0:0:
160,192,59967,5,4,0:0:0:0:
256,192,61019,1,8,0:0:0:0:
256,192,62072,1,0,0:0:0:0:
256,192,63125,1,8,0:0:0:0:
256,192,64177,1,0,0:0:0:0:
256,192,65230,1,8,0:0:0:0:
256,192,66283,1,8,0:0:0:0:
256,192,66634,1,0,0:0:0:0:
256,192,66984,1,0,0:0:0:0:
256,192,67335,1,8,0:0:0:0:
256,192,67686,1,0,0:0:0:0:
352,192,68388,5,12,0:0:0:0:
256,192,69441,1,8,0:0:0:0:
256,192,70142,1,8,0:0:0:0:
256,192,70493,1,0,0:0:0:0:
256,192,71546,1,8,0:0:0:0:
256,192,72248,1,0,0:0:0:0:
256,192,72598,1,8,0:0:0:0:
256,192,73651,1,0,0:0:0:0:
256,192,74353,1,0,0:0:0:0:
256,192,74704,1,8,0:0:0:0:
256,192,75230,1,0,0:0:0:0:
256,192,75756,1,8,0:0:0:0:
256,192,76458,1,8,0:0:0:0:
160,192,76809,5,4,0:0:0:0:
160,192,77862,1,4,0:0:0:0:
160,192,78914,1,4,0:0:0:0:
160,192,79967,1,4,0:0:0:0:
160,192,81019,1,4,0:0:0:0:
160,192,82072,1,4,0:0:0:0:
256,192,83125,1,8,0:0:0:0:
256,192,83651,1,8,0:0:0:0:
256,192,84177,1,8,0:0:0:0:
256,192,84704,1,8,0:0:0:0:
160,192,85230,5,4,0:0:0:0:
256,192,85756,1,0,0:0:0:0:
256,192,86283,1,8,0:0:0:0:
256,192,86984,1,0,0:0:0:0:
256,192,87335,1,8,0:0:0:0:
256,192,88037,1,8,0:0:0:0:
256,192,88388,1,8,0:0:0:0:
256,192,89441,1,0,0:0:0:0:
256,192,90142,1,0,0:0:0:0:
256,192,90493,1,8,0:0:0:0:
256,192,90844,1,0,0:0:0:0:
256,192,91195,1,0,0:0:0:0:
256,192,91546,1,8,0:0:0:0:
256,192,92248,1,0,0:0:0:0:
256,192,92598,1,8,0:0:0:0:
256,192,93300,1,8,0:0:0:0:
160,192,93651,5,4,0:0:0:0:
256,192,94704,1,8,0:0:0:0:
256,192,95405,1,0,0:0:0:0:
256,192,95756,1,8,0:0:0:0:
256,192,96107,1,0,0:0:0:0:
256,192,96458,1,8,0:0:0:0:
256,192,96809,1,8,0:0:0:0:
256,192,97862,1,0,0:0:0:0:
256,192,98563,1,0,0:0:0:0:
256,192,98914,1,8,0:0:0:0:
256,192,99616,1,0,0:0:0:0:
256,192,99967,1,0,0:0:0:0:
256,192,101019,1,8,0:0:0:0:
352,192,102072,5,12,0:0:0:0:
256,192,102598,1,0,0:0:0:0:
256,192,103125,1,8,0:0:0:0:
256,192,103827,1,0,0:0:0:0:
256,192,104177,1,8,0:0:0:0:
256,192,104879,1,0,0:0:0:0:
256,192,105230,1,8,0:0:0:0:
256,192,106283,1,0,0:0:0:0:
256,192,106984,1,0,0:0:0:0:
256,192,107335,1,8,0:0:0:0:
256,192,107686,1,8,0:0:0:0:
256,192,108037,1,0,0:0:0:0:
256,192,108388,1,8,0:0:0:0:
256,192,109090,1,0,0:0:0:0:
256,192,109441,1,8,0:0:0:0:
256,192,110142,1,8,0:0:0:0:
160,192,110493,5,4,0:0:0:0:
256,192,111546,1,8,0:0:0:0:
256,192,111897,1,0,0:0:0:0:
352,192,112598,1,12,0:0:0:0:
352,192,113125,1,12,0:0:0:0:
352,192,113651,1,4,0:0:0:0:
160,192,114002,1,12,0:0:0:0:
160,192,114353,1,12,0:0:0:0:
352,192,114704,1,4,0:0:0:0:
256,192,115405,1,0,0:0:0:0:
256,192,115756,1,8,0:0:0:0:
256,192,116458,1,0,0:0:0:0:
256,192,116809,1,0,0:0:0:0:
256,192,117862,1,8,0:0:0:0:
256,192,118914,5,0,0:0:0:0:
256,192,122072,12,0,122774,0:0:0:0:
352,192,123125,5,12,0:0:0:0:
256,192,124177,1,8,0:0:0:0:
256,192,124879,1,8,0:0:0:0:
256,192,125230,1,0,0:0:0:0:
256,192,126283,1,8,0:0:0:0:
256,192,126984,1,0,0:0:0:0:
256,192,127335,1,8,0:0:0:0:
256,192,128037,1,8,0:0:0:0:
256,192,128388,1,0,0:0:0:0:
256,192,128739,1,0,0:0:0:0:
256,192,129090,1,0,0:0:0:0:
256,192,129441,1,8,0:0:0:0:
256,192,130142,1,0,0:0:0:0:
256,192,130493,1,8,0:0:0:0:
352,192,131546,5,12,0:0:0:0:
256,192,132598,1,8,0:0:0:0:
256,192,133300,1,0,0:0:0:0:
256,192,133651,1,0,0:0:0:0:
256,192,134353,1,0,0:0:0:0:
256,192,134704,1,8,0:0:0:0:
256,192,135055,1,8,0:0:0:0:
256,192,135405,1,8,0:0:0:0:
256,192,135756,1,0,0:0:0:0:
256,192,136458,1,0,0:0:0:0:
256,192,136809,1,8,0:0:0:0:
256,192,137160,1,8,0:0:0:0:
256,192,137511,1,0,0:0:0:0:
256,192,137862,1,0,0:0:0:0:
256,192,138914,1,8,0:0:0:0:
160,192,139967,5,4,0:0:0:0:
256,192,141019,1,8,0:0:0:0:
256,192,142072,1,0,0:0:0:0:
256,192,143125,1,8,0:0:0:0:
256,192,144177,1,0,0:0:0:0:
256,192,145230,1,8,0:0:0:0:
256,192,146283,1,0,0:0:0:0:
256,192,147335,1,8,0:0:0:0:
256,192,148037,1,0,0:0:0:0:
