osu file format v14

[General]
AudioFilename: audio.mp3
AudioLeadIn: 0
PreviewTime: 117600
Countdown: 0
SampleSet: Soft
StackLeniency: 0.5
Mode: 0
LetterboxInBreaks: 0
WidescreenStoryboard: 1

[Editor]
Bookmarks: 2400,15200,21600,28000,40800,53600,64800,66400,79200,92000,104800,130400,143200
DistanceSpacing: 0.9
BeatDivisor: 4
GridSize: 32
TimelineZoom: 2.100006

[Metadata]
Title:MAGENTA POTION (Short Ver.)
TitleUnicode:MAGENTA POTION (Short Ver.)
Artist:EmoCosine
ArtistUnicode:EmoCosine
Creator:Starfy
Version:Chaoz's Extra
Source:BOFXV
Tags:starforyou ming3012 iredi chaoslitz chaoz helloz emoco. 同人時代 doujin jidai BOFXV19 BOF19 BMS OF FIGHTERS EXTREME VIOLENCE future jersey club aphrodite featured artist fa Muse Dash phigros WACCA Lily R kind kindfy Mappers' Guild mpg electronic instrumental english
BeatmapID:3662380
BeatmapSetID:1079970

[Difficulty]
HPDrainRate:5
CircleSize:4.2
OverallDifficulty:8.5
ApproachRate:9.2
SliderMultiplier:2.2
SliderTickRate:1

[Events]
//Background and Video events
0,0,"BGEEEE.jpg",0,0
//Break Periods
//Storyboard Layer 0 (Background)
//Storyboard Layer 1 (Fail)
//Storyboard Layer 2 (Pass)
//Storyboard Layer 3 (Foreground)
//Storyboard Layer 4 (Overlay)
//Storyboard Sound Samples

[TimingPoints]
800,400,4,2,1,20,1,0
1200,-100,4,2,1,40,0,0
1600,-100,4,2,1,60,0,0
1800,-100,4,2,1,65,0,0
2000,-100,4,2,1,70,0,0
2200,-100,4,2,1,80,0,0
2300,-100,4,2,1,90,0,0
2400,400,4,2,1,80,1,0
2400,-100,4,2,1,80,0,0
8400,-100,4,2,69,80,0,0
8600,-100,4,2,70,80,0,0
8800,-100,4,2,1,80,0,0
13600,-100,4,2,2,80,0,0
14800,-76.9230769230769,4,2,1,80,0,0
15200,-90.9090909090909,4,2,1,80,0,0
20800,-90.9090909090909,4,2,3,80,0,0
21000,-90.9090909090909,4,2,1,80,0,0
21200,-66.6666666666667,4,2,1,80,0,0
21400,-90.9090909090909,4,2,1,80,0,0
24800,-111.111111111111,4,2,1,80,0,0
25600,-100,4,2,1,80,0,0
26000,-90.9090909090909,4,2,1,80,0,0
26400,-90.9090909090909,4,2,5,80,0,0
27200,-90.9090909090909,4,2,1,80,0,0
27600,-83.3333333333333,4,2,1,80,0,0
28000,-500,4,2,4,70,0,0
28800,-100,4,2,4,70,0,0
29400,-1000,4,2,4,70,0,0
29600,-500,4,2,4,70,0,0
30400,-100,4,2,4,70,0,0
31000,-1000,4,2,4,70,0,0
31200,-500,4,2,4,70,0,0
32000,-100,4,2,4,70,0,0
32600,-1000,4,2,4,70,0,0
32800,-500,4,2,4,70,0,0
33600,-100,4,2,4,70,0,0
34000,-100,4,2,69,70,0,0
34200,-100,4,2,70,70,0,0
34400,-500,4,2,4,75,0,0
34800,-100,4,2,4,75,0,0
35200,-100,4,2,4,75,0,0
35800,-1000,4,2,4,75,0,0
36000,-500,4,2,4,75,0,0
36400,-100,4,2,4,75,0,0
36800,-100,4,2,4,75,0,0
37400,-1000,4,2,4,75,0,0
37600,-83.3333333333333,4,2,4,75,0,0
38000,-100,4,2,4,75,0,0
38200,-83.3333333333333,4,2,4,75,0,0
38600,-100,4,2,4,75,0,0
38800,-83.3333333333333,4,2,4,75,0,0
39200,-100,4,2,1,75,0,0
40000,-90.9090909090909,4,2,1,75,0,0
40600,-83.3333333333333,4,2,1,75,0,0
40800,-83.3333333333333,4,2,1,80,0,1
46200,-100,4,2,1,80,0,1
46400,-83.3333333333333,4,2,1,80,0,1
46800,-83.3333333333333,4,2,69,80,0,1
47000,-83.3333333333333,4,2,70,80,0,1
47200,-76.9230769230769,4,2,1,80,0,1
47400,-83.3333333333333,4,2,1,80,0,1
48800,-76.9230769230769,4,2,1,80,0,1
49000,-83.3333333333333,4,2,1,80,0,1
52800,-76.9230769230769,4,2,1,80,0,1
53600,-100,4,2,4,70,0,0
56000,-90.9090909090909,4,2,1,70,0,0
56100,-90.9090909090909,4,2,4,70,0,0
56300,-90.9090909090909,4,2,1,70,0,0
56400,-90.9090909090909,4,2,4,70,0,0
56600,-90.9090909090909,4,2,1,70,0,0
56800,-100,4,2,4,70,0,0
59200,-90.9090909090909,4,2,1,70,0,0
59300,-90.9090909090909,4,2,4,70,0,0
59500,-90.9090909090909,4,2,1,70,0,0
59600,-76.9230769230769,4,2,4,70,0,0
59800,-76.9230769230769,4,2,1,70,0,0
60000,-125,4,2,1,65,0,0
61600,-111.111111111111,4,2,1,65,0,0
63200,-100,4,2,1,65,0,0
64000,-83.3333333333333,4,2,1,65,0,0
64800,-83.3333333333333,4,2,5,65,0,0
65600,-125,4,2,5,65,0,0
66000,-50,4,2,1,90,0,0
66400,-66.6666666666667,4,2,4,85,0,0
66800,-83.3333333333333,4,2,1,85,0,1
69200,-76.9230769230769,4,2,1,85,0,1
69400,-166.666666666667,4,2,1,85,0,1
69600,-58.8235294117647,4,2,4,85,0,1
70000,-83.3333333333333,4,2,1,85,0,1
71200,-83.3333333333333,4,2,2,85,0,1
72400,-58.8235294117647,4,2,1,85,0,1
72600,-166.666666666667,4,2,1,85,0,1
72800,-83.3333333333333,4,2,2,75,0,1
74200,-166.666666666667,4,2,2,75,0,1
74400,-83.3333333333334,4,2,2,75,0,1
76000,-83.3333333333334,4,2,4,75,0,1
76200,-83.3333333333334,4,2,2,75,0,1
77200,-76.9230769230769,4,2,2,75,0,1
77600,-58.8235294117647,4,2,69,85,0,1
77800,-166.666666666667,4,2,70,85,0,1
78000,-58.8235294117647,4,2,69,85,0,1
78200,-166.666666666667,4,2,70,85,0,1
78400,-83.3333333333334,4,2,69,85,0,1
78600,-83.3333333333334,4,2,70,85,0,1
78800,-83.3333333333334,4,2,69,85,0,1
79000,-83.3333333333334,4,2,70,85,0,1
79200,-66.6666666666667,4,2,4,85,0,0
79600,-83.3333333333333,4,2,1,85,0,1
82000,-76.9230769230769,4,2,1,85,0,1
82200,-166.666666666667,4,2,1,85,0,1
82400,-62.5,4,2,4,85,0,1
82800,-83.3333333333333,4,2,1,85,0,1
84000,-83.3333333333333,4,2,2,85,0,1
85200,-58.8235294117647,4,2,1,85,0,1
85400,-166.666666666667,4,2,1,85,0,1
85600,-83.3333333333334,4,2,2,75,0,1
89600,-66.6666666666667,4,2,2,75,0,1
89900,-52.6315789473684,4,2,2,75,0,1
90200,-83.3333333333333,4,2,2,75,0,1
91200,-83.3333333333333,4,2,1,75,0,1
91600,-76.9230769230769,4,2,1,75,0,1
92000,-100,4,2,80,65,0,0
92300,-100,4,2,12,65,0,0
96800,-100,4,2,2,65,0,0
97200,-100,4,2,12,65,0,0
97250,-100,4,2,2,65,0,0
97600,-100,4,2,1,65,0,0
98000,-66.6666666666667,4,2,80,65,0,0
98200,-90.9090909090909,4,2,80,65,0,0
98400,-90.9090909090909,4,2,1,75,0,0
101600,-111.111111111111,4,2,1,75,0,0
102400,-100,4,2,1,75,0,0
102800,-90.9090909090909,4,2,1,75,0,0
103200,-90.9090909090909,4,2,5,75,0,0
104000,-90.9090909090909,4,2,1,75,0,0
104400,-83.3333333333333,4,2,1,75,0,0
104800,-500,4,2,4,70,0,0
105600,-100,4,2,4,70,0,0
106400,-500,4,2,4,70,0,0
107200,-100,4,2,4,70,0,0
108000,-500,4,2,4,70,0,0
109000,-100,4,2,4,70,0,0
109600,-58.8235294117647,4,2,2,70,0,0
110800,-40,4,2,1,85,0,0
111200,-500,4,2,4,75,0,0
112000,-100,4,2,4,75,0,0
112600,-1000,4,2,4,75,0,0
112800,-500,4,2,4,75,0,0
113600,-100,4,2,4,75,0,0
114200,-1000,4,2,4,75,0,0
114400,-83.3333333333333,4,2,4,75,0,0
114800,-100,4,2,4,75,0,0
115000,-83.3333333333333,4,2,4,75,0,0
115400,-100,4,2,4,75,0,0
115600,-83.3333333333333,4,2,4,75,0,0
116000,-100,4,2,4,75,0,0
116800,-90.9090909090909,4,2,4,75,0,0
117400,-83.3333333333333,4,2,4,75,0,0
117600,-83.3333333333333,4,2,1,80,0,1
123600,-83.3333333333333,4,2,69,80,0,1
123800,-83.3333333333333,4,2,70,80,0,1
124000,-76.9230769230769,4,2,1,80,0,1
124200,-83.3333333333333,4,2,1,80,0,1
125600,-76.9230769230769,4,2,1,80,0,1
125800,-83.3333333333333,4,2,1,80,0,1
128800,-83.3333333333333,4,2,5,70,0,1
130000,-83.3333333333333,4,2,1,50,0,1
130400,-100,4,2,12,60,0,0
136400,-83.3333333333333,4,2,69,60,0,0
136600,-83.3333333333333,4,2,70,60,0,0
136800,-100,4,2,12,60,0,0

[Colours]
Combo1 : 255,128,192
Combo2 : 64,255,255
SliderBorder : 255,64,128
SliderTrackOverride : 0,128,255

[HitObjects]
125,123,800,6,0,L|195:119,5,36.6666666666667,2|2|2|2|2|2,0:0|0:0|0:0|0:0|0:0|0:0,0:0:0:0:
128,202,1200,2,0,L|198:198,5,36.6666666666667,2|2|2|2|2|2,0:0|0:0|0:0|0:0|0:0|0:0,0:0:0:0:
106,46,1600,5,4,0:2:0:0:
101,43,1700,2,0,P|82:100|95:102,1,55,4|4,0:2|0:0,0:0:0:0:
81,267,1900,1,4,0:0:0:0:
128,202,2000,5,4,0:0:0:0:
73,188,2100,1,4,0:0:0:0:
22,214,2200,1,4,0:0:0:0:
2,267,2300,1,4,0:0:0:0:
22,320,2400,6,0,B|43:304|43:304|-18:312,1,55,6|0,1:2|0:0,0:0:0:0:
160,276,2600,1,0,0:0:0:0:
13,134,2800,1,2,0:3:0:0:
112,340,3000,2,0,P|174:331|172:316,1,55,6|0,1:2|0:0,0:0:0:0:
81,267,3400,5,2,0:0:0:0:
228,316,3600,2,0,B|239:337|239:337|374:332,1,110,6|2,1:2|0:0,0:0:0:0:
332,329,3900,1,2,0:0:0:0:
405,362,4000,6,0,P|408:368|408:353,1,55,6|0,1:2|0:0,0:0:0:0:
421,172,4200,1,0,0:0:0:0:
346,251,4400,2,0,L|454:247,1,55,2|0,0:3|0:0,0:0:0:0:
496,93,4600,2,0,L|388:97,1,55,6|0,1:2|0:0,0:0:0:0:
487,218,4800,2,0,P|451:146|490:158,1,110,0|2,0:0|0:0,0:0:0:0:
248,52,5100,1,2,0:0:0:0:
256,45,5200,2,0,B|264:62|264:62|248:135|248:135|266:167,1,110,4|2,1:2|0:0,0:0:0:0:
358,123,5500,1,2,0:0:0:0:
363,116,5600,6,0,B|332:120|332:120|383:151,1,55,6|0,1:2|0:0,0:0:0:0:
176,88,5800,1,0,0:0:0:0:
340,40,6000,1,2,0:3:0:0:
178,168,6200,2,0,P|128:127|137:113,1,55,6|0,1:2|0:0,0:0:0:0:
256,149,6600,5,0,0:0:0:0:
51,66,6800,2,0,B|83:35|83:35|67:140,1,110,6|2,1:2|0:0,0:0:0:0:
0,249,7100,1,2,0:0:0:0:
5,256,7200,2,0,L|113:252,1,55,6|0,1:2|0:0,0:0:0:0:
131,154,7400,2,0,P|70:166|64:139,1,55
256,338,7600,2,0,P|287:317|260:341,1,110,6|2,1:2|0:0,0:0:0:0:
213,245,7900,1,2,0:0:0:0:
208,236,8000,2,0,B|209:187|209:187|212:185|212:185|206:185|206:185|209:182|209:182|213:40,1,110,6|2,1:2|0:3,0:0:0:0:
311,229,8300,1,4,0:0:0:0:
317,224,8400,6,0,B|288:216|288:216|336:269,1,55,2|0,0:0|0:0,0:0:0:0:
132,311,8600,2,0,B|161:305|161:305|109:354,1,55,6|0,0:0|0:0,0:0:0:0:
290,122,8800,6,0,P|325:172|304:182,1,55,6|0,1:2|0:0,0:0:0:0:
360,291,9000,1,0,0:0:0:0:
416,117,9200,2,0,P|369:198|401:195,1,110,10|2,0:0|0:0,0:0:0:0:
360,291,9500,1,2,0:0:0:0:
366,299,9600,2,0,L|584:291,1,110,6|2,0:0|0:0,0:0:0:0:
317,224,9900,2,0,B|293:227|293:227|280:287|280:287|232:292,1,110,6|0,0:0|0:0,0:0:0:0:
166,348,10200,2,0,P|227:335|224:318,1,55,6|0,0:0|0:0,0:0:0:0:
205,208,10400,6,0,B|220:190|220:190|201:273,1,55,6|0,0:0|0:0,0:0:0:0:
256,289,10600,1,2,0:0:0:0:
252,116,10800,2,0,P|153:82|187:49,1,110,10|2,0:0|0:0,0:0:0:0:
78,9,11100,1,2,0:0:0:0:
84,0,11200,2,0,B|94:16|94:16|79:87|79:87|137:189,1,110,6|8,0:0|0:0,0:0:0:0:
21,265,11500,2,0,L|239:257,1,110,6|0,0:0|0:0,0:0:0:0:
45,185,11800,2,0,L|153:181,1,55,6|0,0:0|0:0,0:0:0:0:
52,343,12000,6,0,L|160:339,1,55,6|0,1:2|0:0,0:0:0:0:
21,265,12200,1,0,0:0:0:0:
184,364,12400,2,0,P|226:276|199:279,1,110,10|2,0:0|0:0,0:0:0:0:
327,222,12700,1,2,0:0:0:0:
332,212,12800,2,0,B|301:184|301:184|321:300,1,110,6|2,0:0|0:0,0:0:0:0:
389,377,13100,2,0,B|416:329|416:329|362:244,1,110,6|0,0:0|0:0,0:0:0:0:
268,333,13400,2,0,L|376:329,1,55,6|0,0:0|0:0,0:0:0:0:
442,192,13600,6,0,P|401:195|399:188,2,36.6666666666667,12|0|0,0:2|0:0|0:0,0:0:0:0:
393,123,13800,1,8,0:0:0:0:
397,127,13900,1,8,0:0:0:0:
445,64,14000,2,0,P|405:56|401:68,2,36.6666666666667,12|0|0,0:0|0:0|0:0,0:0:0:0:
393,123,14200,2,0,L|323:127,2,36.6666666666667,8|0|0,0:0|0:0|0:0,0:0:0:0:
256,88,14400,5,12,1:2:0:0:
256,80,14466,5,0,0:0:0:0:
256,72,14533,5,0,0:0:0:0:
256,64,14600,6,0,L|256:-45,1,55,8|0,1:2|0:0,0:0:0:0:
8,135,14800,6,0,B|42:123|42:123|69:149|69:149|49:344,1,142.99999345398,6|2,0:0|0:0,0:0:0:0:
138,243,15100,1,0,0:0:0:0:
6,348,15200,6,0,P|49:268|-2:286,1,121.000003692627,6|0,1:2|0:0,0:0:0:0:
174,86,15500,1,4,0:0:0:0:
207,161,15600,2,0,L|96:165,1,60.5000018463135,10|0,0:0|0:0,0:0:0:0:
318,371,15800,2,0,B|274:391|253:346|253:346|259:324|259:324|226:262|161:325,1,181.500005538941,6|0,0:0|0:0,0:0:0:0:
192,309,16200,2,0,P|256:322|263:284,1,60.5000018463135,6|0,0:0|0:0,0:0:0:0:
398,368,16400,2,0,P|414:283|380:308,1,121.000003692627,8|6,0:0|0:0,0:0:0:0:
320,226,16700,1,2,0:0:0:0:
315,215,16800,6,0,B|341:219|341:219|356:286|356:286|436:298,1,121.000003692627,6|2,0:0|0:0,0:0:0:0:
488,133,17100,1,4,0:0:0:0:
482,140,17200,2,0,L|371:144,1,60.5000018463135,10|0,0:0|0:0,0:0:0:0:
424,222,17400,2,0,L|535:218,1,60.5000018463135,6|0,0:0|0:0,0:0:0:0:
479,32,17600,2,0,B|438:-3|438:-3|458:118,1,121.000003692627,2|6,0:0|0:0,0:0:0:0:
415,136,17900,1,2,0:0:0:0:
422,142,18000,2,0,L|533:138,1,60.5000018463135,10|0,0:0|0:0,0:0:0:0:
341,72,18200,1,6,0:0:0:0:
292,49,18300,1,0,0:0:0:0:
256,88,18400,6,0,B|230:92|230:92|215:159|215:159|135:171,1,121.000003692627,6|2,0:0|0:0,0:0:0:0:
75,291,18700,1,6,0:0:0:0:
81,299,18800,2,0,L|85:181,1,60.5000018463135,10|0,0:0|0:0,0:0:0:0:
22,35,19000,2,0,B|16:22|16:22|114:8|114:8|70:125,1,181.500005538941,6|0,0:0|0:0,0:0:0:0:
87,80,19400,2,0,P|138:124|124:146,1,60.5000018463135,6|0,0:0|0:0,0:0:0:0:
134,220,19600,2,0,P|67:225|61:199,1,60.5000018463135,8|0,0:0|0:0,0:0:0:0:
13,148,19800,1,6,0:0:0:0:
17,155,19900,1,2,0:0:0:0:
21,162,20000,6,0,L|132:158,1,60.5000018463135,6|0,0:0|0:0,0:0:0:0:
104,359,20200,2,0,P|38:366|33:331,1,60.5000018463135,2|2,0:0|0:0,0:0:0:0:
15,276,20400,1,10,0:0:0:0:
52,297,20500,1,0,0:0:0:0:
84,269,20600,2,0,L|82:213,2,30.2500009231568
167,310,20800,6,0,B|190:293|190:293|144:301,1,60.5000018463135,8|0,0:0|0:0,0:0:0:0:
512,284,21000,1,8,0:0:0:0:
499,206,21100,1,4,0:0:0:0:
440,256,21200,6,0,B|430:271|430:271|450:357|450:357|418:404,1,123.750004720688,10|0,1:2|0:0,0:0:0:0:
435,379,21400,2,0,P|367:374|361:407,1,60.5000018463135
190,163,21600,6,0,B|234:161|234:161|257:198|257:198|213:283,1,121.000003692627,10|4,1:2|0:0,0:0:0:0:
306,376,21900,1,0,0:0:0:0:
334,299,22000,2,0,L|223:303,1,60.5000018463135,8|0,0:0|0:0,0:0:0:0:
48,359,22200,2,0,P|91:287|43:312,1,121.000003692627,6|8,0:0|0:0,0:0:0:0:
162,238,22500,1,0,0:0:0:0:
156,245,22600,2,0,L|45:249,1,60.5000018463135,6|0,0:0|0:0,0:0:0:0:
188,82,22800,2,0,L|299:78,1,60.5000018463135,8|0,0:0|0:0,0:0:0:0:
34,51,23000,1,6,0:0:0:0:
51,0,23100,1,6,0:0:0:0:
103,12,23200,6,0,B|116:31|116:31|107:104|107:104|183:220,1,121.000003692627,10|6,0:0|0:0,0:0:0:0:
246,169,23500,1,0,0:0:0:0:
251,161,23600,2,0,L|140:165,1,60.5000018463135,10|0,0:0|0:0,0:0:0:0:
7,345,23800,2,0,P|61:358|70:328,1,60.5000018463135,6|0,0:0|0:0,0:0:0:0:
118,201,24000,2,0,B|86:253|86:253|135:344,1,121.000003692627,10|4,0:0|0:0,0:0:0:0:
186,263,24300,1,0,0:0:0:0:
193,268,24400,2,0,B|212:251|212:251|134:263,1,60.5000018463135,10|0,0:0|0:0,0:0:0:0:
353,166,24600,1,6,0:0:0:0:
317,205,24700,1,4,0:0:0:0:
337,252,24800,6,0,L|466:248,1,65.9999979858399,6|2,0:0|0:0,0:0:0:0:
468,377,25066,1,2,0:0:0:0:
340,331,25200,2,0,L|469:327,1,65.9999979858399,10|2,0:0|0:0,0:0:0:0:
462,197,25466,1,2,0:0:0:0:
348,130,25600,6,0,L|358:199,1,36.6666666666667,6|0,0:0|0:0,0:0:0:0:
344,124,25733,2,0,L|279:98,1,36.6666666666667,2|4,0:0|0:0,0:0:0:0:
352,123,25867,2,0,L|406:79,1,36.6666666666667,2|0,0:0|0:0,0:0:0:0:
430,44,26000,6,0,L|492:93,1,40.333334564209,10|0,0:0|0:0,0:0:0:0:
507,55,26133,2,0,L|433:84,1,40.333334564209,2|4,0:0|0:0,0:0:0:0:
458,117,26266,2,0,L|469:38,1,40.333334564209,2|0,0:0|0:0,0:0:0:0:
335,34,26400,5,10,0:0:0:0:
298,2,26500,1,8,0:0:0:0:
249,9,26600,1,8,0:0:0:0:
221,50,26700,1,8,0:0:0:0:
232,97,26800,5,8,0:0:0:0:
227,92,26900,1,8,0:0:0:0:
222,87,27000,1,8,0:0:0:0:
217,82,27100,1,8,0:0:0:0:
212,77,27200,2,0,L|134:80,2,40.333334564209,10|2|2,0:0|0:0|0:0,0:0:0:0:
109,128,27400,2,0,P|54:128|50:140,2,40.333334564209,2|2|2,0:0|0:0|0:0,0:0:0:0:
18,195,27600,2,0,L|104:191,5,43.9999986572266,12|2|2|2|2|2,0:1|0:0|0:0|0:0|0:0|0:0,0:0:0:0:
84,292,28000,6,0,L|75:253,2,22,6|0|8,1:2|0:0|0:0,0:0:0:0:
153,240,28600,1,0,0:0:0:0:
209,345,28800,2,0,L|58:381,1,110,6|0,0:0|0:0,0:0:0:0:
209,345,29100,2,0,L|155:317,1,55,6|10,0:0|0:0,0:0:0:0:
20,346,29400,6,0,L|25:347,1,5.5,6|0,0:0|0:0,0:0:0:0:
303,311,29600,6,0,L|341:302,2,22,6|0|8,1:2|0:0|0:0,0:0:0:0:
481,354,30200,1,0,0:0:0:0:
407,275,30400,2,0,L|394:465,1,110,6|0,0:0|0:0,0:0:0:0:
407,275,30700,2,0,L|360:231,1,55,6|10,0:0|0:0,0:0:0:0:
481,354,31000,6,0,L|486:353,1,5.5,6|0,0:0|0:0,0:0:0:0:
490,91,31200,6,0,L|488:128,2,22,6|0|8,1:2|0:0|0:0,0:0:0:0:
363,8,31800,1,0,0:0:0:0:
410,125,32000,2,0,L|259:161,1,110,6|0,0:0|0:0,0:0:0:0:
410,125,32300,2,0,L|417:18,1,55,6|10,0:0|0:0,0:0:0:0:
303,65,32600,6,0,L|310:68,1,5.5,6|0,0:0|0:0,0:0:0:0:
30,148,32800,6,0,L|58:142,1,22,6|0,1:2|0:0,0:0:0:0:
183,56,33200,2,0,L|182:76,2,11,8|0|0,0:0|0:0|0:0,0:0:0:0:
0,0,33600,5,6,0:0:0:0:
107,27,33700,2,0,L|-51:-13,1,110,2|4,0:0|0:0,0:0:0:0:
213,153,34000,2,0,L|108:127,1,55,10|0,0:0|0:0,0:0:0:0:
107,27,34200,2,0,L|100:134,1,55,6|0,0:0|0:0,0:0:0:0:
182,362,34400,6,0,L|222:372,1,22,6|0,1:2|0:0,0:0:0:0:
37,295,34800,1,8,0:0:0:0:
214,233,35000,1,0,0:0:0:0:
105,335,35200,2,0,L|-40:377,1,110,6|0,0:0|0:0,0:0:0:0:
141,263,35500,1,6,0:0:0:0:
138,258,35600,2,0,L|74:225,1,55,10|0,0:0|0:0,0:0:0:0:
182,362,35800,6,0,L|183:354,1,5.5,6|2,0:0|0:0,0:0:0:0:
328,104,36000,6,0,L|294:113,1,22,6|0,1:2|0:0,0:0:0:0:
465,85,36400,1,8,0:0:0:0:
300,29,36600,1,0,0:0:0:0:
403,134,36800,2,0,L|540:153,1,110,6|0,0:0|0:0,0:0:0:0:
390,4,37100,1,6,0:0:0:0:
385,0,37200,2,0,L|395:104,1,55,10|0,0:0|0:0,0:0:0:0:
509,18,37400,6,0,L|501:13,1,5.5,6|2,0:0|0:0,0:0:0:0:
300,236,37600,6,0,B|330:249|330:249|337:316|337:316|402:343,1,131.99999597168,6|0,1:2|0:0,0:0:0:0:
480,332,37900,1,0,0:0:0:0:
484,339,38000,2,0,P|423:349|418:321,1,55,10|0,0:0|0:0,0:0:0:0:
256,325,38200,6,0,B|251:311|251:311|392:332,1,131.99999597168,6|0,0:0|0:0,0:0:0:0:
439,250,38500,1,0,0:0:0:0:
433,244,38600,2,0,B|412:262|412:262|484:251,1,55,6|0,0:0|0:0,0:0:0:0:
190,371,38800,2,0,P|138:327|146:319,1,65.9999979858399,10|0,0:0|0:0,0:0:0:0:
16,254,39000,1,6,0:0:0:0:
53,292,39100,1,0,0:0:0:0:
97,263,39200,6,0,L|99:167,1,55,6|0,0:0|0:0,0:0:0:0:
175,292,39400,2,0,L|179:75,1,110,2|10,0:0|0:0,0:0:0:0:
121,123,39700,1,0,0:0:0:0:
124,113,39800,2,0,B|106:98|106:98|118:157,1,55,2|0,0:0|0:0,0:0:0:0:
275,236,40000,6,0,L|197:239,2,40.333334564209,4|0|0,0:0|0:0|0:0,0:0:0:0:
256,358,40200,1,8,0:1:0:0:
260,362,40300,1,2,0:0:0:0:
265,365,40400,2,0,P|301:334|292:320,2,40.333334564209,6|0|0,0:0|0:0|0:0,0:0:0:0:
384,281,40600,2,0,L|298:285,2,43.9999986572266,6|2|2,0:0|0:0|0:0,0:0:0:0:
496,118,40800,6,0,B|455:82|455:82|471:184,1,131.99999597168,6|0,1:2|0:0,0:0:0:0:
404,367,41100,1,2,0:0:0:0:
397,360,41200,2,0,P|442:305|418:287,1,65.9999979858399,8|0,0:2|0:0,0:0:0:0:
450,236,41400,2,0,P|384:214|374:244,1,65.9999979858399,2|0,0:0|0:0,0:0:0:0:
267,63,41600,5,6,0:0:0:0:
308,26,41700,1,0,0:0:0:0:
362,36,41800,1,0,0:0:0:0:
386,86,41900,1,6,0:0:0:0:
360,135,42000,2,0,L|231:139,1,65.9999979858399,10|0,0:0|0:0,0:0:0:0:
62,248,42200,1,6,0:0:0:0:
65,329,42300,1,2,0:0:0:0:
129,287,42400,6,0,L|-103:295,1,131.99999597168,6|0,1:2|0:0,0:0:0:0:
128,199,42700,1,2,0:0:0:0:
132,207,42800,2,0,P|189:269|176:287,1,65.9999979858399,8|0,0:2|0:0,0:0:0:0:
190,339,43000,2,0,P|107:346|100:324,1,65.9999979858399,2|0,0:0|0:0,0:0:0:0:
325,268,43200,5,6,0:0:0:0:
320,275,43300,1,0,0:0:0:0:
315,282,43400,2,0,L|186:286,1,65.9999979858399,0|6,0:0|0:0,0:0:0:0:
512,360,43600,2,0,B|477:372|477:372|447:346|447:346|464:170,1,131.99999597168,8|6,0:0|0:0,0:0:0:0:
332,106,43900,1,2,0:0:0:0:
294,176,44000,6,0,B|303:191|303:191|387:178|387:178|332:249,1,131.99999597168,6|0,1:2|0:0,0:0:0:0:
307,361,44300,1,2,0:0:0:0:
314,367,44400,2,0,P|361:310|343:297,1,65.9999979858399,8|0,0:2|0:0,0:0:0:0:
512,238,44600,2,0,P|435:234|433:259,1,65.9999979858399,2|0,0:0|0:0,0:0:0:0:
290,37,44800,5,6,0:0:0:0:
249,0,44900,1,0,0:0:0:0:
194,9,45000,1,0,0:0:0:0:
165,57,45100,1,6,0:0:0:0:
185,109,45200,2,0,L|314:105,1,65.9999979858399,8|0,0:0|0:0,0:0:0:0:
81,347,45400,2,0,P|11:332|14:318,1,65.9999979858399,6|2,0:0|0:0,0:0:0:0:
101,124,45600,6,0,B|105:110|105:110|70:92|70:92|98:288,1,131.99999597168,6|2,1:2|0:0,0:0:0:0:
34,282,45900,1,0,0:0:0:0:
28,277,46000,2,0,L|-35:280,2,32.99999899292,8|0|0,0:2|0:0|0:0,0:0:0:0:
110,255,46200,6,0,B|132:240|132:240|95:247,1,55
341,297,46400,5,4,0:0:0:0:
314,247,46500,1,0,0:0:0:0:
258,245,46600,1,0,0:0:0:0:
228,292,46700,1,4,0:0:0:0:
254,343,46800,2,0,P|172:350|167:328,1,65.9999979858399,10|0,0:0|0:0,0:0:0:0:
208,212,47000,2,0,P|245:287|230:296,1,65.9999979858399,6|0,0:0|0:0,0:0:0:0:
494,365,47200,6,0,B|513:333|513:333|424:345|424:345|379:285,1,142.99999345398,4|0,1:2|0:0,0:0:0:0:
455,147,47500,1,2,0:0:0:0:
463,142,47600,2,0,P|497:206|484:212,1,65.9999979858399,8|0,0:2|0:0,0:0:0:0:
484,255,47800,2,0,B|449:259|449:259|508:228,1,65.9999979858399,2|0,0:0|0:0,0:0:0:0:
426,71,48000,5,6,0:0:0:0:
395,24,48100,1,0,0:0:0:0:
340,12,48200,1,0,0:0:0:0:
294,44,48300,1,6,0:0:0:0:
283,99,48400,2,0,P|213:84|216:70,1,65.9999979858399,8|0,0:0|0:0,0:0:0:0:
8,256,48600,1,6,0:0:0:0:
61,195,48700,1,2,0:0:0:0:
87,271,48800,6,0,B|52:274|52:274|34:346|34:346|-40:352,1,142.99999345398,6|0,1:2|0:0,0:0:0:0:
167,267,49100,1,2,0:0:0:0:
170,261,49200,2,0,P|126:207|109:215,1,65.9999979858399,8|0,0:2|0:0,0:0:0:0:
24,105,49400,2,0,B|59:99|59:99|26:125,1,65.9999979858399,2|0,0:0|0:0,0:0:0:0:
116,346,49600,5,6,0:0:0:0:
121,353,49700,1,0,0:0:0:0:
128,357,49800,2,0,P|191:308|182:293,1,65.9999979858399,0|6,0:0|0:0,0:0:0:0:
228,113,50000,2,0,B|232:99|232:99|197:81|197:81|225:277,1,131.99999597168,8|6,0:0|0:0,0:0:0:0:
354,340,50300,1,2,0:0:0:0:
282,374,50400,6,0,P|314:288|339:294,2,87.9999973144532,6|2|2,1:2|0:0|0:0,0:0:0:0:
422,381,50800,2,0,P|404:295|380:297,2,87.9999973144532,2|2|2,0:0|0:0|0:0,0:0:0:0:
237,234,51200,6,0,P|315:174|303:158,1,87.9999973144532,10|2,0:0|0:0,0:0:0:0:
450,169,51466,1,2,0:0:0:0:
467,248,51600,2,0,P|399:176|417:161,1,87.9999973144532,6|2,0:0|0:0,0:0:0:0:
263,157,51866,1,2,0:0:0:0:
471,130,52000,6,0,L|441:185,1,43.9999986572266,6|0,0:0|0:0,0:0:0:0:
464,124,52133,2,0,L|381:139,1,43.9999986572266,2|0,0:0|0:0,0:0:0:0:
468,116,52266,2,0,L|407:62,1,43.9999986572266,2|0,0:0|0:0,0:0:0:0:
356,84,52400,6,0,L|334:47,1,43.9999986572266,2|0,0:0|0:0,0:0:0:0:
307,90,52533,2,0,L|324:50,1,43.9999986572266,2|0,0:0|0:0,0:0:0:0:
276,53,52666,2,0,L|318:42,1,43.9999986572266,2|0,0:0|0:0,0:0:0:0:
122,146,52800,6,0,L|95:234,1,47.6666644846599,10|0,0:0|0:0,0:0:0:0:
128,66,52933,2,0,L|38:87,1,47.6666644846599,2|0,0:0|0:0,0:0:0:0:
200,31,53066,2,0,L|136:-36,1,47.6666644846599,2|0,0:0|0:0,0:0:0:0:
188,190,53200,6,0,P|244:127|229:114,3,71.4999967269899,6|0|0|0,0:0|0:0|0:0|0:0,0:0:0:0:
194,110,53600,5,8,0:0:0:0:
85,268,53800,1,2,0:0:0:0:
80,273,53900,1,0,0:0:0:0:
75,278,54000,2,0,L|183:274,1,55,10|0,0:0|0:0,0:0:0:0:
40,350,54200,2,0,L|65:389,1,27.5,2|0,0:0|0:0,0:0:0:0:
24,216,54400,1,10,0:0:0:0:
16,220,54500,1,0,0:0:0:0:
12,228,54600,1,2,0:0:0:0:
133,356,54800,2,0,P|161:280|133:294,1,110,10|14,0:0|0:0,0:0:0:0:
263,140,55100,1,8,0:0:0:0:
268,130,55200,6,0,B|236:99|236:99|252:204,1,110,8|2,0:0|0:0,0:0:0:0:
210,236,55500,1,8,0:0:0:0:
215,243,55600,2,0,L|323:239,1,55,8|0,0:2|0:0,0:0:0:0:
384,184,55800,2,0,L|276:188,1,55,6|0,0:0|0:0,0:0:0:0:
289,362,56000,6,0,P|346:306|340:297,1,60.5000018463135,10|8,0:0|0:0,0:0:0:0:
480,205,56200,1,10,0:0:0:0:
474,197,56300,2,0,P|448:272|487:258,1,121.000003692627,8|0,0:0|0:0,0:0:0:0:
422,344,56600,2,0,B|427:374|427:374|445:306,1,60.5000018463135,10|0,0:0|0:0,0:0:0:0:
440,115,56800,5,10,0:0:0:0:
280,253,57000,1,10,0:0:0:0:
275,247,57100,1,2,0:0:0:0:
270,241,57200,2,0,L|162:245,1,55,10|0,0:0|0:0,0:0:0:0:
318,174,57400,2,0,L|272:148,1,27.5,2|0,0:0|0:0,0:0:0:0:
366,84,57600,1,10,0:0:0:0:
359,94,57700,1,8,0:0:0:0:
362,106,57800,1,10,0:0:0:0:
184,165,58000,2,0,L|402:157,1,110,10|14,0:0|0:0,0:0:0:0:
205,77,58300,1,8,0:0:0:0:
213,84,58400,6,0,P|121:62|145:34,1,110,6|2,0:0|0:0,0:0:0:0:
0,145,58700,1,8,0:0:0:0:
6,151,58800,2,0,L|114:147,1,55,8|0,0:0|0:0,0:0:0:0:
58,68,59000,2,0,L|-50:72,1,55,6|0,0:0|0:0,0:0:0:0:
177,281,59200,6,0,B|161:260|161:260|173:326,1,60.5000018463135,8|8,0:0|0:0,0:0:0:0:
13,339,59400,2,0,L|4:396,1,30.2500009231568,8|0,0:0|0:0,0:0:0:0:
7,335,59500,2,0,L|-2:392,1,30.2500009231568,8|0,0:0|0:0,0:0:0:0:
53,270,59600,6,0,B|83:276|83:276|97:358|97:358|241:381,1,142.99999345398,8|8,0:0|0:0,0:0:0:0:
178,183,59900,1,0,0:0:0:0:
169,177,60000,6,0,P|132:205|146:218,1,44,4|0,1:2|0:0,0:0:0:0:
248,357,60200,1,4,0:0:0:0:
252,363,60300,1,0,0:0:0:0:
256,369,60400,2,0,L|256:288,1,44,4|0,0:0|0:0,0:0:0:0:
256,246,60600,2,0,L|256:165,1,44,4|0,0:0|0:0,0:0:0:0:
256,79,60800,6,0,B|218:102|218:102|306:151,1,88,4|4,0:0|0:0,0:0:0:0:
336,97,61100,1,0,0:0:0:0:
332,102,61200,2,0,L|415:94,1,44,4|0,0:0|0:0,0:0:0:0:
386,174,61400,2,0,L|420:98,1,44,4|0,0:0|0:0,0:0:0:0:
490,218,61600,6,0,L|431:86,1,98.9999969787599,4|4,0:0|0:0,0:0:0:0:
367,15,61900,1,0,0:0:0:0:
374,11,62000,2,0,L|413:99,1,49.4999984893799,4|0,0:0|0:0,0:0:0:0:
460,5,62200,2,0,L|420:94,1,49.4999984893799,4|0,0:0|0:0,0:0:0:0:
277,107,62400,6,0,L|469:88,1,98.9999969787599,4|4,0:0|0:0,0:0:0:0:
373,216,62700,1,0,0:0:0:0:
366,219,62800,2,0,L|405:129,1,49.4999984893799,4|0,0:0|0:0,0:0:0:0:
510,263,63000,2,0,L|471:175,1,49.4999984893799,4|0,0:0|0:0,0:0:0:0:
211,367,63200,6,0,P|280:309|269:294,2,73.3333333333333,6|2|2,1:2|0:0|0:0,0:0:0:0:
384,298,63600,2,0,P|315:240|326:225,2,73.3333333333333,6|2|2,1:2|0:0|0:0,0:0:0:0:
276,139,64000,6,0,P|242:230|208:215,1,87.9999973144532,6|2,1:2|0:0,0:0:0:0:
161,291,64266,1,2,0:0:0:0:
195,141,64400,2,0,P|239:229|263:217,1,87.9999973144532,6|2,1:2|0:0,0:0:0:0:
319,286,64666,1,2,0:0:0:0:
132,367,64800,5,12,0:0:0:0:
161,291,64900,5,8,0:0:0:0:
129,327,65000,5,8,0:0:0:0:
141,296,65100,5,8,0:0:0:0:
102,298,65200,5,8,0:0:0:0:
106,291,65300,5,8,0:0:0:0:
63,289,65400,5,8,0:0:0:0:
74,261,65500,5,8,0:0:0:0:
27,306,65600,6,0,P|19:336|23:340,1,22,8|0,0:0|0:0,0:0:0:0:
0,229,65800,5,8,0:0:0:0:
267,372,66000,6,0,B|244:396|168:335|268:232|334:332|335:324|335:324|329:311|328:272|361:257|414:269|411:330|371:336,1,330,12|0,1:0|0:0,0:0:0:0:
298,202,66400,6,0,L|294:242,1,20.6250007867813,14|0,1:0|0:0,0:0:0:0:
155,179,66800,6,0,P|184:210|180:216,2,32.99999899292,6|0|0,1:2|0:0|0:0,0:0:0:0:
81,118,67000,2,0,B|115:111|115:111|80:139,1,65.9999979858399,2|0,0:0|0:0,0:0:0:0:
20,374,67200,2,0,L|-30:337,1,32.99999899292,6|0,0:0|0:0,0:0:0:0:
25,380,67300,2,0,L|257:370,1,131.99999597168,0|6,0:0|0:0,0:0:0:0:
62,269,67600,2,0,L|52:310,1,32.99999899292,8|0,0:0|0:0,0:0:0:0:
68,265,67700,2,0,L|89:299,1,32.99999899292
74,261,67800,2,0,L|203:257,1,65.9999979858399,6|0,0:0|0:0,0:0:0:0:
380,251,68000,6,0,P|303:234|306:219,1,65.9999979858399,6|0,0:0|0:0,0:0:0:0:
183,190,68200,1,2,0:0:0:0:
256,152,68300,1,2,0:0:0:0:
178,124,68400,2,0,L|187:246,1,65.9999979858399,10|0,0:0|0:0,0:0:0:0:
334,124,68600,2,0,L|325:246,1,65.9999979858399,2|0,0:0|0:0,0:0:0:0:
139,36,68800,2,0,B|142:53|142:53|157:21,1,32.99999899292,6|0,0:0|0:0,0:0:0:0:
76,98,68900,2,0,P|166:172|110:192,1,131.99999597168,0|6,0:0|0:0,0:0:0:0:
111,365,69200,6,0,P|163:298|154:289,1,71.4999967269899,8|0,0:0|0:0,0:0:0:0:
140,259,69400,6,0,L|76:266,1,32.99999899292,6|0,0:0|0:0,0:0:0:0:
431,13,69600,6,0,B|467:3|542:119|601:-4|491:-86|452:1|485:153|375:67,1,280.500005350113,0|0,1:0|0:0,0:0:0:0:
302,127,70000,6,0,L|366:120,2,32.99999899292,6|0|0,1:2|0:0|0:0,0:0:0:0:
297,9,70200,2,0,P|351:61|331:80,1,65.9999979858399,2|0,0:0|0:0,0:0:0:0:
366,239,70400,2,0,L|341:209,1,32.99999899292,6|0,0:0|0:0,0:0:0:0:
370,244,70500,2,0,B|368:300|368:300|364:304|364:304|372:304|372:304|368:308|368:308|364:424,1,131.99999597168,0|6,0:0|0:0,0:0:0:0:
424,183,70800,2,0,L|449:147,1,32.99999899292,8|0,0:0|0:0,0:0:0:0:
428,189,70900,2,0,L|475:174,1,32.99999899292
432,195,71000,2,0,P|498:263|493:272,1,65.9999979858399,6|0,0:0|0:0,0:0:0:0:
286,286,71200,6,0,P|293:323|301:325,2,32.99999899292,14|0|8,0:0|0:0|0:0,0:0:0:0:
31,112,71400,1,10,0:0:0:0:
98,69,71500,1,10,0:0:0:0:
136,139,71600,6,0,L|82:148,2,32.99999899292,14|0|8,0:0|0:0|0:0,0:0:0:0:
20,365,71800,2,0,L|74:356,2,32.99999899292,10|0|8,0:0|0:0|0:0,0:0:0:0:
102,240,72000,6,0,B|91:221|91:221|98:250,1,43.9999986572266,14|0,0:0|0:0,0:0:0:0:
118,319,72133,2,0,L|242:342,1,87.9999973144532,10|0,0:0|0:0,0:0:0:0:
210,342,72300,1,14,0:0:0:0:
280,206,72400,6,0,B|315:177|315:177|284:183|284:183|272:255,1,93.500001783371,12|0,0:1|0:0,0:0:0:0:
180,252,72600,6,0,L|234:243,1,32.99999899292,4|0,0:0|0:0,0:0:0:0:
341,65,72800,6,0,B|289:97|289:97|385:79,1,131.99999597168,4|0,0:0|0:0,0:0:0:0:
512,88,73100,1,4,0:0:0:0:
436,53,73200,2,0,L|433:179,1,65.9999979858399,8|0,0:1|0:0,0:0:0:0:
512,373,73400,2,0,P|491:293|507:289,1,65.9999979858399,4|0,0:0|0:0,0:0:0:0:
292,330,73600,2,0,B|281:308|281:308|291:285|291:285|302:307|302:307|282:353,1,98.9999969787599
293,339,73800,2,0,P|372:361|368:377,1,65.9999979858399,4|4,0:0|0:0,0:0:0:0:
478,226,74000,5,8,0:1:0:0:
414,274,74100,1,0,0:0:0:0:
374,206,74200,2,0,L|431:183,1,32.99999899292,4|0,0:0|0:0,0:0:0:0:
219,367,74400,6,0,B|179:380|179:380|148:353|148:353|176:203,1,131.99999597168,4|0,0:0|0:0,0:0:0:0:
244,168,74700,1,4,0:0:0:0:
279,244,74800,2,0,L|150:248,1,65.9999979858399,8|0,0:1|0:0,0:0:0:0:
45,374,75000,2,0,P|101:322|88:310,1,65.9999979858399,4|0,0:0|0:0,0:0:0:0:
51,220,75200,2,0,B|37:177|37:177|59:197|59:197|47:232,1,98.9999969787599
48,230,75400,2,0,P|101:284|87:296,1,65.9999979858399,4|4,0:0|0:0,0:0:0:0:
293,106,75600,5,8,0:1:0:0:
244,168,75700,1,0,0:0:0:0:
179,122,75800,2,0,P|176:114|178:127,1,65.9999979858399,4|0,0:0|0:0,0:0:0:0:
427,37,76000,6,0,P|359:88|373:104,1,87.9999973144532,14|2,1:2|0:0,0:0:0:0:
343,213,76266,1,2,0:0:0:0:
289,26,76400,2,0,P|341:95|316:105,1,87.9999973144532,8|2,0:1|0:0,0:0:0:0:
343,213,76666,1,2,0:0:0:0:
293,106,76800,5,2,0:0:0:0:
356,56,76933,1,2,0:0:0:0:
410,116,77066,1,2,0:0:0:0:
343,213,77200,6,0,L|350:119,1,47.6666644846599,8|0,0:1|0:0,0:0:0:0:
293,106,77333,2,0,L|206:99,1,47.6666644846599,2|4,0:0|0:0,0:0:0:0:
410,116,77466,2,0,L|496:122,1,47.6666644846599,2|0,0:0|0:0,0:0:0:0:
423,312,77600,6,0,B|413:300|413:300|429:249|429:249|543:239,1,140.250002675057,6|0,0:0|0:0,0:0:0:0:
505,248,77800,6,0,L|492:294,1,32.99999899292,2|0,0:0|0:0,0:0:0:0:
343,213,78000,6,0,B|353:225|353:225|337:276|337:276|223:286,1,140.250002675057,2|0,0:0|0:0,0:0:0:0:
261,277,78200,6,0,L|274:231,1,32.99999899292,2|0,0:0|0:0,0:0:0:0:
357,359,78400,6,0,P|343:379|354:357,1,65.9999979858399,2|0,0:0|0:0,0:0:0:0:
211,171,78600,2,0,B|183:189|183:189|237:180,1,65.9999979858399,2|0,0:0|0:0,0:0:0:0:
15,350,78800,2,0,L|5:287,2,32.99999899292,2|0|0,0:0|0:0|0:0,0:0:0:0:
118,144,79000,2,0,P|109:181|119:190,2,32.99999899292,2|0|0,0:0|0:0|0:0,0:0:0:0:
256,361,79200,6,0,L|230:354,1,20.6250007867813,14|0,1:2|0:0,0:0:0:0:
118,144,79600,6,0,L|108:81,2,32.99999899292,6|0|0,1:2|0:0|0:0,0:0:0:0:
166,52,79800,2,0,P|186:39|168:56,1,65.9999979858399,2|0,0:0|0:0,0:0:0:0:
47,240,80000,2,0,L|-16:232,1,32.99999899292,6|0,0:0|0:0,0:0:0:0:
51,246,80100,2,0,B|81:250|81:250|93:321|93:321|178:332,1,131.99999597168,0|6,0:0|0:0,0:0:0:0:
278,292,80400,2,0,L|317:245,1,32.99999899292,8|0,0:0|0:0,0:0:0:0:
261,263,80500,2,0,L|248:209,1,32.99999899292
229,253,80600,2,0,L|117:257,1,65.9999979858399,6|0,0:0|0:0,0:0:0:0:
277,372,80800,6,0,P|319:302|316:300,1,65.9999979858399,6|0,0:0|0:0,0:0:0:0:
472,138,81000,1,2,0:0:0:0:
397,164,81100,1,2,0:0:0:0:
469,197,81200,2,0,P|423:129|418:132,1,65.9999979858399,10|0,0:0|0:0,0:0:0:0:
325,131,81400,2,0,P|371:199|376:196,1,65.9999979858399,2|0,0:0|0:0,0:0:0:0:
496,286,81600,2,0,B|502:271|502:271|466:298,1,32.99999899292,6|0,0:0|0:0,0:0:0:0:
488,366,81700,2,0,P|478:291|502:326,1,131.99999597168,0|6,0:0|0:0,0:0:0:0:
337,52,82000,6,0,P|374:122|354:129,1,71.4999967269899,8|0,0:0|0:0,0:0:0:0:
325,131,82200,6,0,L|261:138,1,32.99999899292,6|0,0:0|0:0,0:0:0:0:
0,299,82400,6,0,B|32:290|32:290|25:309|25:309|16:310|16:310|39:365|39:365|207:347,1,176,14|0,1:2|0:0,0:0:0:0:
188,230,82700,1,0,0:0:0:0:
112,282,82800,6,0,P|140:315|139:317,2,32.99999899292,6|0|0,1:2|0:0|0:0,0:0:0:0:
99,184,83000,2,0,B|117:163|117:163|102:236,1,65.9999979858399,2|0,0:0|0:0,0:0:0:0:
302,337,83200,2,0,P|329:378|326:383,1,32.99999899292,6|0,0:0|0:0,0:0:0:0:
299,329,83300,2,0,B|315:306|315:306|231:320|231:320|208:287,1,131.99999597168,0|6,0:0|0:0,0:0:0:0:
204,75,83600,2,0,P|224:51|224:49,1,32.99999899292,8|0,0:0|0:0,0:0:0:0:
209,113,83700,2,0,L|271:101,1,32.99999899292
195,150,83800,2,0,P|247:219|235:233,1,65.9999979858399,6|0,0:0|0:0,0:0:0:0:
479,328,84000,6,0,L|492:284,2,32.99999899292,14|8|8,0:0|0:0|0:0,0:0:0:0:
399,151,84200,1,10,0:0:0:0:
321,140,84300,1,10,0:0:0:0:
317,220,84400,2,0,L|371:210,2,32.99999899292,14|0|8,0:0|0:0|0:0,0:0:0:0:
482,94,84600,2,0,L|428:84,2,32.99999899292,10|0|8,0:0|0:0|0:0,0:0:0:0:
381,286,84800,6,0,B|403:280|403:280|371:302,1,43.9999986572266,14|0,0:0|0:0,0:0:0:0:
408,373,84933,2,0,P|322:370|319:384,1,87.9999973144532,10|0,0:0|0:0,0:0:0:0:
330,357,85100,1,12,0:0:0:0:
256,326,85200,6,0,B|221:297|221:297|252:303|252:303|264:375,1,93.500001783371,8|0,0:0|0:0,0:0:0:0:
160,349,85400,6,0,P|110:349|107:344,1,32.99999899292,4|0,0:0|0:0,0:0:0:0:
48,221,85600,6,0,B|33:187|33:187|59:158|59:158|39:275,1,131.99999597168,4|0,0:0|0:0,0:0:0:0:
52,375,85900,1,0,0:0:0:0:
83,297,86000,2,0,L|-46:301,1,65.9999979858399,8|0,0:1|0:0,0:0:0:0:
22,88,86200,2,0,P|76:94|78:102,2,43.9999986572266,4|0|0,0:0|0:0|0:0,0:0:0:0:
199,2,86400,6,0,B|167:-10|167:-10|136:16|136:16|152:201,1,131.99999597168
130,114,86700,1,0,0:0:0:0:
182,96,86800,1,8,0:1:0:0:
229,124,86900,1,0,0:0:0:0:
237,179,87000,2,0,L|108:183,1,65.9999979858399
313,294,87200,6,0,B|305:287|305:287|299:231|299:231|333:277|333:277|320:343,1,131.99999597168,4|0,0:0|0:0,0:0:0:0:
463,291,87500,1,0,0:0:0:0:
411,353,87600,2,0,B|390:372|390:372|405:273,1,65.9999979858399,8|0,0:1|0:0,0:0:0:0:
237,179,87800,2,0,P|315:183|313:202,1,65.9999979858399,4|0,0:0|0:0,0:0:0:0:
510,225,88000,6,0,B|476:237|476:237|445:211|445:211|462:28,1,131.99999597168
332,83,88300,1,0,0:0:0:0:
369,154,88400,2,0,L|364:218,2,32.99999899292,8|0|0,0:1|0:0|0:0,0:0:0:0:
288,3,88600,2,0,B|320:-8|320:-8|274:27,1,65.9999979858399
237,179,88800,6,0,P|210:262|226:261,1,87.9999973144532,6|2,0:0|0:0,0:0:0:0:
157,365,89066,1,2,0:0:0:0:
112,168,89200,2,0,P|147:250|111:252,1,87.9999973144532,4|2,0:0|0:0,0:0:0:0:
157,365,89466,1,2,0:0:0:0:
0,134,89600,6,0,B|46:121|46:121|25:161|25:161|41:208|41:208|5:312,1,165.000006294251,12|0,0:1|0:0,0:0:0:0:
157,365,89900,6,0,B|127:282|127:282|87:291|87:291|59:353|59:353|105:370,1,208.999994419098,12|0,0:1|0:0,0:0:0:0:
244,243,90200,1,12,0:1:0:0:
214,282,90300,1,0,0:0:0:0:
231,328,90400,6,0,B|263:322|263:322|218:352,1,65.9999979858399,10|8,0:0|0:0,0:0:0:0:
395,365,90600,2,0,P|353:295|356:293,1,65.9999979858399,8|8,0:0|0:0,0:0:0:0:
240,164,90800,2,0,L|294:151,2,32.99999899292,10|0|8,0:0|0:0|0:0,0:0:0:0:
436,280,91000,1,8,0:0:0:0:
440,287,91100,1,8,0:0:0:0:
444,294,91200,2,0,L|361:273,2,43.9999986572266,2|2|2,0:0|0:0|0:0,0:0:0:0:
348,181,91400,2,0,L|336:263,2,43.9999986572266,2|2|2,0:0|0:0|0:0,0:0:0:0:
157,92,91600,2,0,L|169:174,5,47.6666644846599,12|2|2|2|2|2,0:1|0:0|0:0|0:0|0:0|0:0,0:0:0:0:
97,181,92000,6,0,B|107:197|107:197|92:268|92:268|150:370,1,110,2|0,0:0|0:0,0:0:0:0:
171,325,92300,1,2,0:0:0:0:
175,331,92400,2,0,P|105:337|102:325,1,55,10|0,0:0|0:0,0:0:0:0:
1,275,92600,2,0,B|10:291|10:291|189:277,1,110,2|0,0:0|0:0,0:0:0:0:
256,362,93000,1,2,0:0:0:0:
164,139,93200,2,0,P|192:224|172:219,1,110,10|2,0:0|0:0,0:0:0:0:
251,356,93500,1,2,0:0:0:0:
256,362,93600,6,0,B|266:346|266:346|251:275|251:275|309:173,1,110,2|2,0:0|0:0,0:0:0:0:
386,288,93900,1,2,0:0:0:0:
392,282,94000,2,0,L|284:286,1,55,10|0,0:0|0:0,0:0:0:0:
256,362,94200,2,0,L|364:358,1,55,2|0,0:0|0:0,0:0:0:0:
451,332,94400,2,0,P|429:263|463:290,1,110,2|0,0:0|0:0,0:0:0:0:
394,195,94700,1,0,0:0:0:0:
389,202,94800,2,0,L|281:206,1,55,10|0,0:0|0:0,0:0:0:0:
228,144,95000,1,2,0:0:0:0:
225,137,95100,1,0,0:0:0:0:
222,130,95200,6,0,B|253:102|253:102|233:218,1,110,2|2,0:0|0:0,0:0:0:0:
206,241,95500,1,2,0:0:0:0:
211,248,95600,2,0,L|319:244,1,55,10|0,0:0|0:0,0:0:0:0:
99,366,95800,2,0,P|114:284|80:303,2,110,2|0|2,0:0|0:0|0:0,0:0:0:0:
9,221,96400,2,0,B|34:227|34:227|46:285|46:285|173:315,1,110,8|2,0:0|0:0,0:0:0:0:
114,189,96700,1,2,0:0:0:0:
110,196,96800,6,0,L|120:247,2,27.5,8|8|8,0:0|0:0|0:0,0:0:0:0:
50,67,97000,1,8,0:0:0:0:
46,60,97100,1,8,0:0:0:0:
42,53,97200,2,0,L|52:2,2,27.5,8|8|8,0:0|0:0|0:0,0:0:0:0:
19,141,97400,2,0,L|61:151,2,27.5,8|8|8,0:0|0:0|0:0,0:0:0:0:
126,40,97600,6,0,B|153:35|153:35|103:65,1,55,8|0,0:0|0:0,0:0:0:0:
258,187,97800,1,4,0:0:0:0:
186,156,97900,1,4,0:0:0:0:
195,235,98000,6,0,B|350:241,1,123.750004720688,10|0,0:0|0:0,0:0:0:0:
324,247,98200,2,0,B|340:273|340:273|307:317,1,60.5000018463135,8|0,0:0|0:0,0:0:0:0:
279,79,98400,6,0,L|168:83,1,60.5000018463135,10|0,0:0|0:0,0:0:0:0:
125,223,98600,1,4,0:0:0:0:
130,230,98700,1,0,0:0:0:0:
135,237,98800,2,0,L|246:233,1,60.5000018463135,8|0,0:0|0:0,0:0:0:0:
348,374,99000,2,0,P|243:396|279:433,2,121.000003692627,6|8|6,0:0|0:0|0:0,0:0:0:0:
454,287,99500,1,0,0:0:0:0:
459,292,99600,2,0,P|388:286|389:268,1,60.5000018463135,8|0,0:0|0:0,0:0:0:0:
336,143,99800,1,6,0:0:0:0:
332,150,99900,1,6,0:0:0:0:
328,157,100000,6,0,B|354:161|354:161|369:228|369:228|449:240,1,121.000003692627,10|6,0:0|0:0,0:0:0:0:
503,74,100300,1,0,0:0:0:0:
496,80,100400,2,0,L|385:84,1,60.5000018463135,10|0,0:0|0:0,0:0:0:0:
438,163,100600,2,0,L|549:159,1,60.5000018463135,6|0,0:0|0:0,0:0:0:0:
378,25,100800,2,0,B|342:-8|342:-8|360:90,1,121.000003692627,10|4,0:0|0:0,0:0:0:0:
338,247,101100,1,0,0:0:0:0:
345,253,101200,2,0,P|390:195|380:186,1,60.5000018463135,10|0,0:0|0:0,0:0:0:0:
277,87,101400,1,6,0:0:0:0:
240,117,101500,1,4,0:0:0:0:
247,164,101600,6,0,P|174:193|165:172,1,65.9999979858399,6|2,0:0|0:0,0:0:0:0:
82,145,101866,1,2,0:0:0:0:
3,182,102000,2,0,P|70:212|88:176,1,65.9999979858399,10|2,0:0|0:0,0:0:0:0:
163,140,102266,1,2,0:0:0:0:
130,264,102400,6,0,L|71:303,1,36.6666666666667,6|0,0:0|0:0,0:0:0:0:
133,257,102533,2,0,L|128:186,1,36.6666666666667,2|4,0:0|0:0,0:0:0:0:
137,263,102666,2,0,L|200:294,1,36.6666666666667,2|0,0:0|0:0,0:0:0:0:
251,285,102800,6,0,L|246:362,1,40.333334564209,10|0,0:0|0:0,0:0:0:0:
207,351,102933,2,0,L|276:316,1,40.333334564209,2|4,0:0|0:0,0:0:0:0:
285,356,103066,2,0,L|220:313,1,40.333334564209,2|0,0:0|0:0,0:0:0:0:
324,249,103200,5,10,0:0:0:0:
369,232,103300,1,8,0:0:0:0:
412,251,103400,1,8,0:0:0:0:
428,294,103500,1,8,0:0:0:0:
408,335,103600,5,8,0:0:0:0:
411,342,103700,1,8,0:0:0:0:
414,349,103800,1,8,0:0:0:0:
417,356,103900,1,8,0:0:0:0:
420,363,104000,2,0,L|498:359,2,40.333334564209,10|2|2,0:0|0:0|0:0,0:0:0:0:
509,296,104200,2,0,P|482:254|467:260,2,40.333334564209,2|2|2,0:0|0:0|0:0,0:0:0:0:
465,144,104400,2,0,L|461:230,5,43.9999986572266,12|2|2|2|2|2,0:1|0:0|0:0|0:0|0:0|0:0,0:0:0:0:
352,35,104800,6,0,L|371:2,2,22,6|0|0,1:2|0:0|0:0,0:0:0:0:
465,144,105400,1,0,0:0:0:0:
302,96,105600,2,0,L|518:74,2,110
53,317,106200,1,6,0:0:0:0:
49,322,106300,1,6,0:0:0:0:
45,327,106400,6,0,L|78:323,2,22,6|0|0,1:2|0:0|0:0,0:0:0:0:
193,233,107000,1,0,0:0:0:0:
130,373,107200,2,0,L|108:157,2,110
199,6,107800,1,6,0:0:0:0:
202,12,107900,1,6,0:0:0:0:
205,18,108000,6,0,L|201:57,1,22,6|0,0:0|0:0,0:0:0:0:
43,237,108400,1,2,0:0:0:0:
285,26,108600,2,0,L|281:65,1,22,6|2,0:0|0:0,0:0:0:0:
130,373,109000,2,0,P|169:323|151:308,1,55,6|2,0:0|0:0,0:0:0:0:
153,226,109200,2,0,L|-63:248,1,110,6|6,0:0|0:0,0:0:0:0:
235,113,109500,1,2,0:0:0:0:
162,146,109600,6,0,B|210:152|210:152|230:188|230:188|227:192|227:192|247:228|247:228|419:249,1,187.000003566742,14|8,0:0|0:0,0:0:0:0:
435,360,109900,1,8,0:0:0:0:
495,309,110000,2,0,B|509:218|509:218|451:266|451:266|481:360,1,187.000003566742,14|8,0:0|0:0,0:0:0:0:
298,234,110300,1,8,0:0:0:0:
304,154,110400,6,0,P|353:212|342:225,1,62.3333345222473,8|0,0:1|0:0,0:0:0:0:
358,287,110533,2,0,P|283:295|278:274,1,62.3333345222473,8|0,0:1|0:0,0:0:0:0:
236,236,110666,2,0,L|359:232,1,62.3333345222473,8|0,0:1|0:0,0:0:0:0:
454,45,110800,6,0,B|319:5|402:284|181:162|172:25|318:-25|414:63|402:183|485:128,1,412.5,14|0,0:1|0:0,0:0:0:0:
435,360,111200,6,0,L|405:354,2,22,6|0|8,1:2|0:0|0:0,0:0:0:0:
298,234,111800,1,0,0:0:0:0:
465,261,112000,2,0,L|314:297,1,110,6|0,0:0|0:0,0:0:0:0:
465,261,112300,2,0,L|411:233,1,55,6|10,0:0|0:0,0:0:0:0:
328,366,112600,6,0,L|335:362,1,5.5,6|2,0:0|0:0,0:0:0:0:
10,317,112800,6,0,L|3:358,2,22,6|0|8,1:2|0:0|0:0,0:0:0:0:
0,239,113400,1,0,0:0:0:0:
109,341,113600,2,0,L|254:383,1,110,6|0,0:0|0:0,0:0:0:0:
73,269,113900,1,6,0:0:0:0:
76,264,114000,2,0,L|140:231,1,55,10|0,0:0|0:0,0:0:0:0:
197,287,114200,6,0,L|187:284,1,5.5,6|2,0:0|0:0,0:0:0:0:
58,33,114400,6,0,B|52:15|52:15|89:-11|89:-11|74:97,1,131.99999597168,6|0,1:2|0:0,0:0:0:0:
7,130,114700,1,0,0:0:0:0:
11,137,114800,2,0,L|119:133,1,55,10|0,0:0|0:0,0:0:0:0:
212,187,115000,6,0,B|182:183|182:183|170:112|170:112|85:101,1,131.99999597168,6|0,0:0|0:0,0:0:0:0:
262,106,115300,1,0,0:0:0:0:
264,98,115400,2,0,B|247:85|247:85|258:157,1,55,4|0,0:0|0:0,0:0:0:0:
155,360,115600,2,0,P|228:360|228:330,1,65.9999979858399,10|0,0:0|0:0,0:0:0:0:
287,217,115800,1,6,0:0:0:0:
321,257,115900,1,0,0:0:0:0:
289,298,116000,6,0,L|181:302,1,55,6|0,0:0|0:0,0:0:0:0:
320,376,116200,2,0,L|102:384,1,110,2|10,0:0|0:0,0:0:0:0:
375,317,116500,1,0,0:0:0:0:
382,319,116600,2,0,P|364:389|357:388,1,55,2|0,0:0|0:0,0:0:0:0:
212,187,116800,2,0,P|217:234|235:237,2,40.333334564209,6|0|2,0:0|0:0|0:0,0:0:0:0:
152,71,117000,1,0,0:0:0:0:
156,78,117100,1,2,0:0:0:0:
160,85,117200,2,0,L|158:164,2,40.333334564209,6|0|2,0:0|0:0|0:0,0:0:0:0:
37,110,117400,2,0,L|123:106,2,43.9999986572266,0|2|0,0:0|0:0|0:0,0:0:0:0:
220,16,117600,6,0,B|185:4|185:4|155:30|155:30|172:206,1,131.99999597168,6|2,1:2|0:0,0:0:0:0:
9,186,117900,1,0,0:0:0:0:
14,191,118000,2,0,L|143:187,1,65.9999979858399,10|0,0:0|0:0,0:0:0:0:
75,28,118200,2,0,L|-54:32,1,65.9999979858399,2|0,0:0|0:0,0:0:0:0:
157,213,118400,5,6,0:0:0:0:
161,208,118500,1,0,0:0:0:0:
167,205,118600,2,0,P|222:267|213:279,1,65.9999979858399,2|0,0:0|0:0,0:0:0:0:
391,347,118800,1,10,0:0:0:0:
339,369,118900,1,2,0:0:0:0:
288,345,119000,1,2,0:0:0:0:
273,291,119100,1,0,0:0:0:0:
302,243,119200,6,0,B|311:258|311:258|395:245|395:245|340:316,1,131.99999597168,6|2,0:0|0:0,0:0:0:0:
470,361,119500,1,2,0:0:0:0:
472,355,119600,2,0,P|437:295|403:317,1,65.9999979858399,10|0,0:0|0:0,0:0:0:0:
364,153,119800,2,0,B|338:171|338:171|421:158,1,65.9999979858399,2|0,0:0|0:0,0:0:0:0:
321,348,120000,5,6,0:0:0:0:
326,355,120100,1,2,0:0:0:0:
333,359,120200,2,0,P|396:310|387:295,1,65.9999979858399,2|2,0:0|0:0,0:0:0:0:
501,209,120400,1,10,0:0:0:0:
507,216,120500,2,0,L|377:222,1,65.9999979858399,2|2,0:0|0:0,0:0:0:0:
208,106,120700,1,2,0:0:0:0:
201,110,120800,6,0,B|184:143|184:143|203:178|203:178|370:172,1,131.99999597168,6|2,1:2|0:0,0:0:0:0:
77,346,121100,1,0,0:0:0:0:
81,354,121200,2,0,P|141:342|135:319,1,65.9999979858399,10|0,0:0|0:0,0:0:0:0:
294,255,121400,2,0,L|164:261,1,65.9999979858399,2|0,0:0|0:0,0:0:0:0:
287,102,121600,5,6,0:0:0:0:
294,99,121700,1,0,0:0:0:0:
301,97,121800,2,0,P|304:181|295:183,1,65.9999979858399,2|0,0:0|0:0,0:0:0:0:
319,353,122000,1,10,0:0:0:0:
269,380,122100,1,0,0:0:0:0:
217,359,122200,1,2,0:0:0:0:
199,306,122300,1,0,0:0:0:0:
228,258,122400,6,0,P|266:329|260:332,1,65.9999979858399,6|0,0:0|0:0,0:0:0:0:
99,146,122600,2,0,B|132:139|132:139|96:162,1,65.9999979858399,2|2,0:0|0:0,0:0:0:0:
1,365,122800,1,10,0:0:0:0:
6,372,122900,2,0,P|34:318|-9:300,2,65.9999979858399,0|2|0,0:0|0:0|0:0,0:0:0:0:
162,213,123200,6,0,P|121:131|181:167,1,131.99999597168,6|8,0:0|0:0,0:0:0:0:
116,305,123500,1,4,0:0:0:0:
119,310,123600,2,0,L|125:440,1,65.9999979858399,10|0,0:0|0:0,0:0:0:0:
0,245,123800,2,0,L|130:239,1,65.9999979858399,6|0,0:0|0:0,0:0:0:0:
160,37,124000,6,0,B|186:28|186:28|169:55|169:55|187:123|187:123|157:169,1,142.99999345398,10|0,1:2|0:0,0:0:0:0:
342,7,124300,1,0,0:0:0:0:
350,9,124400,2,0,P|337:87|317:85,1,65.9999979858399,8|0,0:0|0:0,0:0:0:0:
256,71,124600,2,0,B|288:65|288:65|246:91,1,65.9999979858399,2|0,0:0|0:0,0:0:0:0:
353,291,124800,6,0,P|423:276|420:262,1,65.9999979858399,8|0,0:0|0:0,0:0:0:0:
326,135,125000,1,0,0:0:0:0:
357,174,125100,1,8,0:1:0:0:
328,214,125200,2,0,L|198:220,1,65.9999979858399,8|0,0:0|0:0,0:0:0:0:
80,306,125400,1,8,0:1:0:0:
125,372,125500,1,2,0:0:0:0:
178,312,125600,6,0,B|186:242|186:242|153:274|153:274|176:364,1,142.99999345398,10|2,0:0|0:0,0:0:0:0:
288,339,125900,1,0,0:0:0:0:
293,346,126000,2,0,P|227:357|224:312,1,65.9999979858399,10|0,0:0|0:0,0:0:0:0:
14,308,126200,2,0,L|143:304,1,65.9999979858399,2|0,0:0|0:0,0:0:0:0:
143,181,126400,5,10,0:0:0:0:
111,136,126500,1,0,0:0:0:0:
56,126,126600,1,0,0:0:0:0:
11,159,126700,1,8,0:1:0:0:
1,214,126800,1,10,0:0:0:0:
6,221,126900,1,0,0:0:0:0:
11,228,127000,2,0,L|140:224,1,65.9999979858399,8|0,0:1|0:0,0:0:0:0:
199,353,127200,6,0,P|107:323|121:298,2,87.9999973144532,6|2|2,1:2|0:0|0:0,0:0:0:0:
213,213,127600,2,0,P|117:232|127:255,2,87.9999973144532,10|2|2,0:0|0:0|0:0,0:0:0:0:
278,334,128000,6,0,P|236:297|232:299,1,43.9999986572266,6|0,0:0|0:0,0:0:0:0:
296,310,128133,2,0,L|241:283,1,43.9999986572266,2|4,0:0|0:0,0:0:0:0:
296,280,128266,2,0,L|235:287,1,43.9999986572266,2|0,0:0|0:0,0:0:0:0:
371,338,128400,6,0,P|404:283|398:273,1,43.9999986572266,10|0,0:0|0:0,0:0:0:0:
449,373,128533,2,0,P|427:320|406:320,1,43.9999986572266,2|4,0:0|0:0,0:0:0:0:
512,308,128666,2,0,P|447:311|443:318,1,43.9999986572266,2|0,0:0|0:0,0:0:0:0:
370,208,128800,6,0,L|364:272,2,32.99999899292,12|8|8,0:0|0:0|0:0,0:0:0:0:
496,46,129000,1,8,0:0:0:0:
501,40,129100,1,8,0:0:0:0:
506,34,129200,5,8,0:0:0:0:
455,11,129300,1,8,0:0:0:0:
403,31,129400,1,10,0:0:0:0:
381,82,129500,1,0,0:0:0:0:
402,134,129600,2,0,P|427:182|417:190,2,43.9999986572266,10|2|2,0:0|0:0|0:0,0:0:0:0:
326,210,129800,2,0,L|396:206,2,43.9999986572266,10|2|2,0:0|0:0|0:0,0:0:0:0:
167,12,130000,6,0,L|129:-1,9,21.9999993286133,10|2|2|2|2|2|2|2|2|2,0:0|0:0|0:0|0:0|0:0|0:0|0:0|0:0|0:0|0:0,0:0:0:0:
232,57,130400,6,0,L|226:273,1,110,6|2,0:0|0:0,0:0:0:0:
151,93,130700,1,2,0:0:0:0:
146,88,130800,2,0,B|131:111|131:111|168:175,1,55,10|0,0:0|0:0,0:0:0:0:
250,245,131000,2,0,P|143:249|164:298,1,110,2|2,0:0|0:0,0:0:0:0:
145,241,131300,1,2,0:0:0:0:
113,256,131400,1,2,0:0:0:0:
80,244,131500,1,2,0:0:0:0:
64,215,131600,2,0,L|-44:219,1,55,10|2,0:0|0:0,0:0:0:0:
0,362,131800,1,2,0:0:0:0:
3,368,131900,1,2,0:0:0:0:
8,374,132000,6,0,P|60:309|-4:321,1,110,2|2,0:0|0:0,0:0:0:0:
5,210,132300,1,2,0:0:0:0:
9,217,132400,2,0,L|117:213,1,55,10|0,0:0|0:0,0:0:0:0:
40,139,132600,1,2,0:0:0:0:
162,318,132800,1,2,0:0:0:0:
167,313,132900,1,2,0:0:0:0:
174,310,133000,2,0,P|226:359|224:366,1,55,2|2,0:0|0:0,0:0:0:0:
387,351,133200,1,10,0:0:0:0:
348,364,133300,1,2,0:0:0:0:
311,345,133400,1,2,0:0:0:0:
298,305,133500,1,2,0:0:0:0:
317,267,133600,6,0,B|327:251|327:251|312:180|312:180|370:78,1,110,2|2,0:0|0:0,0:0:0:0:
445,102,133900,1,2,0:0:0:0:
450,108,134000,2,0,L|342:112,1,55,10|0,0:0|0:0,0:0:0:0:
398,190,134200,2,0,L|506:186,1,55,2|0,0:0|0:0,0:0:0:0:
297,88,134400,2,0,B|319:84|319:84|328:19|328:19|394:6,2,110,2|2|10,0:0|0:0|0:0,0:0:0:0:
239,15,134900,1,2,0:0:0:0:
236,7,135000,2,0,B|252:-8|252:-8|240:77,1,55,2|2,0:0|0:0,0:0:0:0:
235,139,135200,6,0,P|321:189|294:221,1,110,2|2,0:0|0:0,0:0:0:0:
341,304,135500,1,2,0:0:0:0:
335,297,135600,2,0,L|338:189,1,55,10|0,0:0|0:0,0:0:0:0:
413,269,135800,1,2,0:0:0:0:
282,381,136000,1,2,0:0:0:0:
271,346,136100,1,2,0:0:0:0:
240,326,136200,1,2,0:0:0:0:
203,329,136300,1,2,0:0:0:0:
176,354,136400,6,0,B|208:347|208:347|175:369,1,65.9999979858399,2|0,0:0|0:0,0:0:0:0:
22,311,136600,2,0,B|-10:318|-10:318|23:296,1,65.9999979858399,2|0,0:0|0:0,0:0:0:0:
101,383,136800,6,0,B|91:367|91:367|106:296|106:296|48:194,1,110,6|2,0:0|0:0,0:0:0:0:
222,241,137100,1,2,0:0:0:0:
228,247,137200,2,0,L|120:251,1,55,10|0,0:0|0:0,0:0:0:0:
40,222,137400,2,0,P|75:149|68:148,1,110,2|2,0:0|0:0,0:0:0:0:
94,133,137700,1,2,0:0:0:0:
116,98,137800,1,2,0:0:0:0:
156,90,137900,1,2,0:0:0:0:
188,114,138000,2,0,L|185:222,1,55,10|2,0:0|0:0,0:0:0:0:
202,326,138200,1,2,0:0:0:0:
199,332,138300,1,2,0:0:0:0:
196,338,138400,6,0,P|289:318|255:285,1,110,2|2,0:0|0:0,0:0:0:0:
365,276,138700,1,2,0:0:0:0:
360,282,138800,2,0,L|252:286,1,55,10|0,0:0|0:0,0:0:0:0:
326,206,139000,1,2,0:0:0:0:
390,357,139200,1,2,0:0:0:0:
395,362,139300,1,2,0:0:0:0:
401,365,139400,2,0,P|442:311|434:304,1,55,2|2,0:0|0:0,0:0:0:0:
454,235,139600,1,10,0:0:0:0:
485,224,139700,1,2,0:0:0:0:
505,250,139800,1,2,0:0:0:0:
486,277,139900,1,2,0:0:0:0:
454,267,140000,6,0,L|460:51,1,110,6|2,0:0|0:0,0:0:0:0:
415,51,140300,1,2,0:0:0:0:
410,46,140400,2,0,B|395:69|395:69|432:133,1,55,10|0,0:0|0:0,0:0:0:0:
489,83,140600,1,2,0:0:0:0:
299,209,140800,2,0,P|351:144|287:156,1,110,6|2,0:0|0:0,0:0:0:0:
208,53,141100,1,2,0:0:0:0:
215,58,141200,2,0,L|218:166,1,55,10|0,0:0|0:0,0:0:0:0:
297,109,141400,2,0,L|294:1,1,55,2|0,0:0|0:0,0:0:0:0:
110,20,141600,6,0,B|139:12|139:12|102:45,1,55,6|0,0:0|0:0,0:0:0:0:
19,105,141800,1,2,0:0:0:0:
67,89,141900,1,2,0:0:0:0:
112,111,142000,1,2,0:0:0:0:
128,158,142100,1,2,0:0:0:0:
106,202,142200,1,2,0:0:0:0:
117,250,142300,1,2,0:0:0:0:
156,280,142400,6,0,L|264:273,1,55,2|2,0:0|0:0,0:0:0:0:
256,192,142600,2,0,L|148:199,1,55,2|2,0:0|0:0,0:0:0:0:
269,334,142800,5,2,0:0:0:0:
319,364,142900,1,2,0:0:0:0:
374,345,143000,1,2,0:0:0:0:
394,290,143100,1,2,0:0:0:0:
365,240,143200,1,2,0:0:0:0:
