osu file format v14

[General]
AudioFilename: audio.mp3
AudioLeadIn: 0
PreviewTime: 117555
Countdown: 0
SampleSet: Normal
StackLeniency: 1
Mode: 1
LetterboxInBreaks: 0
WidescreenStoryboard: 1

[Editor]
DistanceSpacing: 0.7
BeatDivisor: 4
GridSize: 32
TimelineZoom: 1.7

[Metadata]
Title:MAGENTA POTION
TitleUnicode:MAGENTA POTION
Artist:EmoCosine
ArtistUnicode:EmoCosine
Creator:Rycy
Version:Shake the Future!
Source:
Tags:Raisee EmoCo. 同人時代 doujin BOFXV19 BOF19 BMS OF FIGHTERS EXTREME VIOLENCE kawaii future bass jersey club electronic english Muse Dash phigros WACCA Lily R cjbeards cover it up
BeatmapID:3077536
BeatmapSetID:1502054

[Difficulty]
HPDrainRate:6
CircleSize:2
OverallDifficulty:6
ApproachRate:0
SliderMultiplier:1.4
SliderTickRate:1

[Events]
//Background and Video events
0,0,"b.jpg",0,0
//Break Periods
//Storyboard Layer 0 (Background)
//Storyboard Layer 1 (Fail)
//Storyboard Layer 2 (Pass)
//Storyboard Layer 3 (Foreground)
//Storyboard Layer 4 (Overlay)
//Storyboard Sound Samples

[TimingPoints]
855,400,4,1,0,70,1,0
855,-142.857142857143,4,1,0,70,0,0
7400,-140.845070422535,4,1,0,70,0,0
7600,-138.888888888889,4,1,0,70,0,0
7800,-136.986301369863,4,1,0,70,0,0
7900,-135.135135135135,4,1,0,70,0,0
8000,-133.333333333333,4,1,0,70,0,0
8200,-131.578947368421,4,1,0,70,0,0
8300,-129.87012987013,4,1,0,70,0,0
8400,-128.205128205128,4,1,0,70,0,0
8600,-126.582278481013,4,1,0,70,0,0
8801,-125,4,1,0,75,0,0
14050,-123.456790123457,4,1,0,75,0,0
14200,-121.951219512195,4,1,0,75,0,0
14300,-120.481927710843,4,1,0,75,0,0
14400,-119.047619047619,4,1,0,75,0,0
14500,-117.647058823529,4,1,0,75,0,0
14600,-116.279069767442,4,1,0,75,0,0
14700,-114.942528735632,4,1,0,75,0,0
14800,-113.636363636364,4,1,0,75,0,0
15000,-112.359550561798,4,1,0,75,0,0
15200,-111.111111111111,4,1,0,80,0,0
21000,-110.256207091632,4,1,0,80,0,0
21100,-109.407880820096,4,1,0,80,0,0
21200,-108.566081686414,4,1,0,80,0,0
21300,-107.730759469899,4,1,0,80,0,0
21400,-106.901864336268,4,1,0,80,0,0
21500,-106.079346834671,4,1,0,80,0,0
21600,-105.263157894737,4,1,0,85,0,0
24800,-104.166666666667,4,1,0,85,0,0
24933,-103.092783505155,4,1,0,85,0,0
25066,-102.040816326531,4,1,0,85,0,0
25200,-101.010101010101,4,1,0,85,0,0
25300,-100,4,1,0,85,0,0
25400,-99.009900990099,4,1,0,85,0,0
25600,-98.0392156862745,4,1,0,85,0,0
25700,-97.0873786407767,4,1,0,85,0,0
25800,-96.1538461538461,4,1,0,85,0,0
26000,-95.2380952380952,4,1,0,85,0,0
26100,-94.3396226415094,4,1,0,85,0,0
26200,-93.4579439252336,4,1,0,85,0,0
26400,-92.5925925925926,4,1,0,85,0,0
26500,-91.743119266055,4,1,0,85,0,0
26600,-90.9090909090909,4,1,0,85,0,0
26700,-90.0900900900901,4,1,0,85,0,0
26800,-89.2857142857143,4,1,0,85,0,0
26900,-88.4955752212389,4,1,0,85,0,0
27000,-87.719298245614,4,1,0,85,0,0
27100,-86.9565217391304,4,1,0,85,0,0
27200,-86.2068965517241,4,1,0,85,0,0
27400,-85.4700854700855,4,1,0,85,0,0
27600,-84.7457627118644,4,1,0,85,0,0
28000,-125,4,1,0,85,0,0
34400,-124.353007085294,4,1,0,90,0,0
34600,-123.709362969242,4,1,0,90,0,0
34800,-123.06905031865,4,1,0,90,0,0
35000,-122.432051890044,4,1,0,90,0,0
35200,-121.798350529198,4,1,0,90,0,0
35300,-121.167929170676,4,1,0,90,0,0
35500,-120.540770837372,4,1,0,90,0,0
35600,-119.916858640052,4,1,0,90,0,0
35800,-119.296175776901,4,1,0,90,0,0
36000,-118.678705533068,4,1,0,90,0,0
36200,-118.064431280217,4,1,0,90,0,0
36400,-117.45333647608,4,1,0,90,0,0
36600,-116.845404664011,4,1,0,90,0,0
36800,-116.240619472543,4,1,0,90,0,0
36900,-115.638964614945,4,1,0,90,0,0
37100,-115.040423888786,4,1,0,90,0,0
37200,-114.4449811755,4,1,0,90,0,0
37400,-113.852620439946,4,1,0,90,0,0
37600,-113.263325729983,4,1,0,90,0,0
37800,-112.677081176037,4,1,0,90,0,0
37900,-112.093870990672,4,1,0,90,0,0
38000,-111.513679468168,4,1,0,90,0,0
38200,-110.936490984099,4,1,0,90,0,0
38400,-110.362289994906,4,1,0,90,0,0
38500,-109.791061037487,4,1,0,90,0,0
38600,-109.222788728773,4,1,0,90,0,0
38800,-108.657457765317,4,1,0,90,0,0
39000,-108.095052922884,4,1,0,90,0,0
39100,-107.535559056037,4,1,0,90,0,0
39200,-106.978961097732,4,1,0,90,0,0
39400,-106.425244058909,4,1,0,90,0,0
39600,-105.874393028093,4,1,0,90,0,0
39800,-105.326393170989,4,1,0,90,0,0
40000,-104.781229730084,4,1,0,90,0,0
40066,-104.238888024248,4,1,0,90,0,0
40200,-103.69935344834,4,1,0,90,0,0
40266,-103.162611472814,4,1,0,90,0,0
40400,-102.628647643331,4,1,0,90,0,0
40466,-102.097447580362,4,1,0,90,0,0
40600,-101.568996978809,4,1,0,90,0,0
40666,-101.043281607617,4,1,0,90,0,0
40733,-100.520287309387,4,1,0,90,0,0
40800,-99.9999999999997,4,1,0,90,0,0
50400,-99.009900990099,4,1,0,90,0,0
50500,-98.0392156862745,4,1,0,90,0,0
50600,-97.0873786407767,4,1,0,90,0,0
50800,-96.1538461538461,4,1,0,90,0,0
50900,-95.2380952380952,4,1,0,90,0,0
51000,-94.3396226415094,4,1,0,90,0,0
51200,-93.4579439252336,4,1,0,90,0,0
51300,-92.5925925925926,4,1,0,90,0,0
51400,-91.743119266055,4,1,0,90,0,0
51600,-90.9090909090909,4,1,0,90,0,0
51700,-90.0900900900901,4,1,0,90,0,0
51800,-89.2857142857143,4,1,0,90,0,0
52000,-88.8888888888889,4,1,0,90,0,0
52066,-88.4955752212389,4,1,0,90,0,0
52133,-88.1057268722467,4,1,0,90,0,0
52200,-87.719298245614,4,1,0,90,0,0
52300,-87.3362445414847,4,1,0,90,0,0
52400,-86.9565217391304,4,1,0,90,0,0
52500,-86.5800865800866,4,1,0,90,0,0
52600,-86.2068965517241,4,1,0,90,0,0
52800,-85.8369098712446,4,1,0,90,0,0
52900,-85.4700854700855,4,1,0,90,0,0
53066,-85.1063829787234,4,1,0,90,0,0
53200,-84.7457627118644,4,1,0,90,0,0
53300,-84.3881856540084,4,1,0,90,0,0
53400,-84.0336134453781,4,1,0,90,0,0
53500,-83.6820083682008,4,1,0,90,0,0
53600,-83.3333333333333,4,1,0,90,0,0
53800,-125,4,1,0,70,0,0
59200,-123.456790123457,4,1,0,70,0,0
59300,-121.951219512195,4,1,0,70,0,0
59400,-120.481927710843,4,1,0,70,0,0
59500,-119.047619047619,4,1,0,70,0,0
59600,-117.647058823529,4,1,0,70,0,0
59700,-116.279069767442,4,1,0,70,0,0
59800,-114.942528735632,4,1,0,70,0,0
60000,-113.895216400911,4,1,0,80,0,0
60200,-112.359550561798,4,1,0,80,0,0
60400,-111.111111111111,4,1,0,80,0,0
60600,-109.89010989011,4,1,0,80,0,0
60800,-108.695652173913,4,1,0,80,0,0
61000,-107.52688172043,4,1,0,80,0,0
61200,-106.382978723404,4,1,0,80,0,0
61400,-105.263157894737,4,1,0,80,0,0
61600,-104.166666666667,4,1,0,80,0,0
61800,-103.092783505155,4,1,0,80,0,0
62000,-102.040816326531,4,1,0,80,0,0
62200,-101.010101010101,4,1,0,80,0,0
62400,-100,4,1,0,80,0,0
62600,-99.009900990099,4,1,0,80,0,0
62800,-98.0392156862745,4,1,0,80,0,0
63000,-97.0873786407767,4,1,0,80,0,0
63200,-96.1538461538461,4,1,0,80,0,0
63300,-95.2380952380952,4,1,0,80,0,0
63400,-94.3396226415094,4,1,0,80,0,0
63500,-93.4579439252336,4,1,0,80,0,0
63600,-92.5925925925926,4,1,0,80,0,0
63700,-91.743119266055,4,1,0,80,0,0
63800,-90.9090909090909,4,1,0,80,0,0
63900,-90.0900900900901,4,1,0,80,0,0
64000,-89.2857142857143,4,1,0,80,0,0
64100,-88.4955752212389,4,1,0,80,0,0
64200,-87.719298245614,4,1,0,80,0,0
64300,-86.9565217391304,4,1,0,80,0,0
64400,-86.2068965517241,4,1,0,80,0,0
64500,-85.4700854700855,4,1,0,80,0,0
64600,-84.7457627118644,4,1,0,80,0,0
64700,-84.0336134453781,4,1,0,80,0,0
64800,-83.3333333333333,4,1,0,80,0,0
65000,-82.9875518672199,4,1,0,80,0,0
65100,-82.6446280991736,4,1,0,80,0,0
65200,-82.3045267489712,4,1,0,80,0,0
65400,-81.8330605564648,4,1,0,80,0,0
65500,-81.6326530612245,4,1,0,80,0,0
65600,-81.3008130081301,4,1,0,80,0,0
65800,-80.9716599190283,4,1,0,80,0,0
66000,-80.6451612903226,4,1,0,80,0,0
66400,-105.263157894737,4,1,0,90,0,0
66855,-95.2380952380952,4,1,0,100,0,1
67055,-100,4,1,0,100,0,1
69655,-100,4,1,0,100,0,0
70055,-95.2380952380952,4,1,0,100,0,1
70255,-100,4,1,0,100,0,1
71500,-101.010101010101,4,1,0,100,0,1
71600,-102.040816326531,4,1,0,100,0,1
71800,-103.092783505155,4,1,0,100,0,1
72000,-104.166666666667,4,1,0,100,0,1
72200,-105.263157894737,4,1,0,100,0,1
72300,-106.382978723404,4,1,0,100,0,1
72400,-107.52688172043,4,1,0,100,0,1
72600,-108.695652173913,4,1,0,100,0,1
72855,-109.89010989011,4,1,0,100,0,0
72900,-111.111111111111,4,1,0,85,0,0
76000,-109.89010989011,4,1,0,85,0,0
76100,-108.695652173913,4,1,0,85,0,0
76200,-107.52688172043,4,1,0,85,0,0
76400,-106.382978723404,4,1,0,85,0,0
76500,-105.263157894737,4,1,0,85,0,0
76600,-104.166666666667,4,1,0,85,0,0
76800,-103.092783505155,4,1,0,85,0,0
76900,-102.040816326531,4,1,0,85,0,0
77000,-101.010101010101,4,1,0,85,0,0
77200,-100,4,1,0,85,0,0
77300,-99.009900990099,4,1,0,85,0,0
77400,-98.0392156862745,4,1,0,85,0,0
77600,-97.0873786407767,4,1,0,85,0,0
77800,-96.1538461538461,4,1,0,85,0,0
78000,-95.2380952380952,4,1,0,85,0,0
78200,-94.3396226415094,4,1,0,85,0,0
78400,-93.4579439252336,4,1,0,85,0,0
78600,-92.5925925925926,4,1,0,85,0,0
78800,-91.743119266055,4,1,0,85,0,0
79255,-105.263157894737,4,1,0,90,0,0
79655,-95.2380952380952,4,1,0,100,0,1
79855,-100,4,1,0,100,0,1
82455,-100,4,1,0,100,0,0
82855,-95.2380952380952,4,1,0,100,0,1
83055,-100,4,1,0,100,0,1
88794,-99.009900990099,4,1,0,100,0,1
88894,-98.0392156862745,4,1,0,100,0,1
88994,-97.0873786407767,4,1,0,100,0,1
89194,-96.1538461538461,4,1,0,100,0,1
89300,-95.2380952380952,4,1,0,100,0,1
89400,-94.3396226415094,4,1,0,100,0,1
89594,-93.4579439252336,4,1,0,100,0,1
89700,-92.5925925925926,4,1,0,100,0,1
89800,-91.743119266055,4,1,0,100,0,1
89900,-90.9090909090909,4,1,0,100,0,1
90000,-90.0900900900901,4,1,0,100,0,1
90100,-88.9266544686481,4,1,0,100,0,1
90200,-88.4955752212389,4,1,0,100,0,1
90400,-87.8581155032133,4,1,0,100,0,1
90466,-87.5047967317532,4,1,0,100,0,1
90533,-87.1528988211158,4,1,0,100,0,1
90600,-86.8024160573519,4,1,0,100,0,1
90700,-86.4533427494908,4,1,0,100,0,1
90800,-86.1056732294481,4,1,0,100,0,1
90900,-85.7594018519331,4,1,0,100,0,1
91000,-85.4145229943577,4,1,0,100,0,1
91100,-85.0710310567449,4,1,0,100,0,1
91200,-84.7289204616376,4,1,0,100,0,1
91300,-84.3881856540086,4,1,0,100,0,1
91400,-83.6820083682008,4,1,0,100,0,1
91600,-83.3333333333333,4,1,0,100,0,1
92055,-142.857142857143,4,1,0,70,0,0
96400,-140.845070422535,4,1,0,70,0,0
96800,-138.888888888889,4,1,0,70,0,0
97000,-136.986301369863,4,1,0,70,0,0
97100,-135.135135135135,4,1,0,70,0,0
97200,-133.333333333333,4,1,0,70,0,0
97400,-131.578947368421,4,1,0,70,0,0
97466,-129.87012987013,4,1,0,70,0,0
97533,-128.205128205128,4,1,0,70,0,0
97600,-126.582278481013,4,1,0,70,0,0
97700,-125,4,1,0,70,0,0
97800,-123.456790123457,4,1,0,70,0,0
97900,-121.951219512195,4,1,0,70,0,0
98000,-120.481927710843,4,1,0,70,0,0
98200,-119.047619047619,4,1,0,70,0,0
98400,-117.647058823529,4,1,0,85,0,0
101600,-116.279069767442,4,1,0,85,0,0
101733,-114.942528735632,4,1,0,85,0,0
101866,-113.636363636364,4,1,0,85,0,0
102000,-112.359550561798,4,1,0,85,0,0
102133,-111.111111111111,4,1,0,85,0,0
102266,-109.89010989011,4,1,0,85,0,0
102400,-108.695652173913,4,1,0,85,0,0
102533,-107.52688172043,4,1,0,85,0,0
102666,-106.382978723404,4,1,0,85,0,0
102800,-105.263157894737,4,1,0,85,0,0
102933,-104.166666666667,4,1,0,85,0,0
103066,-103.092783505155,4,1,0,85,0,0
103200,-102.040816326531,4,1,0,85,0,0
103300,-101.010101010101,4,1,0,85,0,0
103400,-100,4,1,0,85,0,0
103500,-99.009900990099,4,1,0,85,0,0
103600,-98.0392156862745,4,1,0,85,0,0
103700,-97.0873786407767,4,1,0,85,0,0
103800,-96.1538461538461,4,1,0,85,0,0
103900,-95.2380952380952,4,1,0,85,0,0
104000,-94.3396226415094,4,1,0,85,0,0
104200,-93.4579439252336,4,1,0,85,0,0
104400,-92.5925925925926,4,1,0,85,0,0
104800,-117.647058823529,4,1,0,70,0,0
108000,-116.279069767442,4,1,0,70,0,0
108133,-114.942528735632,4,1,0,70,0,0
108266,-113.636363636364,4,1,0,70,0,0
108400,-112.359550561798,4,1,0,70,0,0
108533,-111.111111111111,4,1,0,80,0,0
108666,-109.89010989011,4,1,0,80,0,0
108800,-108.695652173913,4,1,0,80,0,0
108933,-107.52688172043,4,1,0,80,0,0
109066,-106.382978723404,4,1,0,80,0,0
109200,-105.263157894737,4,1,0,80,0,0
109333,-104.166666666667,4,1,0,80,0,0
109466,-103.092783505155,4,1,0,80,0,0
109600,-102.040816326531,4,1,0,80,0,0
109700,-101.010101010101,4,1,0,80,0,0
109800,-100,4,1,0,80,0,0
109900,-99.009900990099,4,1,0,80,0,0
110000,-98.0392156862745,4,1,0,80,0,0
110100,-97.0873786407767,4,1,0,80,0,0
110200,-96.1538461538461,4,1,0,80,0,0
110300,-95.2380952380952,4,1,0,80,0,0
110400,-94.3396226415094,4,1,0,80,0,0
110500,-93.4579439252336,4,1,0,80,0,0
110600,-92.5925925925926,4,1,0,80,0,0
110800,-91.743119266055,4,1,0,80,0,0
111200,-111.111111111111,4,1,0,90,0,0
116000,-108.695652173913,4,1,0,90,0,0
116133,-106.382978723404,4,1,0,90,0,0
116266,-104.166666666667,4,1,0,90,0,0
116400,-102.040816326531,4,1,0,90,0,0
116533,-100,4,1,0,90,0,0
116666,-98.0392156862745,4,1,0,90,0,0
116800,-96.1538461538461,4,1,0,90,0,0
116900,-94.3396226415094,4,1,0,90,0,0
117000,-92.5925925925926,4,1,0,90,0,0
117100,-90.9090909090909,4,1,0,90,0,0
117200,-89.2857142857143,4,1,0,90,0,0
117300,-87.719298245614,4,1,0,90,0,0
117400,-86.2068965517241,4,1,0,90,0,0
117466,-84.7457627118644,4,1,0,90,0,0
117533,-83.3333333333333,4,1,0,90,0,0
117655,-81.9672131147541,4,1,0,100,0,1
117700,-100,4,1,0,100,0,1
127200,-99.009900990099,4,1,0,100,0,1
127300,-98.0392156862745,4,1,0,100,0,1
127400,-97.0873786407767,4,1,0,100,0,1
127600,-96.1538461538461,4,1,0,100,0,1
127700,-95.2380952380952,4,1,0,100,0,1
127800,-94.3396226415094,4,1,0,100,0,1
128000,-93.4579439252336,4,1,0,100,0,1
128100,-92.5925925925926,4,1,0,100,0,1
128200,-91.743119266055,4,1,0,100,0,1
128400,-90.9090909090909,4,1,0,100,0,1
128500,-90.0900900900901,4,1,0,100,0,1
128600,-89.2857142857143,4,1,0,100,0,1
128800,-88.8888888888889,4,1,0,100,0,1
128866,-88.4955752212389,4,1,0,100,0,1
128933,-88.1057268722467,4,1,0,100,0,1
129000,-87.719298245614,4,1,0,100,0,1
129100,-87.3362445414847,4,1,0,100,0,1
129200,-86.9565217391304,4,1,0,100,0,1
129266,-86.5800865800866,4,1,0,100,0,1
129333,-86.2068965517241,4,1,0,100,0,1
129400,-85.8369098712446,4,1,0,100,0,1
129500,-85.4700854700855,4,1,0,100,0,1
129600,-85.1063829787234,4,1,0,100,0,1
129700,-84.7457627118644,4,1,0,100,0,1
129800,-84.3881856540084,4,1,0,100,0,1
129900,-84.0336134453781,4,1,0,100,0,1
130000,-83.6820083682008,4,1,0,100,0,1
130100,-83.3333333333333,4,1,0,100,0,1
130200,-82.9875518672199,4,1,0,100,0,1
130300,-82.6446280991736,4,1,0,100,0,1
130455,-82.3045267489712,4,1,0,100,0,0
130600,-100,4,1,0,70,0,0
141800,-98.0392156862745,4,1,0,70,0,0
141900,-96.1538461538461,4,1,0,70,0,0
142000,-94.3396226415094,4,1,0,70,0,0
142100,-92.5925925925926,4,1,0,70,0,0
142200,-90.9090909090909,4,1,0,70,0,0
142300,-89.2857142857143,4,1,0,70,0,0
142400,-87.719298245614,4,1,0,70,0,0
142500,-86.2068965517241,4,1,0,70,0,0
142600,-84.7457627118644,4,1,0,70,0,0
142700,-83.3333333333333,4,1,0,70,0,0
142800,-81.9672131147541,4,1,0,70,0,0
142900,-80.6451612903226,4,1,0,70,0,0
143000,-79.3650793650794,4,1,0,70,0,0
143100,-78.125,4,1,0,70,0,0
143200,-76.9230769230769,4,1,0,70,0,0

[HitObjects]
256,192,855,12,0,2255,0:0:0:0:
256,192,2455,5,8,0:0:0:0:
256,192,2655,1,8,0:0:0:0:
256,192,2855,1,0,0:0:0:0:
256,192,3055,1,8,0:0:0:0:
256,192,3455,1,0,0:0:0:0:
256,192,3655,1,8,0:0:0:0:
256,192,3855,1,0,0:0:0:0:
256,192,3955,1,0,0:0:0:0:
256,192,4055,1,8,0:0:0:0:
256,192,4255,1,0,0:0:0:0:
256,192,4455,1,8,0:0:0:0:
256,192,4655,1,0,0:0:0:0:
256,192,4855,1,8,0:0:0:0:
256,192,5055,1,0,0:0:0:0:
256,192,5155,1,8,0:0:0:0:
256,192,5255,1,8,0:0:0:0:
256,192,5455,1,0,0:0:0:0:
256,192,5555,1,0,0:0:0:0:
256,192,5655,1,8,0:0:0:0:
256,192,5855,1,8,0:0:0:0:
256,192,6055,1,0,0:0:0:0:
256,192,6255,1,8,0:0:0:0:
256,192,6655,1,0,0:0:0:0:
256,192,6855,1,8,0:0:0:0:
256,192,7055,1,0,0:0:0:0:
256,192,7155,1,0,0:0:0:0:
256,192,7255,1,8,0:0:0:0:
256,192,7455,1,0,0:0:0:0:
256,192,7655,1,8,0:0:0:0:
256,192,7855,1,0,0:0:0:0:
256,192,7955,1,8,0:0:0:0:
256,192,8055,1,0,0:0:0:0:
256,192,8255,1,0,0:0:0:0:
256,192,8355,1,0,0:0:0:0:
256,192,8455,1,8,0:0:0:0:
256,192,8505,1,8,0:0:0:0:
256,192,8655,1,0,0:0:0:0:
256,192,8705,1,0,0:0:0:0:
352,192,8855,5,12,0:0:0:0:
256,192,9255,1,0,0:0:0:0:
256,192,9455,1,0,0:0:0:0:
256,192,9555,1,8,0:0:0:0:
256,192,9655,1,8,0:0:0:0:
256,192,9855,1,8,0:0:0:0:
256,192,9955,1,0,0:0:0:0:
256,192,10055,1,8,0:0:0:0:
256,192,10255,1,0,0:0:0:0:
256,192,10455,1,0,0:0:0:0:
256,192,10655,1,8,0:0:0:0:
256,192,10855,1,0,0:0:0:0:
256,192,11055,1,8,0:0:0:0:
256,192,11155,1,0,0:0:0:0:
256,192,11255,1,0,0:0:0:0:
256,192,11455,1,8,0:0:0:0:
256,192,11555,1,0,0:0:0:0:
256,192,11655,1,8,0:0:0:0:
256,192,11855,1,0,0:0:0:0:
256,192,12055,1,8,0:0:0:0:
256,192,12455,1,8,0:0:0:0:
256,192,12655,1,0,0:0:0:0:
256,192,12755,1,0,0:0:0:0:
256,192,12855,1,8,0:0:0:0:
256,192,13055,1,8,0:0:0:0:
256,192,13155,1,8,0:0:0:0:
256,192,13255,1,0,0:0:0:0:
256,192,13455,1,0,0:0:0:0:
256,192,13655,1,8,0:0:0:0:
256,192,13705,1,8,0:0:0:0:
256,192,13855,1,0,0:0:0:0:
256,192,13955,1,0,0:0:0:0:
256,192,14055,1,8,0:0:0:0:
256,192,14105,1,8,0:0:0:0:
256,192,14255,1,0,0:0:0:0:
256,192,14355,1,0,0:0:0:0:
256,192,14455,1,8,0:0:0:0:
256,192,14555,1,8,0:0:0:0:
256,192,14655,1,0,0:0:0:0:
256,192,14755,1,0,0:0:0:0:
256,192,14855,1,8,0:0:0:0:
256,192,15055,1,0,0:0:0:0:
352,192,15255,5,12,0:0:0:0:
256,192,15555,1,0,0:0:0:0:
256,192,15655,1,8,0:0:0:0:
256,192,15855,1,0,0:0:0:0:
256,192,16255,1,0,0:0:0:0:
256,192,16455,1,8,0:0:0:0:
256,192,16655,1,0,0:0:0:0:
256,192,16755,1,0,0:0:0:0:
256,192,16855,1,8,0:0:0:0:
256,192,17055,1,8,0:0:0:0:
256,192,17155,1,0,0:0:0:0:
256,192,17255,1,8,0:0:0:0:
256,192,17455,1,0,0:0:0:0:
256,192,17655,1,8,0:0:0:0:
256,192,17855,1,8,0:0:0:0:
256,192,17955,1,8,0:0:0:0:
256,192,18055,1,0,0:0:0:0:
256,192,18255,1,8,0:0:0:0:
256,192,18455,1,0,0:0:0:0:
256,192,18555,1,0,0:0:0:0:
256,192,18655,1,8,0:0:0:0:
256,192,18755,1,0,0:0:0:0:
256,192,18855,1,8,0:0:0:0:
256,192,19055,1,0,0:0:0:0:
256,192,19455,1,0,0:0:0:0:
256,192,19655,1,8,0:0:0:0:
256,192,19855,1,0,0:0:0:0:
256,192,19955,1,0,0:0:0:0:
256,192,20055,1,8,0:0:0:0:
256,192,20255,1,0,0:0:0:0:
256,192,20355,1,8,0:0:0:0:
256,192,20455,1,8,0:0:0:0:
256,192,20655,1,0,0:0:0:0:
256,192,20721,1,0,0:0:0:0:
256,192,20788,1,0,0:0:0:0:
256,192,20855,1,8,0:0:0:0:
256,192,21055,1,0,0:0:0:0:
256,192,21155,1,0,0:0:0:0:
256,192,21255,1,8,0:0:0:0:
256,192,21355,1,0,0:0:0:0:
256,192,21455,1,0,0:0:0:0:
256,192,21555,1,0,0:0:0:0:
256,192,21655,1,8,0:0:0:0:
256,192,21855,5,0,0:0:0:0:
256,192,22055,1,8,0:0:0:0:
256,192,22255,1,0,0:0:0:0:
256,192,22355,1,0,0:0:0:0:
256,192,22455,1,8,0:0:0:0:
256,192,22655,1,0,0:0:0:0:
256,192,22855,1,8,0:0:0:0:
256,192,23055,1,0,0:0:0:0:
256,192,23155,1,8,0:0:0:0:
256,192,23255,1,0,0:0:0:0:
256,192,23455,1,0,0:0:0:0:
256,192,23555,1,0,0:0:0:0:
256,192,23655,1,8,0:0:0:0:
256,192,23755,1,0,0:0:0:0:
256,192,23855,1,8,0:0:0:0:
256,192,23955,1,8,0:0:0:0:
256,192,24055,1,0,0:0:0:0:
256,192,24255,1,8,0:0:0:0:
256,192,24355,1,8,0:0:0:0:
256,192,24455,1,0,0:0:0:0:
256,192,24655,1,0,0:0:0:0:
256,192,24855,1,0,0:0:0:0:
256,192,24988,1,8,0:0:0:0:
256,192,25121,1,8,0:0:0:0:
256,192,25255,1,0,0:0:0:0:
256,192,25388,1,8,0:0:0:0:
256,192,25521,1,8,0:0:0:0:
256,192,25655,1,0,0:0:0:0:
256,192,25788,1,8,0:0:0:0:
256,192,25921,1,8,0:0:0:0:
256,192,26055,1,0,0:0:0:0:
256,192,26188,1,8,0:0:0:0:
256,192,26321,1,8,0:0:0:0:
256,192,26455,1,0,0:0:0:0:
256,192,26555,1,0,0:0:0:0:
256,192,26655,1,0,0:0:0:0:
256,192,26755,1,0,0:0:0:0:
256,192,26855,1,8,0:0:0:0:
256,192,26955,1,8,0:0:0:0:
256,192,27055,1,0,0:0:0:0:
256,192,27155,1,0,0:0:0:0:
256,192,27255,1,8,0:0:0:0:
256,192,27455,1,0,0:0:0:0:
256,192,27655,1,12,0:0:0:0:
160,192,28055,1,4,0:0:0:0:
256,192,28455,5,8,0:0:0:0:
256,192,28855,1,0,0:0:0:0:
256,192,29155,1,0,0:0:0:0:
256,192,29255,1,8,0:0:0:0:
256,192,29455,1,0,0:0:0:0:
160,192,29655,1,4,0:0:0:0:
256,192,30055,1,8,0:0:0:0:
256,192,30455,1,0,0:0:0:0:
256,192,30755,1,0,0:0:0:0:
256,192,30855,1,8,0:0:0:0:
256,192,31055,1,0,0:0:0:0:
160,192,31255,1,4,0:0:0:0:
256,192,31655,1,8,0:0:0:0:
256,192,32055,1,0,0:0:0:0:
256,192,32355,1,0,0:0:0:0:
256,192,32455,1,8,0:0:0:0:
256,192,32655,1,0,0:0:0:0:
256,192,32855,1,8,0:0:0:0:
256,192,32955,1,8,0:0:0:0:
256,192,33055,1,0,0:0:0:0:
256,192,33255,1,0,0:0:0:0:
256,192,33355,1,0,0:0:0:0:
256,192,33455,1,8,0:0:0:0:
256,192,33655,1,8,0:0:0:0:
256,192,33755,1,8,0:0:0:0:
256,192,33855,1,0,0:0:0:0:
256,192,33955,1,0,0:0:0:0:
256,192,34055,1,8,0:0:0:0:
256,192,34105,1,8,0:0:0:0:
256,192,34255,1,0,0:0:0:0:
256,192,34305,1,0,0:0:0:0:
352,192,34455,5,12,0:0:0:0:
256,192,34655,1,0,0:0:0:0:
256,192,34855,1,8,0:0:0:0:
256,192,35055,1,0,0:0:0:0:
256,192,35255,1,8,0:0:0:0:
256,192,35355,1,8,0:0:0:0:
256,192,35555,1,0,0:0:0:0:
256,192,35655,1,8,0:0:0:0:
256,192,35855,1,0,0:0:0:0:
256,192,36055,1,8,0:0:0:0:
256,192,36255,1,0,0:0:0:0:
256,192,36455,1,8,0:0:0:0:
256,192,36655,1,0,0:0:0:0:
256,192,36855,1,8,0:0:0:0:
256,192,36955,1,8,0:0:0:0:
256,192,37155,1,0,0:0:0:0:
256,192,37255,1,8,0:0:0:0:
256,192,37455,1,0,0:0:0:0:
256,192,37655,1,8,0:0:0:0:
256,192,37855,1,0,0:0:0:0:
256,192,37955,1,8,0:0:0:0:
256,192,38055,1,0,0:0:0:0:
256,192,38255,1,8,0:0:0:0:
256,192,38455,1,0,0:0:0:0:
256,192,38555,1,8,0:0:0:0:
256,192,38655,1,0,0:0:0:0:
256,192,38855,1,8,0:0:0:0:
256,192,39055,1,8,0:0:0:0:
256,192,39155,1,8,0:0:0:0:
256,192,39255,1,0,0:0:0:0:
256,192,39455,1,0,0:0:0:0:
256,192,39655,1,8,0:0:0:0:
256,192,39855,1,0,0:0:0:0:
256,192,40055,1,0,0:0:0:0:
256,192,40155,1,0,0:0:0:0:
256,192,40255,1,8,0:0:0:0:
256,192,40355,1,8,0:0:0:0:
256,192,40455,1,0,0:0:0:0:
256,192,40555,1,8,0:0:0:0:
256,192,40655,1,0,0:0:0:0:
256,192,40721,1,8,0:0:0:0:
256,192,40788,1,8,0:0:0:0:
256,192,40855,1,0,0:0:0:0:
256,192,41055,5,8,0:0:0:0:
256,192,41155,1,8,0:0:0:0:
256,192,41255,1,0,0:0:0:0:
256,192,41455,1,8,0:0:0:0:
256,192,41655,1,0,0:0:0:0:
256,192,41755,1,0,0:0:0:0:
256,192,41855,1,8,0:0:0:0:
256,192,41955,1,0,0:0:0:0:
256,192,42055,1,8,0:0:0:0:
256,192,42255,1,0,0:0:0:0:
256,192,42355,1,8,0:0:0:0:
256,192,42455,1,0,0:0:0:0:
256,192,42655,1,8,0:0:0:0:
256,192,42755,1,8,0:0:0:0:
256,192,42855,1,0,0:0:0:0:
256,192,43055,1,8,0:0:0:0:
256,192,43255,1,0,0:0:0:0:
256,192,43355,1,0,0:0:0:0:
256,192,43455,1,8,0:0:0:0:
256,192,43555,1,0,0:0:0:0:
256,192,43655,1,8,0:0:0:0:
256,192,43855,1,0,0:0:0:0:
256,192,43955,1,8,0:0:0:0:
256,192,44055,1,0,0:0:0:0:
256,192,44255,1,8,0:0:0:0:
256,192,44355,1,8,0:0:0:0:
256,192,44455,1,0,0:0:0:0:
256,192,44655,1,8,0:0:0:0:
256,192,44855,1,0,0:0:0:0:
256,192,44955,1,0,0:0:0:0:
256,192,45055,1,8,0:0:0:0:
256,192,45155,1,0,0:0:0:0:
256,192,45255,1,8,0:0:0:0:
256,192,45455,1,0,0:0:0:0:
256,192,45655,1,8,0:0:0:0:
256,192,45855,1,8,0:0:0:0:
256,192,46055,1,0,0:0:0:0:
256,192,46255,1,0,0:0:0:0:
256,192,46455,1,0,0:0:0:0:
256,192,46555,1,0,0:0:0:0:
256,192,46655,1,8,0:0:0:0:
256,192,46755,1,0,0:0:0:0:
256,192,46855,1,8,0:0:0:0:
256,192,46905,1,8,0:0:0:0:
256,192,47055,1,0,0:0:0:0:
256,192,47105,1,0,0:0:0:0:
352,192,47255,5,12,0:0:0:0:
256,192,47455,1,8,0:0:0:0:
256,192,47555,1,8,0:0:0:0:
256,192,47655,1,0,0:0:0:0:
256,192,47855,1,0,0:0:0:0:
256,192,48055,1,0,0:0:0:0:
256,192,48155,1,0,0:0:0:0:
256,192,48255,1,8,0:0:0:0:
256,192,48355,1,0,0:0:0:0:
256,192,48455,1,8,0:0:0:0:
256,192,48555,1,8,0:0:0:0:
256,192,48655,1,0,0:0:0:0:
256,192,48855,1,0,0:0:0:0:
256,192,49055,1,8,0:0:0:0:
256,192,49155,1,8,0:0:0:0:
256,192,49255,1,0,0:0:0:0:
256,192,49455,1,0,0:0:0:0:
256,192,49655,1,0,0:0:0:0:
256,192,49755,1,0,0:0:0:0:
256,192,49855,1,8,0:0:0:0:
256,192,49955,1,0,0:0:0:0:
256,192,50055,1,8,0:0:0:0:
256,192,50155,1,8,0:0:0:0:
256,192,50255,1,0,0:0:0:0:
256,192,50455,1,0,0:0:0:0:
256,192,50588,1,8,0:0:0:0:
256,192,50721,1,8,0:0:0:0:
256,192,50855,1,0,0:0:0:0:
256,192,50988,1,8,0:0:0:0:
256,192,51121,1,8,0:0:0:0:
256,192,51255,1,0,0:0:0:0:
256,192,51388,1,8,0:0:0:0:
256,192,51521,1,8,0:0:0:0:
256,192,51655,1,0,0:0:0:0:
256,192,51788,1,8,0:0:0:0:
256,192,51921,1,8,0:0:0:0:
256,192,52055,1,0,0:0:0:0:
256,192,52121,1,0,0:0:0:0:
256,192,52188,1,8,0:0:0:0:
256,192,52255,1,8,0:0:0:0:
256,192,52355,1,0,0:0:0:0:
256,192,52455,1,0,0:0:0:0:
256,192,52588,1,8,0:0:0:0:
256,192,52721,1,8,0:0:0:0:
256,192,52855,1,0,0:0:0:0:
256,192,52988,1,8,0:0:0:0:
256,192,53121,1,8,0:0:0:0:
256,192,53255,1,0,0:0:0:0:
256,192,53355,1,8,0:0:0:0:
256,192,53455,1,8,0:0:0:0:
256,192,53555,1,8,0:0:0:0:
256,192,53655,1,0,0:0:0:0:
256,192,54055,5,8,0:0:0:0:
256,192,54255,1,0,0:0:0:0:
256,192,54455,1,8,0:0:0:0:
256,192,54555,1,8,0:0:0:0:
256,192,54655,1,0,0:0:0:0:
256,192,54855,1,8,0:0:0:0:
256,192,55055,1,8,0:0:0:0:
256,192,55155,1,0,0:0:0:0:
256,192,55255,1,8,0:0:0:0:
256,192,55655,1,8,0:0:0:0:
256,192,55855,1,0,0:0:0:0:
256,192,56055,1,0,0:0:0:0:
256,192,56155,1,0,0:0:0:0:
256,192,56255,1,8,0:0:0:0:
256,192,56355,1,0,0:0:0:0:
256,192,56455,1,8,0:0:0:0:
256,192,56555,1,8,0:0:0:0:
256,192,56655,1,0,0:0:0:0:
256,192,56855,1,0,0:0:0:0:
256,192,57255,1,8,0:0:0:0:
256,192,57455,1,0,0:0:0:0:
256,192,57655,1,8,0:0:0:0:
256,192,57755,1,8,0:0:0:0:
256,192,57855,1,0,0:0:0:0:
256,192,58055,1,0,0:0:0:0:
256,192,58255,1,0,0:0:0:0:
256,192,58355,1,8,0:0:0:0:
256,192,58455,1,0,0:0:0:0:
256,192,58855,1,8,0:0:0:0:
256,192,59055,1,0,0:0:0:0:
256,192,59255,1,8,0:0:0:0:
256,192,59355,1,0,0:0:0:0:
256,192,59455,1,0,0:0:0:0:
256,192,59555,1,8,0:0:0:0:
256,192,59655,1,0,0:0:0:0:
256,192,59755,1,0,0:0:0:0:
256,192,59855,1,8,0:0:0:0:
256,192,60055,5,0,0:0:0:0:
256,192,60255,1,0,0:0:0:0:
256,192,60455,1,8,0:0:0:0:
256,192,60655,1,0,0:0:0:0:
256,192,60855,1,8,0:0:0:0:
256,192,61055,1,8,0:0:0:0:
256,192,61255,1,0,0:0:0:0:
256,192,61455,1,0,0:0:0:0:
256,192,61655,1,8,0:0:0:0:
256,192,61855,1,8,0:0:0:0:
256,192,62055,1,8,0:0:0:0:
256,192,62255,1,0,0:0:0:0:
256,192,62455,1,8,0:0:0:0:
256,192,62655,1,8,0:0:0:0:
256,192,62855,1,0,0:0:0:0:
256,192,63055,1,8,0:0:0:0:
256,192,63255,1,0,0:0:0:0:
256,192,63355,1,0,0:0:0:0:
256,192,63455,1,8,0:0:0:0:
256,192,63555,1,8,0:0:0:0:
256,192,63655,1,0,0:0:0:0:
256,192,63755,1,0,0:0:0:0:
256,192,63855,1,8,0:0:0:0:
256,192,63955,1,8,0:0:0:0:
256,192,64055,1,0,0:0:0:0:
256,192,64155,1,8,0:0:0:0:
256,192,64255,1,8,0:0:0:0:
256,192,64355,1,8,0:0:0:0:
256,192,64455,1,0,0:0:0:0:
256,192,64555,1,8,0:0:0:0:
256,192,64655,1,8,0:0:0:0:
256,192,64755,1,8,0:0:0:0:
256,192,64855,1,0,0:0:0:0:
256,192,65055,1,0,0:0:0:0:
256,192,65155,1,0,0:0:0:0:
256,192,65255,1,8,0:0:0:0:
256,192,65455,1,8,0:0:0:0:
256,192,65555,1,8,0:0:0:0:
256,192,65655,1,0,0:0:0:0:
256,192,65855,1,0,0:0:0:0:
352,192,66055,1,12,0:0:0:0:
160,192,66455,5,4,0:0:0:0:
352,192,66855,1,12,0:0:0:0:
256,192,67055,1,0,0:0:0:0:
256,192,67255,1,8,0:0:0:0:
256,192,67355,1,8,0:0:0:0:
256,192,67455,1,0,0:0:0:0:
256,192,67555,1,8,0:0:0:0:
256,192,67655,1,0,0:0:0:0:
256,192,67855,1,0,0:0:0:0:
256,192,68055,1,8,0:0:0:0:
256,192,68255,1,0,0:0:0:0:
256,192,68355,1,8,0:0:0:0:
256,192,68455,1,0,0:0:0:0:
256,192,68655,1,0,0:0:0:0:
256,192,68855,1,8,0:0:0:0:
256,192,69055,1,0,0:0:0:0:
256,192,69155,1,0,0:0:0:0:
256,192,69255,1,8,0:0:0:0:
256,192,69355,1,8,0:0:0:0:
256,192,69455,1,0,0:0:0:0:
256,192,69655,1,8,0:0:0:0:
352,192,70055,1,12,0:0:0:0:
256,192,70255,1,0,0:0:0:0:
256,192,70455,1,8,0:0:0:0:
256,192,70555,1,8,0:0:0:0:
256,192,70655,1,0,0:0:0:0:
256,192,70755,1,8,0:0:0:0:
256,192,70855,1,0,0:0:0:0:
256,192,71055,1,0,0:0:0:0:
256,192,71255,1,8,0:0:0:0:
256,192,71355,1,8,0:0:0:0:
256,192,71455,1,0,0:0:0:0:
256,192,71555,1,0,0:0:0:0:
256,192,71655,1,8,0:0:0:0:
256,192,71705,1,8,0:0:0:0:
256,192,71855,1,0,0:0:0:0:
256,192,72055,1,8,0:0:0:0:
256,192,72105,1,8,0:0:0:0:
256,192,72255,1,0,0:0:0:0:
256,192,72355,1,0,0:0:0:0:
256,192,72455,1,8,0:0:0:0:
256,192,72655,1,0,0:0:0:0:
256,192,72855,5,0,0:0:0:0:
256,192,73155,1,0,0:0:0:0:
256,192,73255,1,8,0:0:0:0:
256,192,73455,1,0,0:0:0:0:
256,192,73855,1,0,0:0:0:0:
256,192,74055,1,8,0:0:0:0:
256,192,74155,1,8,0:0:0:0:
256,192,74255,1,0,0:0:0:0:
256,192,74455,1,0,0:0:0:0:
256,192,74755,1,0,0:0:0:0:
256,192,74855,1,8,0:0:0:0:
256,192,75055,1,0,0:0:0:0:
256,192,75455,1,0,0:0:0:0:
256,192,75655,1,8,0:0:0:0:
256,192,75755,1,8,0:0:0:0:
256,192,75855,1,0,0:0:0:0:
256,192,76055,1,0,0:0:0:0:
256,192,76188,1,8,0:0:0:0:
256,192,76321,1,8,0:0:0:0:
256,192,76455,1,0,0:0:0:0:
256,192,76588,1,8,0:0:0:0:
256,192,76721,1,8,0:0:0:0:
256,192,76855,1,0,0:0:0:0:
256,192,76988,1,8,0:0:0:0:
256,192,77121,1,8,0:0:0:0:
256,192,77255,1,0,0:0:0:0:
256,192,77388,1,8,0:0:0:0:
256,192,77521,1,0,0:0:0:0:
256,192,77655,1,8,0:0:0:0:
256,192,77705,1,8,0:0:0:0:
256,192,77855,1,0,0:0:0:0:
256,192,77905,1,0,0:0:0:0:
256,192,78055,1,8,0:0:0:0:
256,192,78105,1,8,0:0:0:0:
256,192,78255,1,0,0:0:0:0:
256,192,78305,1,0,0:0:0:0:
256,192,78455,1,8,0:0:0:0:
256,192,78505,1,8,0:0:0:0:
256,192,78655,1,0,0:0:0:0:
256,192,78705,1,0,0:0:0:0:
352,192,78855,1,12,0:0:0:0:
160,192,79255,5,4,0:0:0:0:
352,192,79655,1,12,0:0:0:0:
256,192,79855,1,0,0:0:0:0:
256,192,80055,1,8,0:0:0:0:
256,192,80155,1,8,0:0:0:0:
256,192,80255,1,0,0:0:0:0:
256,192,80355,1,8,0:0:0:0:
256,192,80455,1,0,0:0:0:0:
256,192,80655,1,0,0:0:0:0:
256,192,80855,1,8,0:0:0:0:
256,192,81055,1,0,0:0:0:0:
256,192,81155,1,8,0:0:0:0:
256,192,81255,1,0,0:0:0:0:
256,192,81455,1,0,0:0:0:0:
256,192,81655,1,8,0:0:0:0:
256,192,81855,1,0,0:0:0:0:
256,192,81955,1,0,0:0:0:0:
256,192,82055,1,8,0:0:0:0:
256,192,82155,1,8,0:0:0:0:
256,192,82255,1,0,0:0:0:0:
256,192,82455,1,8,0:0:0:0:
352,192,82855,1,12,0:0:0:0:
256,192,83055,1,0,0:0:0:0:
256,192,83255,1,8,0:0:0:0:
256,192,83355,1,8,0:0:0:0:
256,192,83455,1,0,0:0:0:0:
256,192,83555,1,8,0:0:0:0:
256,192,83655,1,0,0:0:0:0:
256,192,83855,1,0,0:0:0:0:
256,192,84055,1,8,0:0:0:0:
256,192,84155,1,8,0:0:0:0:
256,192,84255,1,0,0:0:0:0:
256,192,84355,1,0,0:0:0:0:
256,192,84455,1,8,0:0:0:0:
256,192,84505,1,8,0:0:0:0:
256,192,84655,1,0,0:0:0:0:
256,192,84855,1,8,0:0:0:0:
256,192,84905,1,8,0:0:0:0:
256,192,85055,1,0,0:0:0:0:
256,192,85155,1,0,0:0:0:0:
256,192,85255,1,8,0:0:0:0:
256,192,85455,1,0,0:0:0:0:
256,192,85655,5,0,0:0:0:0:
256,192,85855,1,0,0:0:0:0:
256,192,85955,1,0,0:0:0:0:
256,192,86055,1,8,0:0:0:0:
256,192,86255,1,0,0:0:0:0:
256,192,86455,1,8,0:0:0:0:
256,192,86555,1,0,0:0:0:0:
256,192,86655,1,8,0:0:0:0:
256,192,86755,1,0,0:0:0:0:
256,192,86855,1,8,0:0:0:0:
256,192,87055,1,0,0:0:0:0:
256,192,87255,1,0,0:0:0:0:
256,192,87455,1,0,0:0:0:0:
256,192,87555,1,8,0:0:0:0:
256,192,87655,1,8,0:0:0:0:
256,192,87855,1,0,0:0:0:0:
256,192,88055,1,8,0:0:0:0:
256,192,88155,1,0,0:0:0:0:
256,192,88255,1,0,0:0:0:0:
256,192,88355,1,0,0:0:0:0:
256,192,88455,1,8,0:0:0:0:
256,192,88655,1,8,0:0:0:0:
256,192,88855,1,0,0:0:0:0:
256,192,88955,1,0,0:0:0:0:
256,192,89055,1,8,0:0:0:0:
256,192,89255,1,0,0:0:0:0:
256,192,89355,1,8,0:0:0:0:
256,192,89455,1,0,0:0:0:0:
256,192,89655,1,8,0:0:0:0:
256,192,89755,1,8,0:0:0:0:
256,192,89855,1,0,0:0:0:0:
256,192,89955,1,0,0:0:0:0:
256,192,90055,1,8,0:0:0:0:
256,192,90155,1,0,0:0:0:0:
256,192,90255,1,8,0:0:0:0:
256,192,90455,1,0,0:0:0:0:
256,192,90521,1,0,0:0:0:0:
256,192,90588,1,8,0:0:0:0:
256,192,90655,1,8,0:0:0:0:
256,192,90755,1,0,0:0:0:0:
256,192,90855,1,0,0:0:0:0:
256,192,90955,1,8,0:0:0:0:
256,192,91055,1,0,0:0:0:0:
256,192,91155,1,8,0:0:0:0:
256,192,91255,1,0,0:0:0:0:
256,192,91388,1,8,0:0:0:0:
256,192,91521,1,8,0:0:0:0:
256,192,91655,1,0,0:0:0:0:
256,192,92055,5,0,0:0:0:0:
256,192,92455,1,8,0:0:0:0:
256,192,92655,1,0,0:0:0:0:
256,192,93255,1,8,0:0:0:0:
256,192,93655,1,0,0:0:0:0:
256,192,94055,1,8,0:0:0:0:
256,192,94255,1,0,0:0:0:0:
256,192,94855,1,8,0:0:0:0:
256,192,95255,1,0,0:0:0:0:
256,192,95655,1,8,0:0:0:0:
256,192,95855,1,0,0:0:0:0:
256,192,96455,1,8,0:0:0:0:
256,192,96855,1,8,0:0:0:0:
256,192,96905,1,8,0:0:0:0:
256,192,97055,1,0,0:0:0:0:
256,192,97155,1,0,0:0:0:0:
256,192,97255,1,8,0:0:0:0:
256,192,97305,1,8,0:0:0:0:
256,192,97455,1,0,0:0:0:0:
256,192,97521,1,0,0:0:0:0:
256,192,97588,1,0,0:0:0:0:
256,192,97655,1,8,0:0:0:0:
256,192,97755,1,0,0:0:0:0:
256,192,97855,1,0,0:0:0:0:
256,192,97955,1,0,0:0:0:0:
256,192,98055,1,8,0:0:0:0:
256,192,98255,1,0,0:0:0:0:
256,192,98455,5,12,0:0:0:0:
256,192,98655,1,0,0:0:0:0:
256,192,98755,1,0,0:0:0:0:
256,192,98855,1,8,0:0:0:0:
256,192,99055,1,0,0:0:0:0:
256,192,99255,1,0,0:0:0:0:
256,192,99455,1,0,0:0:0:0:
256,192,99655,1,8,0:0:0:0:
256,192,99855,1,0,0:0:0:0:
256,192,99955,1,8,0:0:0:0:
256,192,100055,1,8,0:0:0:0:
256,192,100255,1,0,0:0:0:0:
256,192,100355,1,0,0:0:0:0:
256,192,100455,1,8,0:0:0:0:
256,192,100655,1,0,0:0:0:0:
256,192,100855,1,8,0:0:0:0:
256,192,100955,1,8,0:0:0:0:
256,192,101055,1,8,0:0:0:0:
256,192,101255,1,0,0:0:0:0:
256,192,101455,1,8,0:0:0:0:
256,192,101655,1,0,0:0:0:0:
256,192,101788,1,8,0:0:0:0:
256,192,101921,1,8,0:0:0:0:
256,192,102055,1,0,0:0:0:0:
256,192,102188,1,8,0:0:0:0:
256,192,102321,1,8,0:0:0:0:
256,192,102455,1,0,0:0:0:0:
256,192,102588,1,8,0:0:0:0:
256,192,102721,1,8,0:0:0:0:
256,192,102855,1,0,0:0:0:0:
256,192,102988,1,8,0:0:0:0:
256,192,103121,1,8,0:0:0:0:
256,192,103255,1,0,0:0:0:0:
256,192,103355,1,0,0:0:0:0:
256,192,103455,1,8,0:0:0:0:
256,192,103555,1,0,0:0:0:0:
256,192,103655,1,8,0:0:0:0:
256,192,103755,1,8,0:0:0:0:
256,192,103855,1,0,0:0:0:0:
256,192,103955,1,0,0:0:0:0:
256,192,104055,1,8,0:0:0:0:
256,192,104255,1,0,0:0:0:0:
352,192,104455,1,12,0:0:0:0:
160,192,104855,1,4,0:0:0:0:
256,192,106255,5,0,0:0:0:0:
256,192,106355,1,0,0:0:0:0:
256,192,106455,1,0,0:0:0:0:
256,192,107855,1,0,0:0:0:0:
256,192,108055,1,0,0:0:0:0:
256,192,108188,1,8,0:0:0:0:
256,192,108321,1,8,0:0:0:0:
256,192,108455,1,0,0:0:0:0:
256,192,108588,1,8,0:0:0:0:
256,192,108721,1,8,0:0:0:0:
256,192,108855,1,0,0:0:0:0:
256,192,108988,1,8,0:0:0:0:
256,192,109121,1,8,0:0:0:0:
256,192,109255,1,0,0:0:0:0:
256,192,109388,1,8,0:0:0:0:
256,192,109521,1,8,0:0:0:0:
256,192,109655,1,0,0:0:0:0:
256,192,109755,1,8,0:0:0:0:
256,192,109855,1,8,0:0:0:0:
256,192,109955,1,8,0:0:0:0:
256,192,110055,1,0,0:0:0:0:
256,192,110155,1,0,0:0:0:0:
256,192,110255,1,8,0:0:0:0:
256,192,110355,1,0,0:0:0:0:
256,192,110455,1,8,0:0:0:0:
256,192,110588,1,0,0:0:0:0:
256,192,110721,1,0,0:0:0:0:
256,192,110855,1,8,0:0:0:0:
160,192,111255,5,4,0:0:0:0:
256,192,111455,1,0,0:0:0:0:
256,192,111655,1,8,0:0:0:0:
256,192,111855,1,8,0:0:0:0:
256,192,111955,1,0,0:0:0:0:
256,192,112055,1,8,0:0:0:0:
256,192,112255,1,0,0:0:0:0:
256,192,112355,1,0,0:0:0:0:
256,192,112455,1,8,0:0:0:0:
256,192,112655,1,0,0:0:0:0:
256,192,112855,1,8,0:0:0:0:
256,192,113055,1,0,0:0:0:0:
256,192,113255,1,8,0:0:0:0:
256,192,113455,1,0,0:0:0:0:
256,192,113555,1,0,0:0:0:0:
256,192,113655,1,8,0:0:0:0:
256,192,113855,1,8,0:0:0:0:
256,192,113955,1,0,0:0:0:0:
256,192,114055,1,8,0:0:0:0:
256,192,114255,1,0,0:0:0:0:
256,192,114455,1,8,0:0:0:0:
256,192,114655,1,0,0:0:0:0:
256,192,114755,1,8,0:0:0:0:
256,192,114855,1,0,0:0:0:0:
256,192,115055,1,8,0:0:0:0:
256,192,115255,1,0,0:0:0:0:
256,192,115355,1,8,0:0:0:0:
256,192,115455,1,0,0:0:0:0:
256,192,115655,1,8,0:0:0:0:
256,192,115855,1,0,0:0:0:0:
256,192,116055,1,0,0:0:0:0:
256,192,116188,1,8,0:0:0:0:
256,192,116321,1,8,0:0:0:0:
256,192,116455,1,0,0:0:0:0:
256,192,116588,1,8,0:0:0:0:
256,192,116721,1,8,0:0:0:0:
256,192,116855,1,0,0:0:0:0:
256,192,116955,1,0,0:0:0:0:
256,192,117055,1,8,0:0:0:0:
256,192,117155,1,8,0:0:0:0:
256,192,117255,1,0,0:0:0:0:
256,192,117355,1,8,0:0:0:0:
256,192,117455,1,0,0:0:0:0:
256,192,117521,1,8,0:0:0:0:
256,192,117588,1,8,0:0:0:0:
256,192,117655,1,0,0:0:0:0:
256,192,118055,5,0,0:0:0:0:
256,192,118255,1,8,0:0:0:0:
256,192,118455,1,0,0:0:0:0:
256,192,118555,1,0,0:0:0:0:
256,192,118655,1,8,0:0:0:0:
256,192,118855,1,8,0:0:0:0:
256,192,118955,1,0,0:0:0:0:
256,192,119055,1,8,0:0:0:0:
256,192,119155,1,8,0:0:0:0:
256,192,119255,1,0,0:0:0:0:
256,192,119455,1,0,0:0:0:0:
256,192,119555,1,0,0:0:0:0:
256,192,119655,1,8,0:0:0:0:
256,192,119755,1,8,0:0:0:0:
256,192,119855,1,0,0:0:0:0:
256,192,119955,1,8,0:0:0:0:
256,192,120055,1,0,0:0:0:0:
256,192,120255,1,8,0:0:0:0:
256,192,120355,1,0,0:0:0:0:
256,192,120455,1,8,0:0:0:0:
256,192,120655,1,0,0:0:0:0:
256,192,120755,1,0,0:0:0:0:
256,192,120855,1,8,0:0:0:0:
256,192,121255,1,0,0:0:0:0:
256,192,121455,1,8,0:0:0:0:
256,192,121655,1,8,0:0:0:0:
256,192,121755,1,0,0:0:0:0:
256,192,121855,1,0,0:0:0:0:
256,192,122055,1,8,0:0:0:0:
256,192,122155,1,8,0:0:0:0:
256,192,122255,1,0,0:0:0:0:
256,192,122355,1,8,0:0:0:0:
256,192,122455,1,0,0:0:0:0:
256,192,122655,1,8,0:0:0:0:
256,192,122755,1,0,0:0:0:0:
256,192,122855,1,8,0:0:0:0:
256,192,122955,1,0,0:0:0:0:
256,192,123055,1,8,0:0:0:0:
256,192,123155,1,0,0:0:0:0:
256,192,123255,1,8,0:0:0:0:
256,192,123455,1,0,0:0:0:0:
256,192,123555,1,0,0:0:0:0:
256,192,123655,1,8,0:0:0:0:
256,192,123705,1,8,0:0:0:0:
256,192,123855,1,0,0:0:0:0:
256,192,123905,1,0,0:0:0:0:
352,192,124055,1,12,0:0:0:0:
256,192,124455,1,0,0:0:0:0:
256,192,124655,1,8,0:0:0:0:
256,192,124855,1,0,0:0:0:0:
256,192,124955,1,0,0:0:0:0:
256,192,125155,1,0,0:0:0:0:
256,192,125255,1,8,0:0:0:0:
256,192,125455,1,0,0:0:0:0:
256,192,125555,1,8,0:0:0:0:
256,192,125655,1,0,0:0:0:0:
256,192,125855,1,0,0:0:0:0:
256,192,126055,1,8,0:0:0:0:
256,192,126255,1,0,0:0:0:0:
256,192,126455,1,0,0:0:0:0:
256,192,126555,1,0,0:0:0:0:
256,192,126755,1,0,0:0:0:0:
256,192,126855,1,8,0:0:0:0:
256,192,127055,1,0,0:0:0:0:
256,192,127255,5,0,0:0:0:0:
256,192,127388,1,8,0:0:0:0:
256,192,127521,1,8,0:0:0:0:
256,192,127655,1,0,0:0:0:0:
256,192,127788,1,8,0:0:0:0:
256,192,127921,1,8,0:0:0:0:
256,192,128055,1,0,0:0:0:0:
256,192,128188,1,8,0:0:0:0:
256,192,128321,1,8,0:0:0:0:
256,192,128455,1,0,0:0:0:0:
256,192,128588,1,8,0:0:0:0:
256,192,128721,1,8,0:0:0:0:
256,192,128855,1,0,0:0:0:0:
256,192,128921,1,0,0:0:0:0:
256,192,128988,1,8,0:0:0:0:
256,192,129055,1,8,0:0:0:0:
256,192,129155,1,0,0:0:0:0:
256,192,129255,1,0,0:0:0:0:
256,192,129321,1,8,0:0:0:0:
256,192,129388,1,8,0:0:0:0:
256,192,129455,1,0,0:0:0:0:
256,192,129555,1,8,0:0:0:0:
256,192,129655,1,8,0:0:0:0:
256,192,129755,1,8,0:0:0:0:
256,192,129855,1,0,0:0:0:0:
256,192,129955,1,8,0:0:0:0:
256,192,130055,1,0,0:0:0:0:
256,192,130155,1,8,0:0:0:0:
256,192,130255,1,8,0:0:0:0:
256,192,130355,1,8,0:0:0:0:
256,192,130455,1,0,0:0:0:0:
256,192,130855,1,8,0:0:0:0:
256,192,131055,1,0,0:0:0:0:
256,192,131455,1,0,0:0:0:0:
256,192,131555,1,0,0:0:0:0:
256,192,131655,1,8,0:0:0:0:
256,192,131855,1,0,0:0:0:0:
256,192,132055,1,8,0:0:0:0:
256,192,132455,1,8,0:0:0:0:
256,192,132655,1,0,0:0:0:0:
256,192,133055,1,8,0:0:0:0:
256,192,133155,1,0,0:0:0:0:
256,192,133255,1,8,0:0:0:0:
256,192,133455,1,0,0:0:0:0:
256,192,133655,1,8,0:0:0:0:
256,192,134055,1,8,0:0:0:0:
256,192,134255,1,0,0:0:0:0:
256,192,134455,1,8,0:0:0:0:
256,192,134655,1,0,0:0:0:0:
256,192,134755,1,8,0:0:0:0:
256,192,134855,1,8,0:0:0:0:
256,192,135055,1,0,0:0:0:0:
256,192,135255,1,8,0:0:0:0:
256,192,135655,1,8,0:0:0:0:
256,192,135855,1,0,0:0:0:0:
256,192,136055,1,0,0:0:0:0:
256,192,136155,1,0,0:0:0:0:
256,192,136255,1,0,0:0:0:0:
256,192,136355,1,0,0:0:0:0:
256,192,136455,1,8,0:0:0:0:
256,192,136505,1,8,0:0:0:0:
256,192,136655,1,0,0:0:0:0:
256,192,136705,1,0,0:0:0:0:
352,192,136855,5,12,0:0:0:0:
256,192,137255,1,8,0:0:0:0:
256,192,137455,1,0,0:0:0:0:
256,192,137855,1,8,0:0:0:0:
256,192,137955,1,0,0:0:0:0:
256,192,138055,1,8,0:0:0:0:
256,192,138255,1,0,0:0:0:0:
256,192,138455,1,8,0:0:0:0:
256,192,138855,1,8,0:0:0:0:
256,192,139055,1,0,0:0:0:0:
256,192,139455,1,0,0:0:0:0:
256,192,139555,1,8,0:0:0:0:
256,192,139655,1,8,0:0:0:0:
256,192,139855,1,0,0:0:0:0:
256,192,140055,1,8,0:0:0:0:
256,192,140255,1,0,0:0:0:0:
256,192,140355,1,0,0:0:0:0:
256,192,140455,1,8,0:0:0:0:
256,192,140655,1,0,0:0:0:0:
256,192,140855,1,8,0:0:0:0:
256,192,141055,1,0,0:0:0:0:
256,192,141155,1,0,0:0:0:0:
256,192,141255,1,8,0:0:0:0:
256,192,141455,1,8,0:0:0:0:
256,192,141655,1,0,0:0:0:0:
256,192,141855,1,0,0:0:0:0:
256,192,141955,1,0,0:0:0:0:
256,192,142055,1,8,0:0:0:0:
256,192,142155,1,0,0:0:0:0:
256,192,142255,1,8,0:0:0:0:
256,192,142355,1,8,0:0:0:0:
256,192,142455,1,0,0:0:0:0:
256,192,142555,1,0,0:0:0:0:
256,192,142655,1,8,0:0:0:0:
256,192,142755,1,0,0:0:0:0:
256,192,142855,1,8,0:0:0:0:
256,192,142955,1,0,0:0:0:0:
256,192,143055,1,8,0:0:0:0:
256,192,143155,1,8,0:0:0:0:
256,192,143255,1,8,0:0:0:0:
