osu file format v14

[General]
AudioFilename: audio.mp3
AudioLeadIn: 0
PreviewTime: 136429
Countdown: 0
SampleSet: Normal
StackLeniency: 1
Mode: 1
LetterboxInBreaks: 0
WidescreenStoryboard: 1

[Editor]
Bookmarks: 4495,16495,28495,52495,64476,74995,88495,100495,112495,124495,136495,148476,158995,172495,184495,196495,202495
DistanceSpacing: 1.5
BeatDivisor: 4
GridSize: 32
TimelineZoom: 1.9

[Metadata]
Title:Love Pills
TitleUnicode:Love Pills
Artist:EmoCosine
ArtistUnicode:EmoCosine
Creator:Rycy
Version:Overdose
Source:
Tags:doulph arcpotato ler1211 spin2 emoco. 出前 demaescape electronic instrumental kawaii future bass jersey club vocal chops english featured artist fa
BeatmapID:3687672
BeatmapSetID:1798875

[Difficulty]
HPDrainRate:6
CircleSize:2
OverallDifficulty:6
ApproachRate:0
SliderMultiplier:1.4
SliderTickRate:1

[Events]
//Background and Video events
0,0,"uh.jpg",0,65
//Break Periods
//Storyboard Layer 0 (Background)
//Storyboard Layer 1 (Fail)
//Storyboard Layer 2 (Pass)
//Storyboard Layer 3 (Foreground)
//Storyboard Layer 4 (Overlay)
//Storyboard Sound Samples

[TimingPoints]
-1513,375,4,1,0,50,1,0
1484,-142.857142857143,4,1,0,50,0,0
3359,-140.845070422535,4,1,0,50,0,0
3734,-138.888888888889,4,1,0,50,0,0
3921,-136.986301369863,4,1,0,50,0,0
3968,-136.054421768707,4,1,0,50,0,0
4109,-66.6666666666667,4,1,0,50,0,0
4484,-133.333333333333,4,1,0,60,0,0
16109,-130.548302872063,4,1,0,60,0,0
16296,-127.877237851662,4,1,0,60,0,0
16484,-125,4,1,0,70,0,0
16859,-123.459957576022,4,1,0,70,0,0
17047,-122.697066234219,4,1,0,70,0,0
17140,-122.317390177518,4,1,0,70,0,0
17234,-121.938888997385,4,1,0,70,0,0
17328,-121.561559058259,4,1,0,70,0,0
17422,-121.185396735832,4,1,0,70,0,0
17609,-120.436560499874,4,1,0,70,0,0
17797,-119.692351518713,4,1,0,70,0,0
17890,-119.321973306449,4,1,0,70,0,0
17984,-118.952741199332,4,1,0,70,0,0
18359,-117.487203056168,4,1,0,70,0,0
18546,-116.761218925411,4,1,0,70,0,0
18640,-116.399910863712,4,1,0,70,0,0
18734,-116.039720840319,4,1,0,70,0,0
18828,-115.680645395555,4,1,0,70,0,0
18922,-115.322681080446,4,1,0,70,0,0
19109,-114.610072096634,4,1,0,70,0,0
19297,-113.90186650996,4,1,0,70,0,0
19390,-113.549406480925,4,1,0,70,0,0
19484,-113.198037110682,4,1,0,70,0,0
19859,-112.498556857194,4,1,0,70,0,0
20046,-112.150439255339,4,1,0,70,0,0
20140,-111.803398874989,4,1,0,70,0,0
20234,-111.45743238277,4,1,0,70,0,0
20327,-111.112536455623,4,1,0,70,0,0
20421,-110.768707780771,4,1,0,70,0,0
20609,-110.42594305569,4,1,0,70,0,0
20796,-110.084238988073,4,1,0,70,0,0
20890,-109.743592295803,4,1,0,70,0,0
20984,-109.403999706918,4,1,0,70,0,0
21359,-109.065457959581,4,1,0,70,0,0
21546,-108.727963802049,4,1,0,70,0,0
21640,-108.39151399264,4,1,0,70,0,0
21734,-108.056105299705,4,1,0,70,0,0
21827,-107.721734501594,4,1,0,70,0,0
21921,-107.388398386626,4,1,0,70,0,0
22109,-107.056093753057,4,1,0,70,0,0
22296,-106.724817409054,4,1,0,70,0,0
22390,-106.394566172658,4,1,0,70,0,0
22484,-106.065336871758,4,1,0,70,0,0
22671,-105.737126344056,4,1,0,70,0,0
22765,-105.409931437044,4,1,0,70,0,0
22859,-105.083749007965,4,1,0,70,0,0
23046,-104.758575923789,4,1,0,70,0,0
23140,-104.434409061181,4,1,0,70,0,0
23234,-104.11124530647,4,1,0,70,0,0
23421,-103.789081555621,4,1,0,70,0,0
23609,-103.467914714204,4,1,0,70,0,0
23796,-103.147741697362,4,1,0,70,0,0
23984,-102.828559429789,4,1,0,70,0,0
24171,-102.51036484569,4,1,0,70,0,0
24265,-102.19315488876,4,1,0,70,0,0
24359,-101.876926512151,4,1,0,70,0,0
24546,-101.561676678441,4,1,0,70,0,0
24640,-101.247402359611,4,1,0,70,0,0
24734,-100.934100537009,4,1,0,70,0,0
24921,-100.621768201325,4,1,0,70,0,0
25109,-100.31040235256,4,1,0,70,0,0
25296,-99.9999999999999,4,1,0,70,0,0
25481,-99.009900990099,4,1,0,70,0,0
25575,-98.0110640978927,4,1,0,70,0,0
25669,-97.0223037245725,4,1,0,70,0,0
25762,-96.0435182156704,4,1,0,70,0,0
25856,-95.0746069422343,4,1,0,70,0,0
25950,-94.1154702904826,4,1,0,70,0,0
26044,-93.1660096515625,4,1,0,70,0,0
26137,-92.2261274114122,4,1,0,70,0,0
26231,-91.2957269407255,4,1,0,70,0,0
26325,-90.3747125850167,4,1,0,70,0,0
26419,-89.462989654787,4,1,0,70,0,0
26512,-88.5604644157888,4,1,0,70,0,0
26606,-87.6670440793898,4,1,0,70,0,0
26700,-86.7826367930324,4,1,0,70,0,0
26794,-85.9071516307911,4,1,0,70,0,0
26887,-85.0404985840238,4,1,0,70,0,0
26981,-84.1825885521187,4,1,0,70,0,0
27075,-83.3333333333332,4,1,0,70,0,0
28109,-66.6666666666667,4,1,0,70,0,0
28484,-142.857142857143,4,1,0,60,0,0
38984,-140.845070422535,4,1,0,60,0,0
39359,-138.888888888889,4,1,0,60,0,0
39734,-136.986301369863,4,1,0,60,0,0
40109,-135.135135135135,4,1,0,60,0,0
40484,-133.333333333333,4,1,0,65,0,0
46482,-133.333333333333,4,1,0,75,0,0
46765,-132.060002940083,4,1,0,75,0,0
46859,-130.798832824011,4,1,0,75,0,0
47046,-129.549706854738,4,1,0,75,0,0
47234,-128.312510010927,4,1,0,75,0,0
47327,-127.087128369694,4,1,0,75,0,0
47515,-125.873449096114,4,1,0,75,0,0
47609,-124.671360432834,4,1,0,75,0,0
47796,-123.480751689782,4,1,0,75,0,0
47890,-122.301513233973,4,1,0,75,0,0
47984,-121.133536479413,4,1,0,75,0,0
48265,-119.976713877105,4,1,0,75,0,0
48359,-118.83093890514,4,1,0,75,0,0
48546,-117.696106058892,4,1,0,75,0,0
48734,-116.572110841303,4,1,0,75,0,0
48827,-115.458849753256,4,1,0,75,0,0
49015,-114.356220284052,4,1,0,75,0,0
49109,-113.264120901966,4,1,0,75,0,0
49296,-112.182451044897,4,1,0,75,0,0
49390,-111.111111111111,4,1,0,75,0,0
49484,-109.89010989011,4,1,0,75,0,0
49671,-108.695652173913,4,1,0,75,0,0
49765,-107.52688172043,4,1,0,75,0,0
49859,-106.382978723404,4,1,0,75,0,0
50046,-105.263157894737,4,1,0,75,0,0
50234,-104.166666666667,4,1,0,75,0,0
50327,-103.092783505155,4,1,0,75,0,0
50421,-102.040816326531,4,1,0,75,0,0
50515,-101.010101010101,4,1,0,75,0,0
50609,-100,4,1,0,75,0,0
50702,-99.009900990099,4,1,0,75,0,0
50796,-98.0392156862745,4,1,0,75,0,0
50890,-97.0873786407767,4,1,0,75,0,0
50984,-96.1538461538461,4,1,0,50,0,0
51359,-99.009900990099,4,1,0,50,0,0
51734,-103.092783505155,4,1,0,50,0,0
51921,-106.382978723404,4,1,0,50,0,0
51968,-107.52688172043,4,1,0,50,0,0
52109,-66.6666666666667,4,1,0,50,0,0
52487,-100,4,1,0,90,0,1
56612,-100.200400801603,4,1,0,90,0,1
56705,-100.401606425703,4,1,0,90,0,1
56799,-100.603621730382,4,1,0,90,0,1
56960,-101.010101010101,4,1,0,90,0,1
57147,-102.040816326531,4,1,0,90,0,1
57335,-103.092783505155,4,1,0,90,0,1
57522,-104.166666666667,4,1,0,90,0,1
57616,-105.263157894737,4,1,0,90,0,1
57710,-106.382978723404,4,1,0,90,0,1
57897,-107.52688172043,4,1,0,90,0,1
57991,-108.695652173913,4,1,0,90,0,1
58112,-109.89010989011,4,1,0,90,0,1
58299,-111.111111111111,4,1,0,90,0,1
58484,-100,4,1,0,90,0,1
62588,-100.200400801603,4,1,0,90,0,1
62681,-100.401606425703,4,1,0,90,0,1
62775,-100.603621730382,4,1,0,90,0,1
62869,-100.806451612903,4,1,0,90,0,1
62984,-101.010101010101,4,1,0,90,0,1
63359,-102.040816326531,4,1,0,90,0,1
63546,-103.092783505155,4,1,0,90,0,1
63640,-104.166666666667,4,1,0,90,0,1
63734,-105.263157894737,4,1,0,90,0,1
63921,-106.382978723404,4,1,0,90,0,1
64112,-107.52688172043,4,1,0,90,0,0
64202,-108.695652173913,4,1,0,90,0,0
64296,-109.89010989011,4,1,0,90,0,0
64487,-100,4,1,0,90,0,1
68588,-100.200400801603,4,1,0,90,0,1
68681,-100.401606425703,4,1,0,90,0,1
68775,-100.603621730382,4,1,0,90,0,1
68869,-100.806451612903,4,1,0,90,0,1
68984,-101.010101010101,4,1,0,90,0,1
69171,-102.040816326531,4,1,0,90,0,1
69359,-103.092783505155,4,1,0,90,0,1
69546,-104.166666666667,4,1,0,90,0,1
69640,-105.263157894737,4,1,0,90,0,1
69734,-106.382978723404,4,1,0,90,0,1
69921,-107.52688172043,4,1,0,90,0,1
70015,-108.695652173913,4,1,0,90,0,1
70109,-109.89010989011,4,1,0,90,0,1
70299,-111.111111111111,4,1,0,90,0,1
70482,-100,4,1,0,90,0,1
70763,-99.502487562189,4,1,0,90,0,1
70857,-99.009900990099,4,1,0,90,0,1
71044,-98.5221674876847,4,1,0,90,0,1
71232,-98.0392156862745,4,1,0,90,0,1
71330,-97.5609756097561,4,1,0,90,0,1
71424,-97.0873786407767,4,1,0,90,0,1
71518,-96.6183574879227,4,1,0,90,0,1
71612,-96.1538461538461,4,1,0,90,0,1
71799,-95.6937799043062,4,1,0,90,0,1
71893,-95.2380952380952,4,1,0,90,0,1
71987,-94.4418289321894,4,1,0,90,0,1
72268,-94.6073793755913,4,1,0,90,0,1
72357,-93.9928362364459,4,1,0,90,0,1
72544,-93.8967136150235,4,1,0,90,0,1
72732,-93.4579439252336,4,1,0,90,0,1
72830,-93.0232558139535,4,1,0,90,0,1
72924,-92.5925925925926,4,1,0,90,0,1
73018,-92.1658986175115,4,1,0,90,0,1
73112,-91.743119266055,4,1,0,90,0,1
73294,-91.324200913242,4,1,0,90,0,1
73388,-90.9090909090908,4,1,0,90,0,1
73484,-90.4977375565611,4,1,0,90,0,1
73671,-89.2857142857143,4,1,0,90,0,1
73768,-88.8888888888889,4,1,0,90,0,1
73859,-88.4955752212389,4,1,0,90,0,1
74046,-87.719298245614,4,1,0,90,0,1
74234,-86.9565217391304,4,1,0,90,0,1
74327,-86.2068965517241,4,1,0,90,0,1
74421,-85.4700854700855,4,1,0,90,0,1
74515,-84.7457627118644,4,1,0,90,0,1
74609,-84.0336134453781,4,1,0,90,0,1
74702,-83.3333333333333,4,1,0,90,0,1
74796,-82.6446280991736,4,1,0,90,0,1
74890,-81.9672131147541,4,1,0,90,0,1
74987,-81.3008130081301,4,1,0,70,0,0
75734,-82.6446280991736,4,1,0,70,0,0
75921,-84.0336134453781,4,1,0,70,0,0
76015,-84.7457627118644,4,1,0,70,0,0
76109,-85.4700854700855,4,1,0,70,0,0
76484,-100,4,1,0,75,0,0
80984,-101.010101010101,4,1,0,75,0,0
81171,-102.040816326531,4,1,0,75,0,0
81359,-103.092783505155,4,1,0,75,0,0
81546,-104.166666666667,4,1,0,75,0,0
81640,-105.263157894737,4,1,0,75,0,0
81734,-106.382978723404,4,1,0,75,0,0
81921,-107.52688172043,4,1,0,75,0,0
82015,-108.695652173913,4,1,0,75,0,0
82109,-109.89010989011,4,1,0,75,0,0
82299,-111.111111111111,4,1,0,75,0,0
82484,-100,4,1,0,75,0,0
86984,-99.502487562189,4,1,0,75,0,0
87265,-99.009900990099,4,1,0,75,0,0
87359,-98.5221674876847,4,1,0,75,0,0
87546,-98.0392156862745,4,1,0,75,0,0
87640,-97.5609756097561,4,1,0,75,0,0
87734,-97.0873786407767,4,1,0,75,0,0
87921,-96.6183574879227,4,1,0,75,0,0
88018,-96.1538461538461,4,1,0,75,0,0
88112,-95.6937799043062,4,1,0,75,0,0
88296,-95.2380952380952,4,1,0,75,0,0
88487,-94.3396226415094,4,1,0,75,0,0
88768,-100,4,1,0,80,0,0
92960,-101.010101010101,4,1,0,80,0,0
93147,-102.040816326531,4,1,0,80,0,0
93335,-103.092783505155,4,1,0,80,0,0
93522,-104.166666666667,4,1,0,80,0,0
93616,-105.263157894737,4,1,0,80,0,0
93710,-106.382978723404,4,1,0,80,0,0
93897,-107.52688172043,4,1,0,80,0,0
93991,-108.695652173913,4,1,0,80,0,0
94085,-109.89010989011,4,1,0,80,0,0
94299,-111.111111111111,4,1,0,80,0,0
94484,-99.5245828031709,4,1,0,80,0,0
94765,-99.0514258214522,4,1,0,80,0,0
94859,-98.5805183093925,4,1,0,80,0,0
95046,-98.1118495726264,4,1,0,80,0,0
95140,-97.645408967631,4,1,0,80,0,0
95234,-97.1811859014848,4,1,0,80,0,0
95421,-96.7191698316266,4,1,0,80,0,0
95515,-96.2593502656167,4,1,0,80,0,0
95612,-95.801716760898,4,1,0,80,0,0
95705,-95.3462589245592,4,1,0,80,0,0
95799,-94.8929664130986,4,1,0,80,0,0
95987,-94.9667616334283,4,1,0,80,0,0
96265,-94.4418289321894,4,1,0,80,0,0
96359,-93.9928362364459,4,1,0,80,0,0
96546,-93.5459781291904,4,1,0,80,0,0
96640,-93.1012444622222,4,1,0,80,0,0
96734,-92.6586251355869,4,1,0,80,0,0
96921,-92.5925925925926,4,1,0,80,0,0
97015,-92.1658986175115,4,1,0,80,0,0
97112,-91.743119266055,4,1,0,80,0,0
97205,-91.324200913242,4,1,0,80,0,0
97299,-90.9090909090909,4,1,0,80,0,0
97487,-90.0900900900901,4,1,0,80,0,0
97671,-89.2857142857143,4,1,0,80,0,0
97765,-88.4955752212389,4,1,0,80,0,0
97859,-87.719298245614,4,1,0,80,0,0
98046,-86.9565217391304,4,1,0,80,0,0
98140,-86.2068965517241,4,1,0,80,0,0
98234,-85.4700854700855,4,1,0,80,0,0
98327,-84.7457627118644,4,1,0,80,0,0
98421,-84.0336134453781,4,1,0,80,0,0
98515,-83.3333333333333,4,1,0,80,0,0
98609,-82.6446280991736,4,1,0,80,0,0
98702,-81.9672131147541,4,1,0,80,0,0
98796,-81.3008130081301,4,1,0,80,0,0
98890,-80.6451612903226,4,1,0,80,0,0
98984,-80,4,1,0,80,0,0
99171,-81.3008130081301,4,1,0,80,0,0
99265,-82.6446280991736,4,1,0,80,0,0
99359,-84.0336134453781,4,1,0,80,0,0
99546,-85.4700854700855,4,1,0,80,0,0
99640,-86.9565217391304,4,1,0,80,0,0
99734,-88.4955752212389,4,1,0,80,0,0
99921,-90.0900900900901,4,1,0,80,0,0
100109,-66.6666666666667,4,1,0,80,0,0
100484,-100,4,1,0,60,0,0
100859,-101.381279425544,4,1,0,60,0,0
101140,-102.781638179603,4,1,0,60,0,0
101327,-104.201339801015,4,1,0,60,0,0
101421,-105.640651468827,4,1,0,60,0,0
101609,-107.099844052577,4,1,0,60,0,0
101796,-108.579192163265,4,1,0,60,0,0
101984,-110.078974205038,4,1,0,60,0,0
102359,-111.599472427582,4,1,0,60,0,0
102640,-113.14097297924,4,1,0,60,0,0
102827,-114.703765960863,4,1,0,60,0,0
102921,-116.288145480405,4,1,0,60,0,0
103109,-117.894409708272,4,1,0,60,0,0
103296,-119.522860933439,4,1,0,60,0,0
103484,-121.173805620335,4,1,0,60,0,0
103859,-122.847554466517,4,1,0,60,0,0
104140,-124.544422461147,4,1,0,60,0,0
104421,-126.264728944266,4,1,0,60,0,0
104609,-128.008797666892,4,1,0,60,0,0
104796,-129.776956851951,4,1,0,60,0,0
104984,-131.569539256045,4,1,0,60,0,0
105359,-133.386882232071,4,1,0,60,0,0
105640,-135.229327792718,4,1,0,60,0,0
105921,-137.09722267482,4,1,0,60,0,0
106109,-138.99091840462,4,1,0,60,0,0
106296,-140.910771363918,4,1,0,60,0,0
106484,-142.857142857143,4,1,0,60,0,0
111359,-138.888888888889,4,1,0,60,0,0
111640,-135.135135135135,4,1,0,60,0,0
111830,-131.578947368421,4,1,0,60,0,0
111919,-128.205128205128,4,1,0,60,0,0
112109,-66.6666666666667,4,1,0,60,0,0
112484,-125,4,1,0,70,0,0
118484,-124.412469929983,4,1,0,70,0,0
118859,-123.827701392632,4,1,0,70,0,0
119143,-123.245681408078,4,1,0,70,0,0
119237,-122.666397057462,4,1,0,70,0,0
119327,-122.089835482647,4,1,0,70,0,0
119421,-121.515983885931,4,1,0,70,0,0
119609,-120.944829529766,4,1,0,70,0,0
119796,-120.376359736471,4,1,0,70,0,0
119984,-119.810561887956,4,1,0,70,0,0
120359,-119.247423425438,4,1,0,70,0,0
120643,-118.686931849162,4,1,0,70,0,0
120737,-118.129074718127,4,1,0,70,0,0
120827,-117.573839649805,4,1,0,70,0,0
120921,-117.021214319873,4,1,0,70,0,0
121109,-116.47118646193,4,1,0,70,0,0
121296,-115.923743867235,4,1,0,70,0,0
121484,-115.378874384427,4,1,0,70,0,0
121765,-114.836565919263,4,1,0,70,0,0
121859,-114.296806434342,4,1,0,70,0,0
122046,-113.759583948846,4,1,0,70,0,0
122234,-113.224886538265,4,1,0,70,0,0
122424,-112.692702334141,4,1,0,70,0,0
122518,-112.163019523799,4,1,0,70,0,0
122612,-111.635826350086,4,1,0,70,0,0
122705,-111.111111111111,4,1,0,70,0,0
122799,-109.89010989011,4,1,0,70,0,0
122987,-108.695652173913,4,1,0,70,0,0
123174,-107.52688172043,4,1,0,70,0,0
123268,-106.382978723404,4,1,0,70,0,0
123362,-105.263157894737,4,1,0,70,0,0
123455,-104.166666666667,4,1,0,70,0,0
123549,-103.092783505155,4,1,0,70,0,0
123643,-102.040816326531,4,1,0,70,0,0
123737,-101.010101010101,4,1,0,70,0,0
123924,-100,4,1,0,70,0,0
124112,-99.009900990099,4,1,0,70,0,0
124484,-111.111111111111,4,1,0,75,0,0
130484,-110.555044172206,4,1,0,80,0,0
130765,-110.001760127266,4,1,0,80,0,0
130859,-109.451245049013,4,1,0,80,0,0
131046,-108.903485079869,4,1,0,80,0,0
131140,-108.358466431609,4,1,0,80,0,0
131234,-107.816175385011,4,1,0,80,0,0
131421,-107.276598289514,4,1,0,80,0,0
131515,-106.739721562871,4,1,0,80,0,0
131702,-106.20553169081,4,1,0,80,0,0
131796,-105.674015226691,4,1,0,80,0,0
131984,-105.145158791171,4,1,0,80,0,0
132265,-104.618949071864,4,1,0,80,0,0
132359,-104.095372823007,4,1,0,80,0,0
132546,-103.574416865129,4,1,0,80,0,0
132640,-103.056068084713,4,1,0,80,0,0
132734,-102.540313433874,4,1,0,80,0,0
132921,-102.027139930024,4,1,0,80,0,0
133015,-101.516534655549,4,1,0,80,0,0
133202,-101.008484757482,4,1,0,80,0,0
133296,-100.502977447179,4,1,0,80,0,0
133484,-99.9999999999999,4,1,0,80,0,0
133671,-99.009900990099,4,1,0,80,0,0
133765,-98.0392156862745,4,1,0,80,0,0
133859,-97.0873786407767,4,1,0,80,0,0
134046,-96.1538461538461,4,1,0,80,0,0
134234,-95.2380952380952,4,1,0,80,0,0
134327,-94.3396226415094,4,1,0,80,0,0
134421,-93.4579439252336,4,1,0,80,0,0
134515,-92.5925925925926,4,1,0,80,0,0
134609,-91.743119266055,4,1,0,80,0,0
134702,-90.9090909090909,4,1,0,80,0,0
134796,-90.0900900900901,4,1,0,80,0,0
134890,-89.2857142857143,4,1,0,80,0,0
134984,-88.4955752212389,4,1,0,50,0,0
135359,-90.9090909090909,4,1,0,50,0,0
135734,-93.4579439252336,4,1,0,50,0,0
135921,-96.1538461538461,4,1,0,50,0,0
135968,-97.0873786407767,4,1,0,50,0,0
136109,-66.6666666666667,4,1,0,50,0,0
136487,-100,4,1,0,90,0,1
146799,-100.401606425703,4,1,0,90,0,1
146893,-100.704934541793,4,1,0,90,0,1
146960,-101.010101010101,4,1,0,90,0,1
147174,-102.040816326531,4,1,0,90,0,1
147362,-103.092783505155,4,1,0,90,0,1
147549,-104.166666666667,4,1,0,90,0,1
147643,-105.263157894737,4,1,0,90,0,1
147737,-106.382978723404,4,1,0,90,0,1
147924,-107.52688172043,4,1,0,90,0,1
148112,-108.695652173913,4,1,0,90,0,0
148205,-109.89010989011,4,1,0,90,0,0
148299,-111.111111111111,4,1,0,90,0,0
148487,-100,4,1,0,90,0,1
152588,-100.200400801603,4,1,0,90,0,1
152681,-100.401606425703,4,1,0,90,0,1
152775,-100.603621730382,4,1,0,90,0,1
152869,-100.806451612903,4,1,0,90,0,1
152960,-101.010101010101,4,1,0,90,0,1
153147,-102.040816326531,4,1,0,90,0,1
153335,-103.092783505155,4,1,0,90,0,1
153522,-104.166666666667,4,1,0,90,0,1
153616,-105.263157894737,4,1,0,90,0,1
153710,-106.382978723404,4,1,0,90,0,1
153897,-107.52688172043,4,1,0,90,0,1
153991,-108.695652173913,4,1,0,90,0,1
154085,-109.89010989011,4,1,0,90,0,1
154299,-111.111111111111,4,1,0,90,0,1
154463,-100,4,1,0,90,0,1
154744,-99.502487562189,4,1,0,90,0,1
154838,-99.009900990099,4,1,0,90,0,1
155025,-98.5221674876847,4,1,0,90,0,1
155213,-98.0392156862745,4,1,0,90,0,1
155311,-97.5609756097561,4,1,0,90,0,1
155405,-97.0873786407767,4,1,0,90,0,1
155499,-96.6183574879227,4,1,0,90,0,1
155593,-96.1538461538461,4,1,0,90,0,1
155780,-95.6937799043062,4,1,0,90,0,1
155874,-95.2380952380952,4,1,0,90,0,1
155968,-94.4418289321894,4,1,0,90,0,1
156249,-94.6073793755913,4,1,0,90,0,1
156338,-93.9928362364459,4,1,0,90,0,1
156525,-93.8967136150235,4,1,0,90,0,1
156713,-93.4579439252336,4,1,0,90,0,1
156811,-93.0232558139535,4,1,0,90,0,1
156905,-92.5925925925926,4,1,0,90,0,1
156999,-92.1658986175115,4,1,0,90,0,1
157093,-91.743119266055,4,1,0,90,0,1
157275,-91.324200913242,4,1,0,90,0,1
157369,-90.9090909090908,4,1,0,90,0,1
157465,-90.4977375565611,4,1,0,90,0,1
157652,-89.2857142857143,4,1,0,90,0,1
157749,-88.8888888888889,4,1,0,90,0,1
157840,-88.4955752212389,4,1,0,90,0,1
158024,-87.719298245614,4,1,0,90,0,1
158212,-86.9565217391304,4,1,0,90,0,1
158305,-86.2068965517241,4,1,0,90,0,1
158399,-85.4700854700855,4,1,0,90,0,1
158493,-84.7457627118644,4,1,0,90,0,1
158587,-84.0336134453781,4,1,0,90,0,1
158680,-83.3333333333333,4,1,0,90,0,1
158774,-82.6446280991736,4,1,0,90,0,1
158868,-81.9672131147541,4,1,0,90,0,1
158987,-81.3008130081301,4,1,0,70,0,0
159171,-82.6446280991736,4,1,0,70,0,0
159265,-84.0336134453781,4,1,0,70,0,0
159359,-85.4700854700855,4,1,0,70,0,0
159546,-86.9565217391304,4,1,0,70,0,0
159640,-88.4955752212389,4,1,0,70,0,0
159734,-90.0900900900901,4,1,0,70,0,0
159921,-91.743119266055,4,1,0,70,0,0
160109,-93.4579439252336,4,1,0,70,0,0
160299,-96.1538461538461,4,1,0,70,0,0
160484,-100,4,1,0,80,0,0
164960,-101.010101010101,4,1,0,75,0,0
165147,-102.040816326531,4,1,0,75,0,0
165335,-103.092783505155,4,1,0,75,0,0
165522,-104.166666666667,4,1,0,75,0,0
165616,-105.263157894737,4,1,0,75,0,0
165710,-106.382978723404,4,1,0,75,0,0
165897,-107.52688172043,4,1,0,75,0,0
165991,-108.695652173913,4,1,0,75,0,0
166085,-109.89010989011,4,1,0,75,0,0
166299,-111.111111111111,4,1,0,75,0,0
166484,-100,4,1,0,75,0,0
170960,-99.502487562189,4,1,0,75,0,0
171241,-99.009900990099,4,1,0,75,0,0
171335,-98.5221674876847,4,1,0,75,0,0
171522,-98.0392156862745,4,1,0,75,0,0
171616,-97.5609756097561,4,1,0,75,0,0
171710,-97.0873786407767,4,1,0,75,0,0
171897,-96.6183574879227,4,1,0,75,0,0
172018,-96.1538461538461,4,1,0,75,0,0
172112,-95.6937799043062,4,1,0,75,0,0
172272,-95.2380952380952,4,1,0,75,0,0
172484,-94.3396226415094,4,1,0,85,0,0
172768,-100,4,1,0,85,0,0
176960,-101.010101010101,4,1,0,80,0,0
177147,-102.040816326531,4,1,0,80,0,0
177335,-103.092783505155,4,1,0,80,0,0
177522,-104.166666666667,4,1,0,80,0,0
177616,-105.263157894737,4,1,0,80,0,0
177710,-106.382978723404,4,1,0,80,0,0
177897,-107.52688172043,4,1,0,80,0,0
177991,-108.695652173913,4,1,0,80,0,0
178085,-109.89010989011,4,1,0,80,0,0
178299,-111.111111111111,4,1,0,80,0,0
178460,-99.5245828031709,4,1,0,85,0,0
178741,-99.0514258214522,4,1,0,85,0,0
178835,-98.5805183093925,4,1,0,85,0,0
179022,-98.1118495726264,4,1,0,85,0,0
179116,-97.645408967631,4,1,0,85,0,0
179210,-97.1811859014848,4,1,0,85,0,0
179397,-96.7191698316266,4,1,0,85,0,0
179491,-96.2593502656167,4,1,0,85,0,0
179588,-95.801716760898,4,1,0,80,0,0
179681,-95.3462589245592,4,1,0,80,0,0
179775,-94.8929664130986,4,1,0,80,0,0
179963,-94.9667616334283,4,1,0,80,0,0
180241,-94.4418289321894,4,1,0,85,0,0
180335,-93.9928362364459,4,1,0,85,0,0
180522,-93.5459781291904,4,1,0,85,0,0
180616,-93.1012444622222,4,1,0,85,0,0
180710,-92.6586251355869,4,1,0,85,0,0
180897,-92.2181100973468,4,1,0,85,0,0
180991,-91.7796893433532,4,1,0,85,0,0
181088,-91.743119266055,4,1,0,80,0,0
181181,-91.324200913242,4,1,0,80,0,0
181275,-90.9090909090909,4,1,0,80,0,0
181463,-90.0900900900901,4,1,0,80,0,0
181647,-89.2857142857143,4,1,0,85,0,0
181741,-88.4955752212389,4,1,0,85,0,0
181835,-87.719298245614,4,1,0,85,0,0
182022,-86.9565217391304,4,1,0,85,0,0
182116,-86.2068965517241,4,1,0,85,0,0
182210,-85.4700854700855,4,1,0,85,0,0
182303,-84.7457627118644,4,1,0,85,0,0
182397,-84.0336134453781,4,1,0,85,0,0
182491,-83.3333333333333,4,1,0,85,0,0
182585,-82.6446280991736,4,1,0,85,0,0
182678,-81.9672131147541,4,1,0,85,0,0
182772,-81.3008130081301,4,1,0,85,0,0
182866,-80.6451612903226,4,1,0,85,0,0
182960,-80,4,1,0,85,0,0
183148,-81.3008130081301,4,1,0,85,0,0
183242,-82.6446280991736,4,1,0,85,0,0
183336,-84.0336134453781,4,1,0,85,0,0
183523,-85.4700854700855,4,1,0,85,0,0
183617,-86.9565217391304,4,1,0,85,0,0
183711,-88.4955752212389,4,1,0,85,0,0
183898,-90.0900900900901,4,1,0,85,0,0
184109,-66.6666666666667,4,1,0,85,0,0
184484,-100,4,1,0,65,0,0
184859,-100.699760560069,4,1,0,65,0,0
185140,-101.404417768551,4,1,0,65,0,0
185234,-102.114005890263,4,1,0,65,0,0
185327,-102.828559429789,4,1,0,65,0,0
185421,-103.548113133165,4,1,0,65,0,0
185609,-104.272701989566,4,1,0,65,0,0
185796,-105.002361233007,4,1,0,65,0,0
185984,-105.737126344056,4,1,0,65,0,0
186359,-106.477033051562,4,1,0,65,0,0
186640,-107.222117334388,4,1,0,65,0,0
186734,-107.972415423164,4,1,0,65,0,0
186827,-108.727963802049,4,1,0,65,0,0
186921,-109.488799210501,4,1,0,65,0,0
187109,-110.254958645069,4,1,0,65,0,0
187296,-111.026479361187,4,1,0,65,0,0
187484,-111.803398874989,4,1,0,65,0,0
187859,-112.585754965133,4,1,0,65,0,0
188140,-113.373585674634,4,1,0,65,0,0
188234,-114.166929312721,4,1,0,65,0,0
188327,-114.965824456692,4,1,0,65,0,0
188421,-115.770309953798,4,1,0,65,0,0
188609,-116.580424923124,4,1,0,65,0,0
188796,-117.396208757496,4,1,0,65,0,0
188984,-118.217701125397,4,1,0,65,0,0
189359,-119.044941972892,4,1,0,65,0,0
189546,-119.877971525575,4,1,0,65,0,0
189640,-120.716830290521,4,1,0,65,0,0
189827,-121.561559058259,4,1,0,65,0,0
189921,-122.412198904753,4,1,0,65,0,0
190109,-123.268791193401,4,1,0,65,0,0
190296,-124.131377577046,4,1,0,65,0,0
190484,-125,4,1,0,65,0,0
196484,-125,4,1,0,70,0,0
202484,-123.613104113129,4,1,0,80,0,0
202669,-122.241596067866,4,1,0,80,0,0
202762,-120.885305133537,4,1,0,80,0,0
202856,-119.544062473755,4,1,0,80,0,0
203046,-118.217701125397,4,1,0,80,0,0
203140,-116.906055977828,4,1,0,80,0,0
203234,-115.60896375234,4,1,0,80,0,0
203421,-114.326262981832,4,1,0,80,0,0
203609,-113.057793990705,4,1,0,80,0,0
203796,-111.803398874989,4,1,0,80,0,0
203984,-110.562921482686,4,1,0,80,0,0
204171,-109.336207394328,4,1,0,80,0,0
204265,-108.123103903758,4,1,0,80,0,0
204359,-106.923459999119,4,1,0,80,0,0
204546,-105.737126344056,4,1,0,80,0,0
204640,-104.563955259127,4,1,0,80,0,0
204734,-103.403800703416,4,1,0,80,0,0
204921,-102.256518256357,4,1,0,80,0,0
205109,-101.121965099753,4,1,0,80,0,0
205296,-99.9999999999999,4,1,0,80,0,0
205484,-99.009900990099,4,1,0,80,0,0
205577,-98.0392156862745,4,1,0,80,0,0
205671,-97.0873786407767,4,1,0,80,0,0
205765,-96.1538461538461,4,1,0,80,0,0
205859,-95.2380952380952,4,1,0,80,0,0
205952,-94.3396226415094,4,1,0,80,0,0
206046,-93.4579439252336,4,1,0,80,0,0
206140,-92.5925925925926,4,1,0,80,0,0
206234,-91.743119266055,4,1,0,80,0,0
206327,-90.9090909090909,4,1,0,80,0,0
206421,-90.0900900900901,4,1,0,80,0,0
206515,-89.2857142857143,4,1,0,80,0,0
206609,-88.4955752212389,4,1,0,80,0,0
206702,-87.719298245614,4,1,0,80,0,0
206796,-86.9565217391304,4,1,0,80,0,0
206890,-86.2068965517241,4,1,0,80,0,0
206984,-85.4700854700855,4,1,0,65,0,0
207921,-100,4,1,0,65,0,0
208109,-66.6666666666667,4,1,0,65,0,0
208484,-50,4,1,0,55,0,0
208859,-100,4,1,0,45,0,0
209234,-100,4,1,0,35,0,0
209609,-100,4,1,0,25,0,0
209984,-100,4,1,0,20,0,0
210359,-100,4,1,0,30,0,0
210734,-100,4,1,0,40,0,0
211109,-100,4,1,0,50,0,0
211484,-100,4,1,0,60,0,0

[HitObjects]
256,192,2987,5,0,0:0:0:0:
256,192,3362,1,0,0:0:0:0:
256,192,3737,1,0,0:0:0:0:
256,192,3924,1,8,0:0:0:0:
256,192,3971,1,8,0:0:0:0:
256,192,4112,1,0,0:0:0:0:
352,192,4487,5,4,0:0:0:0:
256,192,4862,1,8,0:0:0:0:
256,192,5143,1,8,0:0:0:0:
256,192,5330,1,8,0:0:0:0:
256,192,5424,1,0,0:0:0:0:
256,192,5612,1,8,0:0:0:0:
256,192,5799,1,0,0:0:0:0:
256,192,5987,1,0,0:0:0:0:
256,192,6362,1,8,0:0:0:0:
256,192,6643,1,0,0:0:0:0:
256,192,6830,1,8,0:0:0:0:
256,192,6924,1,0,0:0:0:0:
256,192,7112,1,8,0:0:0:0:
256,192,7299,1,8,0:0:0:0:
256,192,7487,5,0,0:0:0:0:
256,192,7862,1,8,0:0:0:0:
256,192,8143,1,8,0:0:0:0:
256,192,8237,1,0,0:0:0:0:
256,192,8424,1,0,0:0:0:0:
256,192,8612,1,0,0:0:0:0:
256,192,8799,1,8,0:0:0:0:
256,192,8987,1,0,0:0:0:0:
256,192,9362,1,8,0:0:0:0:
256,192,9643,1,0,0:0:0:0:
256,192,9737,1,8,0:0:0:0:
256,192,9924,1,8,0:0:0:0:
256,192,10112,1,0,0:0:0:0:
256,192,10299,1,8,0:0:0:0:
256,192,10487,5,0,0:0:0:0:
256,192,10862,1,8,0:0:0:0:
256,192,11143,1,0,0:0:0:0:
256,192,11237,1,8,0:0:0:0:
256,192,11424,1,0,0:0:0:0:
256,192,11612,1,8,0:0:0:0:
256,192,11799,1,8,0:0:0:0:
256,192,11987,1,0,0:0:0:0:
256,192,12362,1,8,0:0:0:0:
256,192,12643,1,8,0:0:0:0:
256,192,12830,1,8,0:0:0:0:
256,192,12924,1,0,0:0:0:0:
256,192,13112,1,8,0:0:0:0:
256,192,13299,1,0,0:0:0:0:
256,192,13487,5,0,0:0:0:0:
256,192,13862,1,8,0:0:0:0:
256,192,14143,1,0,0:0:0:0:
256,192,14330,1,8,0:0:0:0:
256,192,14424,1,0,0:0:0:0:
256,192,14612,1,8,0:0:0:0:
256,192,14799,1,0,0:0:0:0:
256,192,14987,1,8,0:0:0:0:
256,192,15362,1,8,0:0:0:0:
256,192,15643,1,8,0:0:0:0:
256,192,15830,1,8,0:0:0:0:
256,192,15924,1,0,0:0:0:0:
256,192,16112,1,8,0:0:0:0:
256,192,16299,1,0,0:0:0:0:
160,192,16487,5,12,0:0:0:0:
256,192,16862,1,8,0:0:0:0:
256,192,17049,1,0,0:0:0:0:
256,192,17143,1,0,0:0:0:0:
256,192,17237,1,8,0:0:0:0:
256,192,17330,1,8,0:0:0:0:
256,192,17424,1,0,0:0:0:0:
256,192,17612,1,8,0:0:0:0:
256,192,17799,1,0,0:0:0:0:
256,192,17987,1,8,0:0:0:0:
256,192,18362,1,8,0:0:0:0:
256,192,18549,1,8,0:0:0:0:
256,192,18643,1,0,0:0:0:0:
256,192,18737,1,8,0:0:0:0:
256,192,18830,1,8,0:0:0:0:
256,192,18924,1,0,0:0:0:0:
256,192,19112,1,8,0:0:0:0:
256,192,19299,1,8,0:0:0:0:
256,192,19393,1,0,0:0:0:0:
256,192,19487,1,8,0:0:0:0:
256,192,19862,1,8,0:0:0:0:
256,192,20049,1,0,0:0:0:0:
256,192,20143,1,8,0:0:0:0:
256,192,20237,1,8,0:0:0:0:
256,192,20330,1,8,0:0:0:0:
256,192,20424,1,0,0:0:0:0:
256,192,20612,5,8,0:0:0:0:
256,192,20799,1,0,0:0:0:0:
256,192,20987,1,0,0:0:0:0:
256,192,21362,1,8,0:0:0:0:
256,192,21549,1,0,0:0:0:0:
256,192,21643,1,0,0:0:0:0:
256,192,21737,1,8,0:0:0:0:
256,192,21830,1,0,0:0:0:0:
256,192,21924,1,8,0:0:0:0:
256,192,22112,1,0,0:0:0:0:
256,192,22299,1,8,0:0:0:0:
160,192,22487,5,12,0:0:0:0:
256,192,22674,1,8,0:0:0:0:
256,192,22768,1,0,0:0:0:0:
256,192,22862,1,8,0:0:0:0:
256,192,23049,1,0,0:0:0:0:
256,192,23143,1,0,0:0:0:0:
256,192,23237,1,8,0:0:0:0:
256,192,23424,1,8,0:0:0:0:
256,192,23612,1,0,0:0:0:0:
256,192,23799,1,8,0:0:0:0:
160,192,23987,1,12,0:0:0:0:
256,192,24174,1,0,0:0:0:0:
256,192,24268,1,8,0:0:0:0:
256,192,24362,1,0,0:0:0:0:
256,192,24549,1,8,0:0:0:0:
256,192,24643,1,0,0:0:0:0:
256,192,24737,1,0,0:0:0:0:
256,192,24924,1,8,0:0:0:0:
256,192,25112,1,0,0:0:0:0:
256,192,25299,1,8,0:0:0:0:
256,192,25487,5,8,0:0:0:0:
256,192,25580,1,8,0:0:0:0:
256,192,25674,1,0,0:0:0:0:
256,192,25768,1,0,0:0:0:0:
256,192,25862,1,8,0:0:0:0:
256,192,25955,1,8,0:0:0:0:
256,192,26049,1,0,0:0:0:0:
256,192,26143,1,0,0:0:0:0:
256,192,26237,1,8,0:0:0:0:
256,192,26330,1,0,0:0:0:0:
256,192,26424,1,8,0:0:0:0:
256,192,26518,1,0,0:0:0:0:
256,192,26612,1,8,0:0:0:0:
256,192,26705,1,8,0:0:0:0:
256,192,26799,1,8,0:0:0:0:
256,192,26893,1,8,0:0:0:0:
256,192,26987,1,0,0:0:0:0:
256,192,28112,1,0,0:0:0:0:
160,192,28487,5,12,0:0:0:0:
256,192,28862,1,0,0:0:0:0:
256,192,29237,1,0,0:0:0:0:
256,192,29612,1,8,0:0:0:0:
256,192,29799,1,0,0:0:0:0:
256,192,30174,1,0,0:0:0:0:
256,192,30362,1,8,0:0:0:0:
256,192,31112,1,0,0:0:0:0:
256,192,31299,1,0,0:0:0:0:
256,192,31487,1,8,0:0:0:0:
256,192,31862,1,0,0:0:0:0:
256,192,32237,1,8,0:0:0:0:
256,192,32612,1,8,0:0:0:0:
256,192,32799,1,0,0:0:0:0:
256,192,32987,1,8,0:0:0:0:
256,192,33362,1,8,0:0:0:0:
256,192,34112,1,8,0:0:0:0:
256,192,34487,5,8,0:0:0:0:
256,192,34862,1,0,0:0:0:0:
256,192,35237,1,0,0:0:0:0:
256,192,35612,1,8,0:0:0:0:
256,192,35799,1,0,0:0:0:0:
256,192,36174,1,0,0:0:0:0:
256,192,36362,1,8,0:0:0:0:
256,192,37112,1,8,0:0:0:0:
256,192,37299,1,0,0:0:0:0:
256,192,37487,1,8,0:0:0:0:
256,192,37862,1,0,0:0:0:0:
256,192,38237,1,8,0:0:0:0:
256,192,38612,1,0,0:0:0:0:
256,192,38799,1,8,0:0:0:0:
256,192,38987,1,8,0:0:0:0:
256,192,39362,1,0,0:0:0:0:
256,192,39737,1,8,0:0:0:0:
256,192,40112,1,0,0:0:0:0:
160,192,40487,5,12,0:0:0:0:
256,192,40862,1,0,0:0:0:0:
256,192,41049,1,8,0:0:0:0:
256,192,41237,1,0,0:0:0:0:
256,192,41612,1,8,0:0:0:0:
256,192,41799,1,8,0:0:0:0:
256,192,41987,1,0,0:0:0:0:
256,192,42174,1,0,0:0:0:0:
256,192,42362,1,8,0:0:0:0:
256,192,42737,1,0,0:0:0:0:
256,192,42924,1,8,0:0:0:0:
256,192,43112,1,8,0:0:0:0:
256,192,43299,1,0,0:0:0:0:
160,192,43487,1,12,0:0:0:0:
256,192,43862,1,8,0:0:0:0:
256,192,44237,1,0,0:0:0:0:
256,192,44612,1,8,0:0:0:0:
256,192,44799,1,8,0:0:0:0:
256,192,44987,1,0,0:0:0:0:
256,192,45362,1,8,0:0:0:0:
256,192,45549,1,0,0:0:0:0:
256,192,45737,1,0,0:0:0:0:
256,192,45924,1,0,0:0:0:0:
256,192,46112,1,8,0:0:0:0:
160,192,46487,5,12,0:0:0:0:
256,192,46768,1,0,0:0:0:0:
256,192,46862,1,8,0:0:0:0:
256,192,47049,1,8,0:0:0:0:
256,192,47237,1,8,0:0:0:0:
256,192,47330,1,0,0:0:0:0:
256,192,47518,1,0,0:0:0:0:
256,192,47612,1,8,0:0:0:0:
256,192,47799,1,8,0:0:0:0:
256,192,47893,1,0,0:0:0:0:
256,192,47987,1,8,0:0:0:0:
256,192,48268,1,0,0:0:0:0:
256,192,48362,1,8,0:0:0:0:
256,192,48549,1,0,0:0:0:0:
256,192,48737,1,8,0:0:0:0:
256,192,48830,1,0,0:0:0:0:
256,192,49018,1,8,0:0:0:0:
256,192,49112,1,0,0:0:0:0:
256,192,49299,1,0,0:0:0:0:
256,192,49393,1,8,0:0:0:0:
256,192,49487,5,0,0:0:0:0:
256,192,49674,1,0,0:0:0:0:
256,192,49768,1,0,0:0:0:0:
256,192,49862,1,8,0:0:0:0:
256,192,50049,1,0,0:0:0:0:
256,192,50237,1,0,0:0:0:0:
256,192,50330,1,0,0:0:0:0:
256,192,50424,1,8,0:0:0:0:
256,192,50518,1,0,0:0:0:0:
256,192,50612,1,8,0:0:0:0:
256,192,50705,1,8,0:0:0:0:
256,192,50799,1,8,0:0:0:0:
256,192,50893,1,8,0:0:0:0:
256,192,50987,1,0,0:0:0:0:
256,192,51362,1,0,0:0:0:0:
256,192,51737,1,0,0:0:0:0:
256,192,51924,1,8,0:0:0:0:
256,192,51971,1,8,0:0:0:0:
256,192,52112,1,0,0:0:0:0:
160,192,52487,5,12,0:0:0:0:
256,192,52674,1,0,0:0:0:0:
256,192,52768,1,8,0:0:0:0:
256,192,52862,1,0,0:0:0:0:
256,192,53049,1,8,0:0:0:0:
256,192,53143,1,8,0:0:0:0:
256,192,53237,1,0,0:0:0:0:
256,192,53424,1,8,0:0:0:0:
256,192,53612,1,8,0:0:0:0:
256,192,53705,1,8,0:0:0:0:
256,192,53799,1,0,0:0:0:0:
256,192,53987,1,8,0:0:0:0:
256,192,54174,1,0,0:0:0:0:
256,192,54268,1,0,0:0:0:0:
256,192,54362,1,8,0:0:0:0:
256,192,54549,1,8,0:0:0:0:
256,192,54643,1,8,0:0:0:0:
256,192,54737,1,0,0:0:0:0:
256,192,54924,1,8,0:0:0:0:
256,192,55112,1,0,0:0:0:0:
256,192,55205,1,8,0:0:0:0:
256,192,55299,1,0,0:0:0:0:
256,192,55487,5,8,0:0:0:0:
256,192,55674,1,8,0:0:0:0:
256,192,55768,1,0,0:0:0:0:
256,192,55862,1,8,0:0:0:0:
256,192,56049,1,0,0:0:0:0:
256,192,56143,1,8,0:0:0:0:
256,192,56237,1,0,0:0:0:0:
256,192,56424,1,8,0:0:0:0:
256,192,56612,1,8,0:0:0:0:
256,192,56705,1,0,0:0:0:0:
256,192,56799,1,0,0:0:0:0:
256,192,56987,5,8,0:0:0:0:
256,192,57174,1,0,0:0:0:0:
256,192,57362,1,8,0:0:0:0:
256,192,57549,1,8,0:0:0:0:
256,192,57643,1,8,0:0:0:0:
256,192,57737,1,0,0:0:0:0:
256,192,57924,1,0,0:0:0:0:
256,192,58018,1,0,0:0:0:0:
256,192,58112,1,8,0:0:0:0:
256,192,58299,1,0,0:0:0:0:
160,192,58487,5,12,0:0:0:0:
256,192,58674,1,0,0:0:0:0:
256,192,58768,1,0,0:0:0:0:
256,192,58862,1,8,0:0:0:0:
256,192,59049,1,8,0:0:0:0:
256,192,59143,1,8,0:0:0:0:
256,192,59237,1,0,0:0:0:0:
256,192,59424,1,8,0:0:0:0:
256,192,59612,1,0,0:0:0:0:
256,192,59705,1,0,0:0:0:0:
256,192,59799,1,8,0:0:0:0:
256,192,59987,1,8,0:0:0:0:
256,192,60174,1,0,0:0:0:0:
256,192,60268,1,8,0:0:0:0:
256,192,60362,1,8,0:0:0:0:
256,192,60549,1,8,0:0:0:0:
256,192,60643,1,0,0:0:0:0:
256,192,60737,1,0,0:0:0:0:
256,192,60924,1,8,0:0:0:0:
256,192,61112,1,8,0:0:0:0:
256,192,61205,1,0,0:0:0:0:
256,192,61299,1,0,0:0:0:0:
256,192,61487,5,8,0:0:0:0:
256,192,61674,1,0,0:0:0:0:
256,192,61768,1,8,0:0:0:0:
256,192,61862,1,8,0:0:0:0:
256,192,62049,1,0,0:0:0:0:
256,192,62143,1,8,0:0:0:0:
256,192,62237,1,0,0:0:0:0:
256,192,62424,1,8,0:0:0:0:
256,192,62612,1,8,0:0:0:0:
256,192,62705,1,8,0:0:0:0:
256,192,62799,1,0,0:0:0:0:
256,192,62893,1,0,0:0:0:0:
256,192,62987,1,8,0:0:0:0:
256,192,63362,1,0,0:0:0:0:
256,192,63549,1,8,0:0:0:0:
256,192,63643,1,8,0:0:0:0:
256,192,63737,1,0,0:0:0:0:
256,192,63924,1,8,0:0:0:0:
256,192,64112,1,0,0:0:0:0:
256,192,64205,1,0,0:0:0:0:
256,192,64299,1,0,0:0:0:0:
160,192,64487,5,12,0:0:0:0:
256,192,64674,1,0,0:0:0:0:
256,192,64768,1,0,0:0:0:0:
256,192,64862,1,8,0:0:0:0:
256,192,65049,1,8,0:0:0:0:
256,192,65143,1,8,0:0:0:0:
256,192,65237,1,0,0:0:0:0:
256,192,65424,1,8,0:0:0:0:
256,192,65612,1,8,0:0:0:0:
256,192,65705,1,0,0:0:0:0:
256,192,65799,1,8,0:0:0:0:
256,192,65893,1,8,0:0:0:0:
256,192,65987,1,0,0:0:0:0:
256,192,66174,1,8,0:0:0:0:
256,192,66268,1,0,0:0:0:0:
256,192,66362,1,8,0:0:0:0:
256,192,66549,1,0,0:0:0:0:
256,192,66643,1,8,0:0:0:0:
256,192,66737,1,0,0:0:0:0:
256,192,66924,1,8,0:0:0:0:
256,192,67112,1,0,0:0:0:0:
256,192,67205,1,8,0:0:0:0:
256,192,67299,1,0,0:0:0:0:
256,192,67393,1,0,0:0:0:0:
256,192,67487,5,8,0:0:0:0:
256,192,67674,1,0,0:0:0:0:
256,192,67768,1,8,0:0:0:0:
256,192,67862,1,8,0:0:0:0:
256,192,68049,1,8,0:0:0:0:
256,192,68143,1,0,0:0:0:0:
256,192,68237,1,0,0:0:0:0:
256,192,68424,1,8,0:0:0:0:
256,192,68612,1,8,0:0:0:0:
256,192,68705,1,0,0:0:0:0:
256,192,68799,1,0,0:0:0:0:
256,192,68893,1,0,0:0:0:0:
256,192,68987,5,8,0:0:0:0:
256,192,69174,1,0,0:0:0:0:
256,192,69362,1,8,0:0:0:0:
256,192,69549,1,8,0:0:0:0:
256,192,69643,1,0,0:0:0:0:
256,192,69737,1,8,0:0:0:0:
256,192,69924,1,8,0:0:0:0:
256,192,70018,1,8,0:0:0:0:
256,192,70112,1,0,0:0:0:0:
256,192,70299,1,0,0:0:0:0:
160,192,70487,5,12,0:0:0:0:
256,192,70768,1,0,0:0:0:0:
256,192,70862,1,8,0:0:0:0:
256,192,71049,1,0,0:0:0:0:
256,192,71237,1,0,0:0:0:0:
256,192,71330,1,8,0:0:0:0:
256,192,71424,1,8,0:0:0:0:
256,192,71518,1,8,0:0:0:0:
256,192,71612,1,0,0:0:0:0:
256,192,71799,1,0,0:0:0:0:
256,192,71893,1,0,0:0:0:0:
256,192,71987,1,8,0:0:0:0:
256,192,72268,1,0,0:0:0:0:
256,192,72362,1,8,0:0:0:0:
256,192,72549,1,8,0:0:0:0:
256,192,72737,1,8,0:0:0:0:
256,192,72830,1,0,0:0:0:0:
256,192,72924,1,8,0:0:0:0:
256,192,73018,1,8,0:0:0:0:
256,192,73112,1,0,0:0:0:0:
256,192,73299,1,0,0:0:0:0:
256,192,73393,1,0,0:0:0:0:
256,192,73487,5,8,0:0:0:0:
256,192,73674,1,8,0:0:0:0:
256,192,73768,1,0,0:0:0:0:
256,192,73862,1,8,0:0:0:0:
256,192,74049,1,0,0:0:0:0:
256,192,74237,1,0,0:0:0:0:
256,192,74330,1,8,0:0:0:0:
256,192,74424,1,0,0:0:0:0:
256,192,74518,1,0,0:0:0:0:
256,192,74612,1,8,0:0:0:0:
256,192,74705,5,8,0:0:0:0:
256,192,74799,1,0,0:0:0:0:
256,192,74893,1,8,0:0:0:0:
256,192,74987,1,0,0:0:0:0:
256,192,75174,1,0,0:0:0:0:
256,192,75237,1,0,0:0:0:0:
256,192,75299,1,0,0:0:0:0:
256,192,75362,1,8,0:0:0:0:
256,192,75455,1,0,0:0:0:0:
256,192,75549,1,8,0:0:0:0:
256,192,75737,1,0,0:0:0:0:
256,192,75924,1,0,0:0:0:0:
256,192,76018,1,0,0:0:0:0:
256,192,76112,1,8,0:0:0:0:
160,192,76487,5,12,0:0:0:0:
256,192,76862,1,0,0:0:0:0:
256,192,77049,1,8,0:0:0:0:
256,192,77143,1,0,0:0:0:0:
256,192,77237,1,8,0:0:0:0:
256,192,77518,1,0,0:0:0:0:
256,192,77612,1,8,0:0:0:0:
256,192,77799,1,0,0:0:0:0:
352,192,77987,5,4,0:0:0:0:
256,192,78362,1,8,0:0:0:0:
256,192,78549,1,0,0:0:0:0:
256,192,78643,1,8,0:0:0:0:
256,192,78737,1,0,0:0:0:0:
256,192,79018,1,8,0:0:0:0:
256,192,79112,1,0,0:0:0:0:
256,192,79299,1,8,0:0:0:0:
160,192,79487,5,12,0:0:0:0:
256,192,79862,1,0,0:0:0:0:
256,192,80049,1,8,0:0:0:0:
256,192,80143,1,0,0:0:0:0:
256,192,80237,1,8,0:0:0:0:
256,192,80518,1,0,0:0:0:0:
256,192,80612,1,8,0:0:0:0:
256,192,80799,1,0,0:0:0:0:
160,192,80987,5,12,0:0:0:0:
256,192,81174,1,8,0:0:0:0:
256,192,81362,1,0,0:0:0:0:
256,192,81549,1,0,0:0:0:0:
256,192,81643,1,8,0:0:0:0:
256,192,81737,1,8,0:0:0:0:
256,192,81924,1,0,0:0:0:0:
256,192,82018,1,0,0:0:0:0:
256,192,82112,1,8,0:0:0:0:
256,192,82299,1,0,0:0:0:0:
160,192,82487,5,12,0:0:0:0:
256,192,82862,1,0,0:0:0:0:
256,192,83049,1,8,0:0:0:0:
256,192,83143,1,0,0:0:0:0:
256,192,83237,1,8,0:0:0:0:
256,192,83518,1,0,0:0:0:0:
256,192,83612,1,8,0:0:0:0:
256,192,83799,1,0,0:0:0:0:
352,192,83987,5,4,0:0:0:0:
256,192,84362,1,8,0:0:0:0:
256,192,84549,1,0,0:0:0:0:
256,192,84643,1,8,0:0:0:0:
256,192,84737,1,0,0:0:0:0:
256,192,85018,1,8,0:0:0:0:
256,192,85112,1,0,0:0:0:0:
256,192,85299,1,8,0:0:0:0:
160,192,85487,5,12,0:0:0:0:
256,192,85862,1,0,0:0:0:0:
256,192,86049,1,8,0:0:0:0:
256,192,86143,1,0,0:0:0:0:
256,192,86237,1,8,0:0:0:0:
256,192,86518,1,0,0:0:0:0:
256,192,86612,1,8,0:0:0:0:
256,192,86799,1,0,0:0:0:0:
160,192,86987,5,12,0:0:0:0:
256,192,87268,1,0,0:0:0:0:
256,192,87362,1,8,0:0:0:0:
256,192,87549,1,0,0:0:0:0:
256,192,87643,1,0,0:0:0:0:
256,192,87737,1,8,0:0:0:0:
256,192,87924,1,0,0:0:0:0:
256,192,88018,1,8,0:0:0:0:
256,192,88112,1,0,0:0:0:0:
256,192,88299,1,0,0:0:0:0:
160,192,88487,5,12,0:0:0:0:
256,192,88768,1,0,0:0:0:0:
256,192,88862,1,8,0:0:0:0:
256,192,89049,1,8,0:0:0:0:
256,192,89143,1,0,0:0:0:0:
256,192,89237,1,8,0:0:0:0:
256,192,89424,1,0,0:0:0:0:
256,192,89518,1,0,0:0:0:0:
256,192,89612,1,8,0:0:0:0:
256,192,89799,1,0,0:0:0:0:
352,192,89987,5,4,0:0:0:0:
256,192,90268,1,8,0:0:0:0:
256,192,90362,1,0,0:0:0:0:
256,192,90549,1,0,0:0:0:0:
256,192,90643,1,8,0:0:0:0:
256,192,90737,1,0,0:0:0:0:
256,192,90924,1,8,0:0:0:0:
256,192,91018,1,8,0:0:0:0:
256,192,91112,1,0,0:0:0:0:
256,192,91299,1,8,0:0:0:0:
160,192,91487,5,12,0:0:0:0:
256,192,91768,1,0,0:0:0:0:
256,192,91862,1,8,0:0:0:0:
256,192,92049,1,8,0:0:0:0:
256,192,92143,1,0,0:0:0:0:
256,192,92237,1,8,0:0:0:0:
256,192,92424,1,0,0:0:0:0:
256,192,92518,1,0,0:0:0:0:
256,192,92612,1,8,0:0:0:0:
256,192,92799,1,0,0:0:0:0:
160,192,92987,5,12,0:0:0:0:
256,192,93174,1,0,0:0:0:0:
256,192,93362,1,8,0:0:0:0:
256,192,93549,1,0,0:0:0:0:
256,192,93643,1,0,0:0:0:0:
256,192,93737,1,8,0:0:0:0:
256,192,93924,1,0,0:0:0:0:
256,192,94018,1,8,0:0:0:0:
256,192,94112,1,0,0:0:0:0:
256,192,94299,1,0,0:0:0:0:
160,192,94487,5,12,0:0:0:0:
256,192,94768,1,0,0:0:0:0:
256,192,94862,1,8,0:0:0:0:
256,192,95049,1,8,0:0:0:0:
256,192,95143,1,0,0:0:0:0:
256,192,95237,1,8,0:0:0:0:
256,192,95424,1,0,0:0:0:0:
256,192,95518,1,8,0:0:0:0:
256,192,95612,1,8,0:0:0:0:
256,192,95705,1,8,0:0:0:0:
256,192,95799,1,0,0:0:0:0:
352,192,95987,5,4,0:0:0:0:
256,192,96268,1,8,0:0:0:0:
256,192,96362,1,0,0:0:0:0:
256,192,96549,1,0,0:0:0:0:
256,192,96643,1,8,0:0:0:0:
256,192,96737,1,0,0:0:0:0:
256,192,96924,1,8,0:0:0:0:
256,192,97018,1,0,0:0:0:0:
256,192,97112,1,0,0:0:0:0:
256,192,97205,1,0,0:0:0:0:
256,192,97299,1,8,0:0:0:0:
160,192,97487,5,12,0:0:0:0:
256,192,97674,1,0,0:0:0:0:
256,192,97768,1,0,0:0:0:0:
256,192,97862,1,8,0:0:0:0:
256,192,98049,1,8,0:0:0:0:
256,192,98143,1,0,0:0:0:0:
256,192,98237,1,8,0:0:0:0:
256,192,98330,1,0,0:0:0:0:
256,192,98424,1,0,0:0:0:0:
256,192,98518,1,0,0:0:0:0:
256,192,98612,1,8,0:0:0:0:
256,192,98705,1,0,0:0:0:0:
256,192,98799,1,8,0:0:0:0:
256,192,98893,1,8,0:0:0:0:
256,192,98987,1,0,0:0:0:0:
256,192,99174,1,0,0:0:0:0:
256,192,99268,1,8,0:0:0:0:
256,192,99362,1,8,0:0:0:0:
256,192,99549,1,0,0:0:0:0:
256,192,99643,1,0,0:0:0:0:
256,192,99737,1,8,0:0:0:0:
256,192,99924,1,8,0:0:0:0:
256,192,100112,1,0,0:0:0:0:
352,192,100487,5,4,0:0:0:0:
256,192,100862,1,8,0:0:0:0:
256,192,101143,1,8,0:0:0:0:
256,192,101330,1,8,0:0:0:0:
256,192,101424,1,0,0:0:0:0:
256,192,101612,1,8,0:0:0:0:
256,192,101799,1,0,0:0:0:0:
256,192,101987,1,0,0:0:0:0:
256,192,102362,1,0,0:0:0:0:
256,192,102643,1,0,0:0:0:0:
256,192,102830,1,8,0:0:0:0:
256,192,102924,1,0,0:0:0:0:
256,192,103112,1,8,0:0:0:0:
256,192,103299,1,0,0:0:0:0:
256,192,103487,1,0,0:0:0:0:
256,192,103862,1,8,0:0:0:0:
256,192,104143,1,8,0:0:0:0:
256,192,104424,1,0,0:0:0:0:
256,192,104612,1,0,0:0:0:0:
256,192,104799,1,8,0:0:0:0:
256,192,104987,1,0,0:0:0:0:
256,192,105362,1,0,0:0:0:0:
256,192,105643,1,0,0:0:0:0:
256,192,105924,1,0,0:0:0:0:
256,192,106112,1,8,0:0:0:0:
256,192,106299,1,0,0:0:0:0:
256,192,106487,5,0,0:0:0:0:
256,192,106862,1,8,0:0:0:0:
256,192,107143,1,0,0:0:0:0:
256,192,107424,1,0,0:0:0:0:
256,192,107612,1,0,0:0:0:0:
256,192,107799,1,8,0:0:0:0:
256,192,107987,1,0,0:0:0:0:
256,192,108362,1,0,0:0:0:0:
256,192,108643,1,0,0:0:0:0:
256,192,108830,1,0,0:0:0:0:
256,192,108924,1,0,0:0:0:0:
256,192,109112,1,8,0:0:0:0:
256,192,109299,1,0,0:0:0:0:
256,192,109487,1,8,0:0:0:0:
256,192,109862,1,0,0:0:0:0:
256,192,110143,1,8,0:0:0:0:
256,192,110330,1,8,0:0:0:0:
256,192,110424,1,0,0:0:0:0:
256,192,110612,1,8,0:0:0:0:
256,192,110799,1,0,0:0:0:0:
256,192,110987,1,0,0:0:0:0:
256,192,111362,1,8,0:0:0:0:
256,192,111643,1,8,0:0:0:0:
256,192,111830,1,0,0:0:0:0:
256,192,111924,1,0,0:0:0:0:
256,192,112112,1,0,0:0:0:0:
160,192,112487,5,12,0:0:0:0:
256,192,112862,1,0,0:0:0:0:
256,192,113143,1,0,0:0:0:0:
256,192,113330,1,8,0:0:0:0:
256,192,113424,1,0,0:0:0:0:
256,192,113612,1,8,0:0:0:0:
256,192,113799,1,0,0:0:0:0:
256,192,113987,1,0,0:0:0:0:
256,192,114362,1,8,0:0:0:0:
256,192,114643,1,8,0:0:0:0:
256,192,114830,1,8,0:0:0:0:
256,192,114924,1,0,0:0:0:0:
256,192,115112,1,8,0:0:0:0:
256,192,115299,1,0,0:0:0:0:
256,192,115487,5,0,0:0:0:0:
256,192,115862,1,8,0:0:0:0:
256,192,116143,1,8,0:0:0:0:
256,192,116237,1,0,0:0:0:0:
256,192,116424,1,0,0:0:0:0:
256,192,116612,1,0,0:0:0:0:
256,192,116799,1,8,0:0:0:0:
256,192,116987,1,0,0:0:0:0:
256,192,117362,1,8,0:0:0:0:
256,192,117643,1,0,0:0:0:0:
256,192,117737,1,8,0:0:0:0:
256,192,117924,1,0,0:0:0:0:
256,192,118112,1,8,0:0:0:0:
256,192,118299,1,0,0:0:0:0:
352,192,118487,5,4,0:0:0:0:
256,192,118862,1,8,0:0:0:0:
256,192,119143,1,0,0:0:0:0:
256,192,119237,1,8,0:0:0:0:
256,192,119330,1,8,0:0:0:0:
256,192,119424,1,0,0:0:0:0:
256,192,119612,1,8,0:0:0:0:
256,192,119799,1,8,0:0:0:0:
352,192,119987,1,4,0:0:0:0:
256,192,120362,1,8,0:0:0:0:
256,192,120643,1,8,0:0:0:0:
256,192,120737,1,8,0:0:0:0:
256,192,120830,1,8,0:0:0:0:
256,192,120924,1,0,0:0:0:0:
256,192,121112,1,8,0:0:0:0:
256,192,121299,1,0,0:0:0:0:
352,192,121487,5,4,0:0:0:0:
256,192,121768,1,0,0:0:0:0:
256,192,121862,1,8,0:0:0:0:
256,192,122049,1,0,0:0:0:0:
352,192,122237,1,4,0:0:0:0:
256,192,122424,1,0,0:0:0:0:
256,192,122518,1,0,0:0:0:0:
256,192,122612,1,8,0:0:0:0:
256,192,122705,1,8,0:0:0:0:
256,192,122799,1,0,0:0:0:0:
352,192,122987,1,4,0:0:0:0:
256,192,123174,1,0,0:0:0:0:
256,192,123268,1,0,0:0:0:0:
256,192,123362,1,8,0:0:0:0:
256,192,123455,1,8,0:0:0:0:
256,192,123549,1,8,0:0:0:0:
256,192,123643,1,8,0:0:0:0:
256,192,123737,1,0,0:0:0:0:
256,192,123924,1,0,0:0:0:0:
256,192,124112,1,8,0:0:0:0:
160,192,124487,5,12,0:0:0:0:
256,192,124768,1,0,0:0:0:0:
256,192,124862,1,8,0:0:0:0:
256,192,125049,1,0,0:0:0:0:
256,192,125143,1,0,0:0:0:0:
256,192,125237,1,8,0:0:0:0:
256,192,125424,1,8,0:0:0:0:
256,192,125612,1,0,0:0:0:0:
256,192,125799,1,0,0:0:0:0:
160,192,125987,5,12,0:0:0:0:
256,192,126268,1,8,0:0:0:0:
256,192,126362,1,0,0:0:0:0:
256,192,126549,1,8,0:0:0:0:
256,192,126643,1,0,0:0:0:0:
256,192,126737,1,8,0:0:0:0:
256,192,126924,1,8,0:0:0:0:
256,192,127112,1,0,0:0:0:0:
256,192,127299,1,0,0:0:0:0:
160,192,127487,5,12,0:0:0:0:
256,192,127768,1,0,0:0:0:0:
256,192,127862,1,8,0:0:0:0:
256,192,128049,1,8,0:0:0:0:
256,192,128143,1,8,0:0:0:0:
256,192,128237,1,0,0:0:0:0:
256,192,128424,1,8,0:0:0:0:
256,192,128612,1,0,0:0:0:0:
256,192,128799,1,0,0:0:0:0:
352,192,128987,5,4,0:0:0:0:
256,192,129174,1,8,0:0:0:0:
256,192,129268,1,0,0:0:0:0:
256,192,129362,1,8,0:0:0:0:
256,192,129549,1,0,0:0:0:0:
352,192,129737,1,4,0:0:0:0:
352,192,130112,1,4,0:0:0:0:
160,192,130487,5,12,0:0:0:0:
256,192,130768,1,0,0:0:0:0:
256,192,130862,1,8,0:0:0:0:
256,192,131049,1,8,0:0:0:0:
256,192,131143,1,0,0:0:0:0:
256,192,131237,1,8,0:0:0:0:
256,192,131424,1,0,0:0:0:0:
256,192,131518,1,8,0:0:0:0:
256,192,131705,1,8,0:0:0:0:
256,192,131799,1,0,0:0:0:0:
256,192,131987,1,8,0:0:0:0:
256,192,132268,1,0,0:0:0:0:
256,192,132362,1,8,0:0:0:0:
256,192,132549,1,0,0:0:0:0:
256,192,132643,1,0,0:0:0:0:
256,192,132737,1,8,0:0:0:0:
256,192,132924,1,8,0:0:0:0:
256,192,133018,1,0,0:0:0:0:
256,192,133205,1,0,0:0:0:0:
256,192,133299,1,8,0:0:0:0:
256,192,133487,5,8,0:0:0:0:
256,192,133674,1,0,0:0:0:0:
256,192,133768,1,8,0:0:0:0:
256,192,133862,1,8,0:0:0:0:
256,192,134049,1,0,0:0:0:0:
256,192,134237,1,0,0:0:0:0:
256,192,134330,1,8,0:0:0:0:
256,192,134424,1,8,0:0:0:0:
256,192,134518,1,8,0:0:0:0:
256,192,134612,1,0,0:0:0:0:
256,192,134705,1,0,0:0:0:0:
256,192,134799,1,8,0:0:0:0:
256,192,134893,1,8,0:0:0:0:
256,192,134987,1,0,0:0:0:0:
256,192,135362,1,0,0:0:0:0:
256,192,135737,1,0,0:0:0:0:
256,192,135924,1,8,0:0:0:0:
256,192,135971,1,8,0:0:0:0:
256,192,136112,1,0,0:0:0:0:
160,192,136487,5,12,0:0:0:0:
256,192,136674,1,0,0:0:0:0:
256,192,136862,1,0,0:0:0:0:
256,192,137049,1,8,0:0:0:0:
256,192,137143,1,0,0:0:0:0:
256,192,137237,1,8,0:0:0:0:
256,192,137424,1,8,0:0:0:0:
256,192,137612,1,0,0:0:0:0:
256,192,137799,1,0,0:0:0:0:
256,192,137893,1,0,0:0:0:0:
256,192,137987,1,8,0:0:0:0:
256,192,138174,1,8,0:0:0:0:
256,192,138268,1,0,0:0:0:0:
256,192,138362,1,8,0:0:0:0:
256,192,138455,1,8,0:0:0:0:
256,192,138549,1,0,0:0:0:0:
256,192,138643,1,8,0:0:0:0:
256,192,138737,1,0,0:0:0:0:
256,192,138924,1,8,0:0:0:0:
256,192,139112,1,8,0:0:0:0:
256,192,139205,1,8,0:0:0:0:
256,192,139299,1,0,0:0:0:0:
256,192,139487,5,8,0:0:0:0:
256,192,139674,1,8,0:0:0:0:
256,192,139862,1,0,0:0:0:0:
256,192,140049,1,8,0:0:0:0:
256,192,140143,1,0,0:0:0:0:
256,192,140237,1,8,0:0:0:0:
256,192,140424,1,8,0:0:0:0:
256,192,140612,1,0,0:0:0:0:
256,192,140799,1,0,0:0:0:0:
256,192,140893,1,0,0:0:0:0:
256,192,140987,1,8,0:0:0:0:
256,192,141174,1,0,0:0:0:0:
256,192,141362,1,0,0:0:0:0:
256,192,141455,1,0,0:0:0:0:
256,192,141549,1,8,0:0:0:0:
256,192,141643,1,0,0:0:0:0:
256,192,141737,1,8,0:0:0:0:
256,192,141924,1,0,0:0:0:0:
256,192,142018,1,8,0:0:0:0:
256,192,142205,1,8,0:0:0:0:
256,192,142299,1,0,0:0:0:0:
160,192,142487,5,12,0:0:0:0:
256,192,142674,1,0,0:0:0:0:
256,192,142862,1,0,0:0:0:0:
256,192,143049,1,8,0:0:0:0:
256,192,143143,1,8,0:0:0:0:
256,192,143237,1,0,0:0:0:0:
256,192,143424,1,0,0:0:0:0:
256,192,143612,1,8,0:0:0:0:
256,192,143799,1,8,0:0:0:0:
256,192,143987,1,0,0:0:0:0:
256,192,144174,1,0,0:0:0:0:
256,192,144268,1,8,0:0:0:0:
256,192,144362,1,0,0:0:0:0:
256,192,144455,1,0,0:0:0:0:
256,192,144549,1,8,0:0:0:0:
256,192,144643,1,8,0:0:0:0:
256,192,144737,1,0,0:0:0:0:
256,192,144924,1,0,0:0:0:0:
256,192,145112,1,8,0:0:0:0:
256,192,145205,1,0,0:0:0:0:
256,192,145299,1,0,0:0:0:0:
256,192,145487,5,8,0:0:0:0:
256,192,145674,1,8,0:0:0:0:
256,192,145862,1,0,0:0:0:0:
256,192,146049,1,8,0:0:0:0:
256,192,146143,1,0,0:0:0:0:
256,192,146237,1,8,0:0:0:0:
256,192,146424,1,8,0:0:0:0:
256,192,146612,1,8,0:0:0:0:
256,192,146799,5,0,0:0:0:0:
256,192,146893,1,0,0:0:0:0:
256,192,146987,1,8,0:0:0:0:
256,192,147174,1,8,0:0:0:0:
256,192,147362,1,0,0:0:0:0:
256,192,147549,1,8,0:0:0:0:
256,192,147643,1,0,0:0:0:0:
256,192,147737,1,8,0:0:0:0:
256,192,147924,1,0,0:0:0:0:
256,192,148112,1,8,0:0:0:0:
256,192,148205,1,8,0:0:0:0:
256,192,148299,1,0,0:0:0:0:
160,192,148487,5,12,0:0:0:0:
256,192,148674,1,0,0:0:0:0:
256,192,148768,1,0,0:0:0:0:
256,192,148862,1,8,0:0:0:0:
256,192,149049,1,8,0:0:0:0:
256,192,149143,1,8,0:0:0:0:
256,192,149237,1,0,0:0:0:0:
256,192,149424,1,8,0:0:0:0:
256,192,149612,1,8,0:0:0:0:
256,192,149705,1,8,0:0:0:0:
256,192,149799,1,0,0:0:0:0:
256,192,149893,1,0,0:0:0:0:
256,192,149987,1,8,0:0:0:0:
256,192,150174,1,0,0:0:0:0:
256,192,150268,1,8,0:0:0:0:
256,192,150362,1,0,0:0:0:0:
256,192,150549,1,8,0:0:0:0:
256,192,150643,1,0,0:0:0:0:
256,192,150737,1,0,0:0:0:0:
256,192,150924,1,8,0:0:0:0:
256,192,151112,1,8,0:0:0:0:
256,192,151205,1,8,0:0:0:0:
256,192,151299,1,0,0:0:0:0:
256,192,151393,1,8,0:0:0:0:
256,192,151487,5,0,0:0:0:0:
256,192,151674,1,0,0:0:0:0:
256,192,151768,1,8,0:0:0:0:
256,192,151862,1,8,0:0:0:0:
256,192,152049,1,8,0:0:0:0:
256,192,152143,1,0,0:0:0:0:
256,192,152237,1,8,0:0:0:0:
256,192,152424,1,8,0:0:0:0:
256,192,152612,1,8,0:0:0:0:
256,192,152705,1,0,0:0:0:0:
256,192,152799,1,0,0:0:0:0:
256,192,152893,1,0,0:0:0:0:
256,192,152987,5,8,0:0:0:0:
256,192,153174,1,0,0:0:0:0:
256,192,153362,1,8,0:0:0:0:
256,192,153549,1,8,0:0:0:0:
256,192,153643,1,0,0:0:0:0:
256,192,153737,1,8,0:0:0:0:
256,192,153924,1,8,0:0:0:0:
256,192,154018,1,8,0:0:0:0:
256,192,154112,1,0,0:0:0:0:
256,192,154299,1,0,0:0:0:0:
160,192,154487,5,12,0:0:0:0:
256,192,154768,1,0,0:0:0:0:
256,192,154862,1,8,0:0:0:0:
256,192,155049,1,0,0:0:0:0:
256,192,155237,1,8,0:0:0:0:
256,192,155330,1,8,0:0:0:0:
256,192,155424,1,0,0:0:0:0:
256,192,155518,1,8,0:0:0:0:
256,192,155612,1,0,0:0:0:0:
256,192,155799,1,0,0:0:0:0:
256,192,155893,1,0,0:0:0:0:
256,192,155987,1,8,0:0:0:0:
256,192,156268,1,0,0:0:0:0:
256,192,156362,1,8,0:0:0:0:
256,192,156549,1,8,0:0:0:0:
256,192,156737,1,8,0:0:0:0:
256,192,156830,1,0,0:0:0:0:
256,192,156924,1,0,0:0:0:0:
256,192,157018,1,8,0:0:0:0:
256,192,157112,1,0,0:0:0:0:
256,192,157299,1,0,0:0:0:0:
256,192,157393,1,0,0:0:0:0:
256,192,157487,5,8,0:0:0:0:
256,192,157674,1,0,0:0:0:0:
256,192,157768,1,8,0:0:0:0:
256,192,157862,1,8,0:0:0:0:
256,192,158049,1,0,0:0:0:0:
256,192,158237,1,8,0:0:0:0:
256,192,158330,1,8,0:0:0:0:
256,192,158424,1,0,0:0:0:0:
256,192,158518,1,8,0:0:0:0:
256,192,158612,1,0,0:0:0:0:
256,192,158705,5,0,0:0:0:0:
256,192,158799,1,8,0:0:0:0:
256,192,158893,1,8,0:0:0:0:
256,192,158987,1,0,0:0:0:0:
256,192,159174,1,8,0:0:0:0:
256,192,159268,1,8,0:0:0:0:
256,192,159362,1,0,0:0:0:0:
256,192,159549,1,0,0:0:0:0:
256,192,159643,1,8,0:0:0:0:
256,192,159737,1,0,0:0:0:0:
256,192,159924,1,8,0:0:0:0:
256,192,160112,1,0,0:0:0:0:
256,192,160299,1,0,0:0:0:0:
160,192,160487,5,12,0:0:0:0:
256,192,160862,1,0,0:0:0:0:
256,192,161049,1,8,0:0:0:0:
256,192,161143,1,0,0:0:0:0:
256,192,161237,1,8,0:0:0:0:
256,192,161518,1,0,0:0:0:0:
256,192,161612,1,8,0:0:0:0:
256,192,161799,1,0,0:0:0:0:
352,192,161987,5,4,0:0:0:0:
256,192,162362,1,8,0:0:0:0:
256,192,162549,1,0,0:0:0:0:
256,192,162643,1,8,0:0:0:0:
256,192,162737,1,0,0:0:0:0:
256,192,163018,1,8,0:0:0:0:
256,192,163112,1,0,0:0:0:0:
256,192,163299,5,8,0:0:0:0:
160,192,163487,5,12,0:0:0:0:
256,192,163862,1,0,0:0:0:0:
256,192,164049,1,8,0:0:0:0:
256,192,164143,1,0,0:0:0:0:
256,192,164237,1,8,0:0:0:0:
256,192,164518,1,0,0:0:0:0:
256,192,164612,1,8,0:0:0:0:
256,192,164799,1,0,0:0:0:0:
160,192,164987,5,12,0:0:0:0:
256,192,165174,1,0,0:0:0:0:
256,192,165362,1,0,0:0:0:0:
256,192,165549,1,8,0:0:0:0:
256,192,165643,1,0,0:0:0:0:
256,192,165737,1,8,0:0:0:0:
256,192,165924,1,8,0:0:0:0:
256,192,166018,1,8,0:0:0:0:
256,192,166112,1,0,0:0:0:0:
256,192,166299,1,0,0:0:0:0:
160,192,166487,5,12,0:0:0:0:
256,192,166862,1,0,0:0:0:0:
256,192,167049,1,8,0:0:0:0:
256,192,167143,1,0,0:0:0:0:
256,192,167237,1,8,0:0:0:0:
256,192,167518,1,0,0:0:0:0:
256,192,167612,1,8,0:0:0:0:
256,192,167799,1,0,0:0:0:0:
352,192,167987,5,4,0:0:0:0:
256,192,168362,1,8,0:0:0:0:
256,192,168549,1,0,0:0:0:0:
256,192,168643,1,8,0:0:0:0:
256,192,168737,1,0,0:0:0:0:
256,192,169018,1,8,0:0:0:0:
256,192,169112,1,0,0:0:0:0:
256,192,169299,1,8,0:0:0:0:
160,192,169487,5,12,0:0:0:0:
256,192,169862,1,0,0:0:0:0:
256,192,170049,1,8,0:0:0:0:
256,192,170143,1,0,0:0:0:0:
256,192,170237,1,8,0:0:0:0:
256,192,170518,1,0,0:0:0:0:
256,192,170612,1,8,0:0:0:0:
256,192,170799,1,0,0:0:0:0:
160,192,170987,5,12,0:0:0:0:
256,192,171268,1,0,0:0:0:0:
256,192,171362,1,8,0:0:0:0:
256,192,171549,1,8,0:0:0:0:
256,192,171643,1,0,0:0:0:0:
256,192,171737,1,8,0:0:0:0:
256,192,171924,1,0,0:0:0:0:
256,192,172018,1,0,0:0:0:0:
256,192,172112,1,8,0:0:0:0:
256,192,172299,1,0,0:0:0:0:
160,192,172487,5,12,0:0:0:0:
256,192,172768,1,0,0:0:0:0:
256,192,172862,1,8,0:0:0:0:
256,192,173049,1,8,0:0:0:0:
256,192,173143,1,0,0:0:0:0:
256,192,173237,1,8,0:0:0:0:
256,192,173424,1,0,0:0:0:0:
256,192,173518,1,0,0:0:0:0:
256,192,173612,1,8,0:0:0:0:
256,192,173799,1,0,0:0:0:0:
352,192,173987,5,4,0:0:0:0:
256,192,174268,1,8,0:0:0:0:
256,192,174362,1,0,0:0:0:0:
256,192,174549,1,0,0:0:0:0:
256,192,174643,1,8,0:0:0:0:
256,192,174737,1,0,0:0:0:0:
256,192,174924,1,8,0:0:0:0:
256,192,175018,1,8,0:0:0:0:
256,192,175112,1,0,0:0:0:0:
256,192,175299,1,8,0:0:0:0:
160,192,175487,5,12,0:0:0:0:
256,192,175768,1,0,0:0:0:0:
256,192,175862,1,8,0:0:0:0:
256,192,176049,1,8,0:0:0:0:
256,192,176143,1,0,0:0:0:0:
256,192,176237,1,8,0:0:0:0:
256,192,176424,1,0,0:0:0:0:
256,192,176518,1,0,0:0:0:0:
256,192,176612,1,8,0:0:0:0:
256,192,176799,1,0,0:0:0:0:
160,192,176987,5,12,0:0:0:0:
256,192,177174,1,0,0:0:0:0:
256,192,177362,1,8,0:0:0:0:
256,192,177549,1,0,0:0:0:0:
256,192,177643,1,0,0:0:0:0:
256,192,177737,1,8,0:0:0:0:
256,192,177924,1,8,0:0:0:0:
256,192,178018,1,8,0:0:0:0:
256,192,178112,1,0,0:0:0:0:
256,192,178299,1,0,0:0:0:0:
160,192,178487,5,12,0:0:0:0:
256,192,178768,1,0,0:0:0:0:
256,192,178862,1,8,0:0:0:0:
256,192,179049,1,8,0:0:0:0:
256,192,179143,1,0,0:0:0:0:
256,192,179237,1,8,0:0:0:0:
256,192,179424,1,0,0:0:0:0:
256,192,179518,1,8,0:0:0:0:
256,192,179612,1,8,0:0:0:0:
256,192,179705,1,8,0:0:0:0:
256,192,179799,1,0,0:0:0:0:
352,192,179987,5,4,0:0:0:0:
256,192,180268,1,8,0:0:0:0:
256,192,180362,1,0,0:0:0:0:
256,192,180549,1,0,0:0:0:0:
256,192,180643,1,8,0:0:0:0:
256,192,180737,1,0,0:0:0:0:
256,192,180924,1,8,0:0:0:0:
256,192,181018,1,0,0:0:0:0:
256,192,181112,1,0,0:0:0:0:
256,192,181205,1,0,0:0:0:0:
256,192,181299,1,8,0:0:0:0:
160,192,181487,5,12,0:0:0:0:
256,192,181674,1,8,0:0:0:0:
256,192,181768,1,0,0:0:0:0:
256,192,181862,1,8,0:0:0:0:
256,192,182049,1,8,0:0:0:0:
256,192,182143,1,8,0:0:0:0:
256,192,182237,1,0,0:0:0:0:
256,192,182330,1,8,0:0:0:0:
256,192,182424,1,8,0:0:0:0:
256,192,182518,1,8,0:0:0:0:
256,192,182612,1,0,0:0:0:0:
256,192,182705,5,0,0:0:0:0:
256,192,182799,1,8,0:0:0:0:
256,192,182893,1,8,0:0:0:0:
256,192,182987,1,0,0:0:0:0:
256,192,183174,1,0,0:0:0:0:
256,192,183268,1,0,0:0:0:0:
256,192,183362,1,8,0:0:0:0:
256,192,183549,1,8,0:0:0:0:
256,192,183643,1,0,0:0:0:0:
256,192,183737,1,8,0:0:0:0:
256,192,183924,1,8,0:0:0:0:
256,192,184112,1,0,0:0:0:0:
352,192,184487,5,4,0:0:0:0:
256,192,184862,1,8,0:0:0:0:
256,192,185143,1,8,0:0:0:0:
256,192,185330,1,8,0:0:0:0:
256,192,185424,1,0,0:0:0:0:
256,192,185612,1,8,0:0:0:0:
256,192,185799,1,0,0:0:0:0:
256,192,185987,1,0,0:0:0:0:
256,192,186362,1,0,0:0:0:0:
256,192,186643,1,0,0:0:0:0:
256,192,186830,1,8,0:0:0:0:
256,192,186924,1,0,0:0:0:0:
256,192,187112,1,8,0:0:0:0:
256,192,187299,1,0,0:0:0:0:
256,192,187487,1,8,0:0:0:0:
256,192,187862,1,8,0:0:0:0:
256,192,188143,1,0,0:0:0:0:
256,192,188237,1,0,0:0:0:0:
256,192,188424,1,0,0:0:0:0:
256,192,188612,1,8,0:0:0:0:
256,192,188799,1,8,0:0:0:0:
256,192,188987,1,0,0:0:0:0:
256,192,189362,1,0,0:0:0:0:
256,192,189549,1,0,0:0:0:0:
256,192,189643,1,8,0:0:0:0:
256,192,189830,1,8,0:0:0:0:
256,192,189924,1,0,0:0:0:0:
256,192,190112,1,0,0:0:0:0:
256,192,190299,1,8,0:0:0:0:
256,192,190487,5,0,0:0:0:0:
256,192,190862,1,0,0:0:0:0:
256,192,191143,1,8,0:0:0:0:
256,192,191237,1,0,0:0:0:0:
256,192,191424,1,0,0:0:0:0:
256,192,191612,1,0,0:0:0:0:
256,192,191799,1,8,0:0:0:0:
256,192,191987,1,0,0:0:0:0:
256,192,192362,1,0,0:0:0:0:
256,192,192643,1,8,0:0:0:0:
256,192,192830,1,8,0:0:0:0:
256,192,192924,1,0,0:0:0:0:
256,192,193112,1,8,0:0:0:0:
256,192,193299,1,0,0:0:0:0:
256,192,193487,1,8,0:0:0:0:
256,192,193862,1,8,0:0:0:0:
256,192,194143,1,0,0:0:0:0:
256,192,194330,1,8,0:0:0:0:
256,192,194424,1,0,0:0:0:0:
256,192,194612,1,8,0:0:0:0:
256,192,194799,5,0,0:0:0:0:
256,192,194987,1,8,0:0:0:0:
256,192,195362,1,8,0:0:0:0:
256,192,195549,1,0,0:0:0:0:
256,192,195643,1,0,0:0:0:0:
256,192,195737,1,8,0:0:0:0:
256,192,195830,1,8,0:0:0:0:
256,192,195924,1,0,0:0:0:0:
256,192,196112,1,0,0:0:0:0:
256,192,196299,1,8,0:0:0:0:
160,192,196487,5,12,0:0:0:0:
256,192,196768,1,0,0:0:0:0:
256,192,196862,1,8,0:0:0:0:
256,192,197049,1,0,0:0:0:0:
256,192,197143,1,8,0:0:0:0:
256,192,197237,1,0,0:0:0:0:
256,192,197424,1,8,0:0:0:0:
256,192,197612,1,0,0:0:0:0:
256,192,197799,1,0,0:0:0:0:
256,192,197987,1,8,0:0:0:0:
256,192,198268,1,8,0:0:0:0:
256,192,198362,1,0,0:0:0:0:
256,192,198549,1,8,0:0:0:0:
256,192,198643,1,8,0:0:0:0:
256,192,198737,1,0,0:0:0:0:
256,192,198924,1,8,0:0:0:0:
256,192,199112,1,0,0:0:0:0:
256,192,199299,1,8,0:0:0:0:
256,192,199487,1,8,0:0:0:0:
256,192,199768,1,0,0:0:0:0:
256,192,199862,1,8,0:0:0:0:
256,192,200049,1,8,0:0:0:0:
256,192,200143,1,0,0:0:0:0:
256,192,200237,1,8,0:0:0:0:
256,192,200424,1,8,0:0:0:0:
256,192,200612,1,0,0:0:0:0:
256,192,200799,1,0,0:0:0:0:
256,192,200987,5,8,0:0:0:0:
256,192,201174,1,0,0:0:0:0:
256,192,201362,1,0,0:0:0:0:
256,192,201549,1,8,0:0:0:0:
256,192,201643,1,0,0:0:0:0:
256,192,201737,1,8,0:0:0:0:
256,192,201924,1,8,0:0:0:0:
256,192,202112,1,0,0:0:0:0:
256,192,202299,1,8,0:0:0:0:
160,192,202487,5,12,0:0:0:0:
256,192,202674,1,0,0:0:0:0:
256,192,202768,1,0,0:0:0:0:
256,192,202862,1,8,0:0:0:0:
256,192,203049,1,0,0:0:0:0:
256,192,203143,1,8,0:0:0:0:
256,192,203237,1,0,0:0:0:0:
256,192,203424,1,8,0:0:0:0:
256,192,203612,1,8,0:0:0:0:
256,192,203799,1,0,0:0:0:0:
160,192,203987,1,12,0:0:0:0:
256,192,204174,1,8,0:0:0:0:
256,192,204268,1,8,0:0:0:0:
256,192,204362,1,0,0:0:0:0:
256,192,204549,1,8,0:0:0:0:
256,192,204643,1,0,0:0:0:0:
256,192,204737,1,8,0:0:0:0:
256,192,204924,1,8,0:0:0:0:
256,192,205112,1,0,0:0:0:0:
256,192,205299,1,0,0:0:0:0:
256,192,205487,1,8,0:0:0:0:
256,192,205580,1,0,0:0:0:0:
256,192,205674,1,0,0:0:0:0:
256,192,205768,1,8,0:0:0:0:
256,192,205862,1,0,0:0:0:0:
256,192,205955,1,0,0:0:0:0:
256,192,206049,1,8,0:0:0:0:
256,192,206143,1,8,0:0:0:0:
256,192,206237,1,0,0:0:0:0:
256,192,206330,1,0,0:0:0:0:
256,192,206424,1,8,0:0:0:0:
256,192,206518,1,8,0:0:0:0:
256,192,206612,1,0,0:0:0:0:
256,192,206705,5,8,0:0:0:0:
256,192,206799,1,8,0:0:0:0:
256,192,206893,1,8,0:0:0:0:
256,192,206987,1,0,0:0:0:0:
256,192,207924,1,8,0:0:0:0:
256,192,207971,1,8,0:0:0:0:
256,192,208112,1,0,0:0:0:0:
352,192,208487,1,12,0:0:0:0:
256,192,208674,12,0,211487,0:0:0:0:
