osu file format v14

[General]
AudioFilename: audio.mp3
AudioLeadIn: 0
PreviewTime: 26985
Countdown: 0
SampleSet: Normal
StackLeniency: 0.7
Mode: 1
LetterboxInBreaks: 0
WidescreenStoryboard: 1

[Editor]
Bookmarks: 14985,20985,26985,38985,50985,56985,61485,62985,74985,85485,86985,95985
DistanceSpacing: 1.9
BeatDivisor: 6
GridSize: 32
TimelineZoom: 2.5

[Metadata]
Title:Love Kills U
TitleUnicode:Love Kills U
Artist:EmoCosine
ArtistUnicode:EmoCosine
Creator:GIGACHAD
Version:Inner Oni
Source:WACCA Reverse
Tags:featured artist chatter izzeee ikin5050 dako electronic instrumental hardstyle future bass jersey club
BeatmapID:3515430
BeatmapSetID:1719687

[Difficulty]
HPDrainRate:6
CircleSize:2
OverallDifficulty:6
ApproachRate:9.6
SliderMultiplier:1.4
SliderTickRate:1

[Events]
//Background and Video events
0,0,"jr-korpa-7NoLliK6ntc-unsplash.jpg",0,100
//Break Periods
//Storyboard Layer 0 (Background)
//Storyboard Layer 1 (Fail)
//Storyboard Layer 2 (Pass)
//Storyboard Layer 3 (Foreground)
//Storyboard Layer 4 (Overlay)
//Storyboard Sound Samples

[TimingPoints]
-15,375,4,1,0,50,1,0
1461,-133.333333333333,4,1,0,50,0,0
2412,-100,4,1,0,50,0,0
2506,-96.1538461538461,4,1,0,50,0,0
2600,-92.8117759811637,4,1,0,50,0,0
2693,-89.2857142857143,4,1,0,50,0,0
2787,-86.9565217391304,4,1,0,50,0,0
2881,-84.7457627118644,4,1,0,50,0,0
2961,-84.7457627118644,4,1,0,70,0,0
2985,375,4,1,0,70,1,0
2985,-83.33333,4,1,0,70,0,0
3261,-90.90909,4,1,0,70,0,0
3448,-91.47138,4,1,0,70,0,0
3542,-91.75666,4,1,0,70,0,0
3636,-92.04373,4,1,0,70,0,0
3823,-92.62019,4,1,0,70,0,0
3917,-92.9127,4,1,0,70,0,0
4105,-93.50329,4,1,0,70,0,0
4292,-94.09823,4,1,0,70,0,0
4480,-94.70404,4,1,0,70,0,0
4573,-95.006615,4,1,0,70,0,0
4761,-95.62421,4,1,0,70,0,0
4948,-96.246544,4,1,0,70,0,0
5042,-96.56244,4,1,0,70,0,0
5136,-96.88042,4,1,0,70,0,0
5323,-97.519264,4,1,0,70,0,0
5417,-97.84358,4,1,0,70,0,0
5605,-98.49874,4,1,0,70,0,0
5698,-98.826096,4,1,0,70,0,0
5792,-99.15918,4,1,0,70,0,0
5980,-99.83214,4,1,0,70,0,0
6073,-100.16843,4,1,0,70,0,0
6261,-100.8552,4,1,0,70,0,0
6448,-101.54772,4,1,0,70,0,0
6542,-101.899445,4,1,0,70,0,0
6636,-102.25361,4,1,0,70,0,0
6823,-102.965546,4,1,0,70,0,0
6917,-103.32717,4,1,0,70,0,0
7105,-104.058105,4,1,0,70,0,0
7292,-104.79547,4,1,0,70,0,0
7480,-105.54739,4,1,0,70,0,0
7573,-105.92336,4,1,0,70,0,0
7761,-106.69161,4,1,0,70,0,0
7948,-107.46692,4,1,0,70,0,0
8042,-107.860916,4,1,0,70,0,0
8136,-108.25781,4,1,0,70,0,0
8230,-108.657646,4,1,0,70,0,0
8417,-109.4619,4,1,0,70,0,0
8511,-109.87068,4,1,0,70,0,0
8605,-110.28253,4,1,0,70,0,0
8792,-111.111115,4,1,0,70,0,0
8980,-76.9230769230769,4,1,0,70,0,0
9261,-86.95652,4,1,0,70,0,0
9355,-88.003075,4,1,0,70,0,0
9448,-89.063576,4,1,0,70,0,0
9542,-90.16179,4,1,0,70,0,0
9636,-91.28741,4,1,0,70,0,0
9823,-93.61239,4,1,0,70,0,0
9917,-94.8264,4,1,0,70,0,0
10011,-96.0723,4,1,0,70,0,0
10105,-97.351395,4,1,0,70,0,0
10292,-100,4,1,0,70,0,0
10480,-66.6666666666667,4,1,0,70,0,0
10761,-81.96721,4,1,0,70,0,0
10948,-83.709526,4,1,0,70,0,0
11042,-84.61362,4,1,0,70,0,0
11230,-86.48168,4,1,0,70,0,0
11417,-88.42347,4,1,0,70,0,0
11605,-90.465576,4,1,0,70,0,0
11698,-91.51105,4,1,0,70,0,0
11792,-92.59259,4,1,0,70,0,0
11980,-66.6666666666667,4,1,0,70,0,0
12167,-83.33333,4,1,0,70,0,0
12261,-84.51022,4,1,0,70,0,0
12355,-85.72082,4,1,0,70,0,0
12448,-86.95316,4,1,0,70,0,0
12542,-88.2353,4,1,0,70,0,0
12636,-89.5558,4,1,0,70,0,0
12730,-90.91644,4,1,0,70,0,0
12823,-92.30391,4,1,0,70,0,0
12917,-93.74999,4,1,0,70,0,0
13011,-95.24212,4,1,0,70,0,0
13105,-96.782524,4,1,0,70,0,0
13198,-98.35635,4,1,0,70,0,0
13292,-100,4,1,0,70,0,0
13480,-76.92308,4,1,0,70,0,0
13542,-77.66387,4,1,0,70,0,0
13605,-78.43138,4,1,0,70,0,0
13667,-79.20165,4,1,0,70,0,0
13761,-80.39878,4,1,0,70,0,0
13855,-81.63266,4,1,0,70,0,0
13917,-82.46742,4,1,0,70,0,0
13980,-83.333336,4,1,0,70,0,0
14042,-84.203445,4,1,0,70,0,0
14136,-85.55784,4,1,0,70,0,0
14230,-86.95652,4,1,0,70,0,0
14292,-87.904366,4,1,0,70,0,0
14355,-88.888885,4,1,0,70,0,0
14417,-89.87956,4,1,0,70,0,0
14511,-91.42439,4,1,0,70,0,0
14605,-93.023254,4,1,0,70,0,0
14667,-94.108795,4,1,0,70,0,0
14730,-95.2381,4,1,0,70,0,0
14792,-96.37626,4,1,0,70,0,0
14855,-97.560974,4,1,0,70,0,0
14917,-98.755684,4,1,0,70,0,0
14961,-98.755684,4,1,0,80,0,0
14980,-76.9230769230769,4,1,0,80,0,0
15261,-76.92308,4,1,0,80,0,0
15355,-77.0523,4,1,0,80,0,0
15448,-77.18056,4,1,0,80,0,0
15636,-77.44114,4,1,0,80,0,0
15823,-77.702095,4,1,0,80,0,0
15917,-77.83394,4,1,0,80,0,0
16105,-78.09897,4,1,0,80,0,0
16198,-78.23074,4,1,0,80,0,0
16292,-78.36439,4,1,0,80,0,0
16386,-78.49849,4,1,0,80,0,0
16480,-78.63305,4,1,0,80,0,0
16573,-78.766624,4,1,0,80,0,0
16761,-79.03806,4,1,0,80,0,0
16855,-79.17448,4,1,0,80,0,0
16948,-79.309906,4,1,0,80,0,0
17042,-79.447266,4,1,0,80,0,0
17136,-79.5851,4,1,0,80,0,0
17323,-79.86073,4,1,0,80,0,0
17417,-80,4,1,0,80,0,0
17511,-80.13976,4,1,0,80,0,0
17605,-80.280014,4,1,0,80,0,0
17698,-80.41925,4,1,0,80,0,0
17792,-80.56049,4,1,0,80,0,0
17980,-80.844444,4,1,0,80,0,0
18073,-80.98565,4,1,0,80,0,0
18261,-81.27262,4,1,0,80,0,0
18355,-81.41687,4,1,0,80,0,0
18448,-81.56008,4,1,0,80,0,0
18542,-81.70535,4,1,0,80,0,0
18636,-81.85114,4,1,0,80,0,0
18823,-82.14272,4,1,0,80,0,0
18917,-82.29008,4,1,0,80,0,0
19011,-82.43796,4,1,0,80,0,0
19105,-82.58639,4,1,0,80,0,0
19292,-82.88323,4,1,0,80,0,0
19386,-83.03326,4,1,0,80,0,0
19480,-83.18382,4,1,0,80,0,0
19573,-83.33333,4,1,0,80,0,0
20980,-57.1428571428571,4,1,0,80,0,0
21261,-76.92308,4,1,0,80,0,0
21355,-77.12819,4,1,0,80,0,0
21448,-77.3322,4,1,0,80,0,0
21542,-77.539505,4,1,0,80,0,0
21636,-77.74792,4,1,0,80,0,0
21730,-77.95746,4,1,0,80,0,0
21917,-78.37768,4,1,0,80,0,0
22011,-78.59063,4,1,0,80,0,0
22105,-78.80474,4,1,0,80,0,0
22198,-79.01773,4,1,0,80,0,0
22292,-79.23418,4,1,0,80,0,0
22386,-79.45182,4,1,0,80,0,0
22480,-79.670654,4,1,0,80,0,0
22761,-80.332085,4,1,0,80,0,0
22855,-80.55581,4,1,0,80,0,0
22948,-80.77837,4,1,0,80,0,0
23042,-81.00459,4,1,0,80,0,0
23136,-81.23208,4,1,0,80,0,0
23230,-81.460846,4,1,0,80,0,0
23417,-81.9198,4,1,0,80,0,0
23511,-82.15246,4,1,0,80,0,0
23605,-82.38645,4,1,0,80,0,0
23698,-82.61927,4,1,0,80,0,0
23792,-82.85593,4,1,0,80,0,0
23886,-83.09395,4,1,0,80,0,0
23980,-83.33333,4,1,0,80,0,0
24167,-81.63709,4,1,0,80,0,0
24261,-80.81026,4,1,0,80,0,0
24355,-79.99999,4,1,0,80,0,0
24448,-79.214195,4,1,0,80,0,0
24542,-78.43546,4,1,0,80,0,0
24730,-76.92308,4,1,0,80,0,0
24823,-76.19627,4,1,0,80,0,0
24917,-75.475494,4,1,0,80,0,0
25011,-74.76822,4,1,0,80,0,0
25105,-74.07407,4,1,0,80,0,0
25198,-73.39988,4,1,0,80,0,0
25292,-72.7308,4,1,0,80,0,0
25386,-72.07381,4,1,0,80,0,0
25480,-66.6666666666667,4,1,0,80,0,0
25667,-90.90909,4,1,0,80,0,0
25761,-92.596245,4,1,0,80,0,0
25855,-94.34721,4,1,0,80,0,0
25948,-96.14596,4,1,0,80,0,0
26042,-98.03512,4,1,0,80,0,0
26136,-100,4,1,0,80,0,0
26230,-90.9090909090909,4,1,0,80,0,0
26328,-93.8967136150235,4,1,0,80,0,0
26417,-97.5609756097561,4,1,0,80,0,0
26610,-90.9090909090909,4,1,0,80,0,0
26703,-93.8967136150235,4,1,0,80,0,0
26792,-97.5609756097561,4,1,0,80,0,0
26961,-97.5609756097561,4,1,0,90,0,0
26980,-66.666664,4,1,0,90,0,0
26985,-66.666664,4,1,0,90,0,1
27167,-67.63023,4,1,0,90,0,1
27261,-68.12519,4,1,0,90,0,1
27355,-68.62745,4,1,0,90,0,1
27448,-69.1317,4,1,0,90,0,1
27542,-69.648964,4,1,0,90,0,1
27636,-70.174034,4,1,0,90,0,1
27730,-70.70707,4,1,0,90,0,1
27823,-71.24246,4,1,0,90,0,1
28011,-72.34993,4,1,0,90,0,1
28105,-72.91666,4,1,0,90,0,1
28292,-74.07093,4,1,0,90,0,1
28386,-74.66507,4,1,0,90,0,1
28480,-75.26881,4,1,0,90,0,1
28573,-75.875824,4,1,0,90,0,1
28667,-76.49938,4,1,0,90,0,1
28761,-77.133286,4,1,0,90,0,1
28855,-77.77777,4,1,0,90,0,1
28948,-78.4261,4,1,0,90,0,1
29042,-79.09247,4,1,0,90,0,1
29136,-79.77026,4,1,0,90,0,1
29230,-80.45976,4,1,0,90,0,1
29323,-81.15378,4,1,0,90,0,1
29511,-82.593925,4,1,0,90,0,1
29605,-83.33333,4,1,0,90,0,1
29792,-66.666664,4,1,0,90,0,1
29886,-67.087074,4,1,0,90,0,1
29980,-67.512825,4,1,0,90,0,1
30073,-67.93939,4,1,0,90,0,1
30167,-68.37606,4,1,0,90,0,1
30261,-68.81838,4,1,0,90,0,1
30355,-69.266464,4,1,0,90,0,1
30448,-69.71555,4,1,0,90,0,1
30542,-70.17544,4,1,0,90,0,1
30636,-70.64142,4,1,0,90,0,1
30730,-71.11364,4,1,0,90,0,1
30823,-71.58708,4,1,0,90,0,1
31011,-72.563675,4,1,0,90,0,1
31105,-73.06203,4,1,0,90,0,1
31198,-73.56187,4,1,0,90,0,1
31292,-74.07407,4,1,0,90,0,1
31386,-74.59347,4,1,0,90,0,1
31480,-75.12019,4,1,0,90,0,1
31573,-75.64868,4,1,0,90,0,1
31761,-76.74008,4,1,0,90,0,1
31948,-77.85737,4,1,0,90,0,1
32042,-78.43137,4,1,0,90,0,1
32136,-79.01391,4,1,0,90,0,1
32230,-79.605156,4,1,0,90,0,1
32292,-80,4,1,0,90,0,1
32355,-80.40524,4,1,0,90,0,1
32417,-80.80808,4,1,0,90,0,1
32605,-82.05464,4,1,0,90,0,1
32667,-82.47423,4,1,0,90,0,1
32730,-82.90499,4,1,0,90,0,1
32792,-83.33333,4,1,0,90,0,1
32980,-66.666664,4,1,0,90,0,1
33167,-67.63023,4,1,0,90,0,1
33261,-68.12519,4,1,0,90,0,1
33355,-68.62745,4,1,0,90,0,1
33448,-69.1317,4,1,0,90,0,1
33542,-69.648964,4,1,0,90,0,1
33636,-70.174034,4,1,0,90,0,1
33730,-70.70707,4,1,0,90,0,1
33823,-71.24246,4,1,0,90,0,1
34011,-72.34993,4,1,0,90,0,1
34105,-72.91666,4,1,0,90,0,1
34292,-74.07093,4,1,0,90,0,1
34386,-74.66507,4,1,0,90,0,1
34480,-75.26881,4,1,0,90,0,1
34573,-75.875824,4,1,0,90,0,1
34667,-76.49938,4,1,0,90,0,1
34761,-77.133286,4,1,0,90,0,1
34855,-77.77777,4,1,0,90,0,1
34948,-78.4261,4,1,0,90,0,1
35042,-79.09247,4,1,0,90,0,1
35136,-79.77026,4,1,0,90,0,1
35230,-80.45976,4,1,0,90,0,1
35323,-81.15378,4,1,0,90,0,1
35511,-82.593925,4,1,0,90,0,1
35605,-83.33333,4,1,0,90,0,1
35792,-66.666664,4,1,0,90,0,1
35886,-67.22839,4,1,0,90,0,1
35980,-67.799675,4,1,0,90,0,1
36073,-68.37451,4,1,0,90,0,1
36167,-68.965515,4,1,0,90,0,1
36261,-69.566826,4,1,0,90,0,1
36355,-70.17873,4,1,0,90,0,1
36448,-70.794785,4,1,0,90,0,1
36542,-71.42857,4,1,0,90,0,1
36636,-72.07381,4,1,0,90,0,1
36730,-72.7308,4,1,0,90,0,1
36823,-73.3927,4,1,0,90,0,1
37011,-74.76822,4,1,0,90,0,1
37105,-75.475494,4,1,0,90,0,1
37292,-76.92308,4,1,0,90,0,1
37386,-77.92479,4,1,0,90,0,1
37480,-78.95291,4,1,0,90,0,1
37542,-79.64603,4,1,0,90,0,1
37605,-80.36289,4,1,0,90,0,1
37667,-81.081085,4,1,0,90,0,1
37761,-82.19479,4,1,0,90,0,1
37855,-83.339516,4,1,0,90,0,1
37948,-84.503876,4,1,0,90,0,1
38042,-85.71429,4,1,0,90,0,1
38136,-86.959885,4,1,0,90,0,1
38230,-88.242226,4,1,0,90,0,1
38292,-89.10892,4,1,0,90,0,1
38355,-90.00721,4,1,0,90,0,1
38417,-90.909096,4,1,0,90,0,1
38605,-81.0869344082958,4,1,0,90,0,1
38667,-81.8181894975209,4,1,0,90,0,1
38730,-82.5748758120599,4,1,0,90,0,1
38792,-83.3333376111113,4,1,0,90,0,1
38855,-73.17073,4,1,0,90,0,1
38917,-69.79341,4,1,0,90,0,1
38980,-66.666664,4,1,0,90,0,1
39167,-67.748085,4,1,0,90,0,1
39261,-68.30505,4,1,0,90,0,1
39355,-68.871254,4,1,0,90,0,1
39448,-69.440735,4,1,0,90,0,1
39542,-70.02599,4,1,0,90,0,1
39636,-70.62121,4,1,0,90,0,1
39730,-71.22662,4,1,0,90,0,1
39823,-71.83591,4,1,0,90,0,1
40011,-73.09996,4,1,0,90,0,1
40105,-73.74882,4,1,0,90,0,1
40198,-74.4022,4,1,0,90,0,1
40292,-75.074486,4,1,0,90,0,1
40386,-75.75903,4,1,0,90,0,1
40480,-76.456184,4,1,0,90,0,1
40573,-77.15866,4,1,0,90,0,1
40667,-77.88193,4,1,0,90,0,1
40761,-78.61888,4,1,0,90,0,1
40855,-79.36992,4,1,0,90,0,1
40948,-80.12721,4,1,0,90,0,1
41042,-80.90748,4,1,0,90,0,1
41230,-82.51452,4,1,0,90,0,1
41323,-83.33333,4,1,0,90,0,1
41511,-66.666664,4,1,0,90,0,1
41605,-67.050865,4,1,0,90,0,1
41698,-67.435356,4,1,0,90,0,1
41792,-67.82849,4,1,0,90,0,1
41886,-68.226234,4,1,0,90,0,1
41980,-68.62868,4,1,0,90,0,1
42073,-69.03153,4,1,0,90,0,1
42167,-69.44356,4,1,0,90,0,1
42261,-69.86053,4,1,0,90,0,1
42355,-70.28254,4,1,0,90,0,1
42448,-70.70511,4,1,0,90,0,1
42542,-71.13741,4,1,0,90,0,1
42636,-71.57504,4,1,0,90,0,1
42730,-72.01808,4,1,0,90,0,1
42823,-72.461845,4,1,0,90,0,1
43011,-73.375824,4,1,0,90,0,1
43105,-73.841515,4,1,0,90,0,1
43292,-74.785736,4,1,0,90,0,1
43386,-75.269554,4,1,0,90,0,1
43480,-75.759674,4,1,0,90,0,1
43573,-76.2509,4,1,0,90,0,1
43667,-76.75392,4,1,0,90,0,1
43761,-77.263626,4,1,0,90,0,1
43855,-77.78014,4,1,0,90,0,1
43948,-78.29801,4,1,0,90,0,1
44042,-78.82851,4,1,0,90,0,1
44136,-79.36623,4,1,0,90,0,1
44230,-79.91134,4,1,0,90,0,1
44292,-80.275,4,1,0,90,0,1
44355,-80.647934,4,1,0,90,0,1
44417,-81.01835,4,1,0,90,0,1
44605,-82.16262,4,1,0,90,0,1
44667,-82.54712,4,1,0,90,0,1
44730,-82.9415,4,1,0,90,0,1
44792,-83.33333,4,1,0,90,0,1
44980,-66.666664,4,1,0,90,0,1
45073,-67.12911,4,1,0,90,0,1
45261,-68.08382,4,1,0,90,0,1
45355,-68.57143,4,1,0,90,0,1
45448,-69.06077,4,1,0,90,0,1
45542,-69.56253,4,1,0,90,0,1
45636,-70.071625,4,1,0,90,0,1
45730,-70.588234,4,1,0,90,0,1
45823,-71.106895,4,1,0,90,0,1
46011,-72.179,4,1,0,90,0,1
46105,-72.727264,4,1,0,90,0,1
46198,-73.27797,4,1,0,90,0,1
46292,-73.84312,4,1,0,90,0,1
46386,-74.41706,4,1,0,90,0,1
46480,-75,4,1,0,90,0,1
46573,-75.585785,4,1,0,90,0,1
46667,-76.18725,4,1,0,90,0,1
46761,-76.79836,4,1,0,90,0,1
46855,-77.41935,4,1,0,90,0,1
46948,-78.0437,4,1,0,90,0,1
47042,-78.68508,4,1,0,90,0,1
47230,-80,4,1,0,90,0,1
47323,-80.66685,4,1,0,90,0,1
47511,-82.0494,4,1,0,90,0,1
47605,-82.75862,4,1,0,90,0,1
47698,-83.47245,4,1,0,90,0,1
47792,-84.20659,4,1,0,90,0,1
47886,-84.95374,4,1,0,90,0,1
47980,-85.71428,4,1,0,90,0,1
48073,-86.480255,4,1,0,90,0,1
48167,-87.26849,4,1,0,90,0,1
48261,-88.07124,4,1,0,90,0,1
48355,-88.888885,4,1,0,90,0,1
48448,-89.71291,4,1,0,90,0,1
48542,-90.561485,4,1,0,90,0,1
48636,-91.42624,4,1,0,90,0,1
48730,-92.307686,4,1,0,90,0,1
48823,-93.19665,4,1,0,90,0,1
48917,-94.112724,4,1,0,90,0,1
49011,-95.047005,4,1,0,90,0,1
49105,-96,4,1,0,90,0,1
49198,-96.96186,4,1,0,90,0,1
49292,-97.95385,4,1,0,90,0,1
49386,-98.966354,4,1,0,90,0,1
49480,-66.6666666666667,4,1,0,90,0,1
49485,-66.6666666666667,4,1,0,90,0,0
49526,-100,4,1,0,90,0,0
49531,-100,4,1,0,70,0,0
50230,-90.90909,4,1,0,70,0,0
50323,-91.94557,4,1,0,70,0,0
50417,-93.01749,4,1,0,70,0,0
50511,-94.11469,4,1,0,70,0,0
50605,-95.2381,4,1,0,70,0,0
50698,-96.37625,4,1,0,70,0,0
50792,-97.554634,4,1,0,70,0,0
50886,-98.76217,4,1,0,70,0,0
50961,-98.76217,4,1,0,80,0,0
50980,-74.0740740740741,4,1,0,80,0,0
51261,-83.33333,4,1,0,80,0,0
51355,-83.47009,4,1,0,80,0,0
51542,-83.7435,4,1,0,80,0,0
51730,-84.02018,4,1,0,80,0,0
52011,-84.43714,4,1,0,80,0,0
52105,-84.57755,4,1,0,80,0,0
52292,-84.85827,4,1,0,80,0,0
52480,-85.14238,4,1,0,80,0,0
52761,-85.57059,4,1,0,80,0,0
52855,-85.7148,4,1,0,80,0,0
53042,-86.003136,4,1,0,80,0,0
53230,-86.29497,4,1,0,80,0,0
53511,-86.73488,4,1,0,80,0,0
53605,-86.88304,4,1,0,80,0,0
53792,-87.179306,4,1,0,80,0,0
53980,-87.47918,4,1,0,80,0,0
54261,-87.93129,4,1,0,80,0,0
54355,-88.08357,4,1,0,80,0,0
54542,-88.38809,4,1,0,80,0,0
54730,-88.69636,4,1,0,80,0,0
55011,-89.16116,4,1,0,80,0,0
55105,-89.31774,4,1,0,80,0,0
55292,-89.63086,4,1,0,80,0,0
55480,-89.94788,4,1,0,80,0,0
55761,-90.425934,4,1,0,80,0,0
55855,-90.58699,4,1,0,80,0,0
56042,-90.90909,4,1,0,80,0,0
56230,-83.3333333333333,4,1,0,80,0,0
56292,-85.8369098712446,4,1,0,80,0,0
56417,-88.8888888888889,4,1,0,80,0,0
56605,-83.3333333333333,4,1,0,80,0,0
56667,-85.8369098712446,4,1,0,80,0,0
56792,-88.8888888888889,4,1,0,80,0,0
56980,-66.6666666666667,4,1,0,80,0,0
57261,-83.33333,4,1,0,80,0,0
57355,-83.09395,4,1,0,80,0,0
57542,-82.62178,4,1,0,80,0,0
57636,-82.38645,4,1,0,80,0,0
57730,-82.15246,4,1,0,80,0,0
57917,-81.690895,4,1,0,80,0,0
58011,-81.460846,4,1,0,80,0,0
58105,-81.23208,4,1,0,80,0,0
58292,-80.78078,4,1,0,80,0,0
58480,-80.332085,4,1,0,80,0,0
58761,-79.670654,4,1,0,80,0,0
58855,-79.45182,4,1,0,80,0,0
59042,-79.02003,4,1,0,80,0,0
59136,-78.80474,4,1,0,80,0,0
59230,-78.59063,4,1,0,80,0,0
59417,-78.16813,4,1,0,80,0,0
59511,-77.95746,4,1,0,80,0,0
59605,-77.74792,4,1,0,80,0,0
59792,-77.334404,4,1,0,80,0,0
59886,-77.12819,4,1,0,80,0,0
59980,-76.92308,4,1,0,80,0,0
60167,-75.475494,4,1,0,80,0,0
60261,-74.76822,4,1,0,80,0,0
60355,-74.07407,4,1,0,80,0,0
60542,-72.7308,4,1,0,80,0,0
60636,-72.07381,4,1,0,80,0,0
60730,-71.42857,4,1,0,80,0,0
60823,-70.801476,4,1,0,80,0,0
60917,-70.17873,4,1,0,80,0,0
61011,-69.566826,4,1,0,80,0,0
61105,-68.965515,4,1,0,80,0,0
61198,-68.38074,4,1,0,80,0,0
61292,-67.799675,4,1,0,80,0,0
61386,-67.22839,4,1,0,80,0,0
61480,-66.666664,4,1,0,80,0,0
61855,-76.9230733727812,4,1,0,80,0,0
62230,-90.9090859504135,4,1,0,80,0,0
62605,-111.111103703704,4,1,0,80,0,0
62961,-111.111103703704,4,1,0,90,0,0
62980,-57.1428571428571,4,1,0,90,0,0
68605,-50,4,1,0,90,0,0
68980,-57.1428571428571,4,1,0,90,0,0
73480,-57.1428571428571,4,1,0,90,0,0
73667,-58.82353,4,1,0,90,0,0
73761,-59.40751,4,1,0,90,0,0
73855,-60.003204,4,1,0,90,0,0
73948,-60.604427,4,1,0,90,0,0
74042,-61.224487,4,1,0,90,0,0
74136,-61.857372,4,1,0,90,0,0
74230,-62.50347,4,1,0,90,0,0
74323,-63.15612,4,1,0,90,0,0
74417,-63.829784,4,1,0,90,0,0
74511,-64.517975,4,1,0,90,0,0
74605,-65.22117,4,1,0,90,0,0
74667,-65.69343,4,1,0,90,0,0
74730,-66.18036,4,1,0,90,0,0
74792,-66.666664,4,1,0,90,0,0
74980,-57.1428571428571,4,1,0,90,0,0
80605,-50,4,1,0,90,0,0
80980,-57.1428571428571,4,1,0,90,0,0
83605,-50,4,1,0,90,0,0
83980,-57.1428571428571,4,1,0,90,0,0
85479,-66.6565,4,1,0,90,0,0
85542,-67.30276,4,1,0,90,0,0
85604,-67.9511,4,1,0,90,0,0
85667,-68.62283,4,1,0,90,0,0
85855,-70.7087,4,1,0,90,0,0
86042,-72.91319,4,1,0,90,0,0
86136,-74.074066,4,1,0,90,0,0
86230,-75.272514,4,1,0,90,0,0
86417,-77.7758,4,1,0,90,0,0
86605,-80.46612,4,1,0,90,0,0
86698,-81.86696,4,1,0,90,0,0
86792,-83.33333,4,1,0,90,0,0
87026,-100,4,1,0,90,0,0
87031,-100,4,1,0,70,0,0
92956,-100,4,1,0,70,0,0
92961,-100,4,1,0,80,0,0
92980,-99.84152,4,1,0,80,0,0
93261,-98.0227,4,1,0,80,0,0
93355,-97.428955,4,1,0,80,0,0
93448,-96.84859,4,1,0,80,0,0
93636,-95.6962,4,1,0,80,0,0
93730,-95.13023,4,1,0,80,0,0
93823,-94.576836,4,1,0,80,0,0
93917,-94.024,4,1,0,80,0,0
94105,-92.93749,4,1,0,80,0,0
94292,-91.88138,4,1,0,80,0,0
94480,-90.84355,4,1,0,80,0,0
94761,-89.335304,4,1,0,80,0,0
94855,-88.84187,4,1,0,80,0,0
94948,-88.35905,4,1,0,80,0,0
95136,-87.39884,4,1,0,80,0,0
95230,-86.92653,4,1,0,80,0,0
95417,-86.00193,4,1,0,80,0,0
95511,-85.544556,4,1,0,80,0,0
95605,-85.09202,4,1,0,80,0,0
95792,-84.20583,4,1,0,80,0,0
95980,-83.33333,4,1,0,80,0,0
96167,-82.05464,4,1,0,80,0,0
96355,-80.80808,4,1,0,80,0,0
96542,-79.605156,4,1,0,80,0,0
96730,-78.43137,4,1,0,80,0,0
96823,-77.86342,4,1,0,80,0,0
96917,-77.297676,4,1,0,80,0,0
97011,-76.74008,4,1,0,80,0,0
97105,-76.190475,4,1,0,80,0,0
97198,-75.65441,4,1,0,80,0,0
97292,-75.12019,4,1,0,80,0,0
97480,-74.07407,4,1,0,80,0,0
97542,-73.735435,4,1,0,80,0,0
97605,-73.3945,4,1,0,80,0,0
97667,-73.06203,4,1,0,80,0,0
97730,-72.72727,4,1,0,80,0,0
97792,-72.40081,4,1,0,80,0,0
97855,-72.07207,4,1,0,80,0,0
97948,-71.59221,4,1,0,80,0,0
98042,-71.11364,4,1,0,80,0,0
98105,-70.796455,4,1,0,80,0,0
98167,-70.48707,4,1,0,80,0,0
98230,-70.17544,4,1,0,80,0,0
98292,-69.87144,4,1,0,80,0,0
98355,-69.56521,4,1,0,80,0,0
98417,-69.266464,4,1,0,80,0,0
98511,-68.81839,4,1,0,80,0,0
98605,-68.37606,4,1,0,80,0,0
98667,-68.087425,4,1,0,80,0,0
98730,-67.7966,4,1,0,80,0,0
98792,-67.512825,4,1,0,80,0,0
98855,-67.22689,4,1,0,80,0,0
98917,-66.947845,4,1,0,80,0,0
98980,-58.8235273356402,4,1,0,80,0,0
99730,-66.6666666666667,4,1,0,80,0,0
100480,-58.8235273356402,4,1,0,80,0,0
101230,-66.6666666666667,4,1,0,80,0,0
101980,-58.8235273356402,4,1,0,80,0,0
102730,-66.6666666666667,4,1,0,80,0,0
103484,-66.666664,4,1,0,80,0,0
103546,-67.13066,4,1,0,80,0,0
103609,-67.60881,4,1,0,80,0,0
103671,-68.08607,4,1,0,80,0,0
103859,-69.57533,4,1,0,80,0,0
103921,-70.08086,4,1,0,80,0,0
103984,-70.60212,4,1,0,80,0,0
104046,-71.122734,4,1,0,80,0,0
104234,-72.74938,4,1,0,80,0,0
104296,-73.30227,4,1,0,80,0,0
104359,-73.87276,4,1,0,80,0,0
104421,-74.442924,4,1,0,80,0,0
104609,-76.22689,4,1,0,80,0,0
104671,-76.83413,4,1,0,80,0,0
104734,-77.461136,4,1,0,80,0,0
104796,-78.08827,4,1,0,80,0,0
104859,-78.736015,4,1,0,80,0,0
104921,-79.38404,4,1,0,80,0,0
104980,-66.6666640000001,4,1,0,80,0,0
105355,-67.87352,4,1,0,80,0,0
105542,-68.49182,4,1,0,80,0,0
105636,-68.80689,4,1,0,80,0,0
105730,-69.12488,4,1,0,80,0,0
105917,-69.76629,4,1,0,80,0,0
106011,-70.09322,4,1,0,80,0,0
106105,-70.42324,4,1,0,80,0,0
106292,-71.08909,4,1,0,80,0,0
106480,-71.77131,4,1,0,80,0,0
106667,-72.46302,4,1,0,80,0,0
106761,-72.81579,4,1,0,80,0,0
106855,-73.172005,4,1,0,80,0,0
107042,-73.89111,4,1,0,80,0,0
107136,-74.25795,4,1,0,80,0,0
107230,-74.62845,4,1,0,80,0,0
107417,-75.37662,4,1,0,80,0,0
107605,-76.144066,4,1,0,80,0,0
107698,-76.5295,4,1,0,80,0,0
107792,-76.92308,4,1,0,80,0,0
107980,-74.99556,4,1,0,80,0,0
108167,-73.17179,4,1,0,80,0,0
108355,-71.42555,4,1,0,80,0,0
108542,-69.76937,4,1,0,80,0,0
108730,-68.179985,4,1,0,80,0,0
108823,-67.42022,4,1,0,80,0,0
108917,-66.669304,4,1,0,80,0,0
109011,-65.93493,4,1,0,80,0,0
109105,-65.21655,4,1,0,80,0,0
109198,-64.521065,4,1,0,80,0,0
109292,-63.83301,4,1,0,80,0,0
109386,-63.159477,4,1,0,80,0,0
109480,-58.8235329550172,4,1,0,80,0,0
110230,-83.33333,4,1,0,80,0,0
110292,-84.49752,4,1,0,80,0,0
110355,-85.71428,4,1,0,80,0,0
110417,-86.94644,4,1,0,80,0,0
110605,-90.90909,4,1,0,80,0,0
110667,-92.296326,4,1,0,80,0,0
110730,-93.74999,4,1,0,80,0,0
110792,-95.226006,4,1,0,80,0,0
110855,-96.77419,4,1,0,80,0,0
110917,-98.347755,4,1,0,80,0,0
110961,-98.347755,4,1,0,90,0,0
110980,-66.666664,4,1,0,90,0,0
110985,-66.666664,4,1,0,90,0,1
111167,-67.63023,4,1,0,90,0,1
111261,-68.12519,4,1,0,90,0,1
111355,-68.62745,4,1,0,90,0,1
111448,-69.1317,4,1,0,90,0,1
111542,-69.648964,4,1,0,90,0,1
111636,-70.174034,4,1,0,90,0,1
111730,-70.70707,4,1,0,90,0,1
111823,-71.24246,4,1,0,90,0,1
112011,-72.34993,4,1,0,90,0,1
112105,-72.91666,4,1,0,90,0,1
112292,-74.07093,4,1,0,90,0,1
112386,-74.66507,4,1,0,90,0,1
112480,-75.26881,4,1,0,90,0,1
112573,-75.875824,4,1,0,90,0,1
112667,-76.49938,4,1,0,90,0,1
112761,-77.133286,4,1,0,90,0,1
112855,-77.77777,4,1,0,90,0,1
112948,-78.4261,4,1,0,90,0,1
113042,-79.09247,4,1,0,90,0,1
113136,-79.77026,4,1,0,90,0,1
113230,-80.45976,4,1,0,90,0,1
113323,-81.15378,4,1,0,90,0,1
113511,-82.593925,4,1,0,90,0,1
113605,-83.33333,4,1,0,90,0,1
113792,-66.666664,4,1,0,90,0,1
113886,-67.087074,4,1,0,90,0,1
113980,-67.512825,4,1,0,90,0,1
114073,-67.93939,4,1,0,90,0,1
114167,-68.37606,4,1,0,90,0,1
114261,-68.81838,4,1,0,90,0,1
114355,-69.266464,4,1,0,90,0,1
114448,-69.71555,4,1,0,90,0,1
114542,-70.17544,4,1,0,90,0,1
114636,-70.64142,4,1,0,90,0,1
114730,-71.11364,4,1,0,90,0,1
114823,-71.58708,4,1,0,90,0,1
115011,-72.563675,4,1,0,90,0,1
115105,-73.06203,4,1,0,90,0,1
115198,-73.56187,4,1,0,90,0,1
115292,-74.07407,4,1,0,90,0,1
115386,-74.59347,4,1,0,90,0,1
115480,-75.12019,4,1,0,90,0,1
115573,-75.64868,4,1,0,90,0,1
115761,-76.74008,4,1,0,90,0,1
115948,-77.85737,4,1,0,90,0,1
116042,-78.43137,4,1,0,90,0,1
116136,-79.01391,4,1,0,90,0,1
116230,-79.605156,4,1,0,90,0,1
116292,-80,4,1,0,90,0,1
116355,-80.40524,4,1,0,90,0,1
116417,-80.80808,4,1,0,90,0,1
116605,-82.05464,4,1,0,90,0,1
116667,-82.47423,4,1,0,90,0,1
116730,-82.90499,4,1,0,90,0,1
116792,-83.33333,4,1,0,90,0,1
116980,-66.666664,4,1,0,90,0,1
117167,-67.63023,4,1,0,90,0,1
117261,-68.12519,4,1,0,90,0,1
117355,-68.62745,4,1,0,90,0,1
117448,-69.1317,4,1,0,90,0,1
117542,-69.648964,4,1,0,90,0,1
117636,-70.174034,4,1,0,90,0,1
117730,-70.70707,4,1,0,90,0,1
117823,-71.24246,4,1,0,90,0,1
118011,-72.34993,4,1,0,90,0,1
118105,-72.91666,4,1,0,90,0,1
118292,-74.07093,4,1,0,90,0,1
118386,-74.66507,4,1,0,90,0,1
118480,-75.26881,4,1,0,90,0,1
118573,-75.875824,4,1,0,90,0,1
118667,-76.49938,4,1,0,90,0,1
118761,-77.133286,4,1,0,90,0,1
118855,-77.77777,4,1,0,90,0,1
118948,-78.4261,4,1,0,90,0,1
119042,-79.09247,4,1,0,90,0,1
119136,-79.77026,4,1,0,90,0,1
119230,-80.45976,4,1,0,90,0,1
119323,-81.15378,4,1,0,90,0,1
119511,-82.593925,4,1,0,90,0,1
119605,-83.33333,4,1,0,90,0,1
119792,-66.666664,4,1,0,90,0,1
119886,-67.3284,4,1,0,90,0,1
119980,-68.00341,4,1,0,90,0,1
120073,-68.684685,4,1,0,90,0,1
120167,-69.387314,4,1,0,90,0,1
120261,-70.10445,4,1,0,90,0,1
120355,-70.83657,4,1,0,90,0,1
120448,-71.5761,4,1,0,90,0,1
120542,-72.339455,4,1,0,90,0,1
120636,-73.11926,4,1,0,90,0,1
120730,-73.91606,4,1,0,90,0,1
120823,-74.721664,4,1,0,90,0,1
120917,-75.55397,4,1,0,90,0,1
121011,-76.40504,4,1,0,90,0,1
121105,-77.27548,4,1,0,90,0,1
121198,-78.15641,4,1,0,90,0,1
121292,-79.06746,4,1,0,90,0,1
121386,-80,4,1,0,90,0,1
121480,-80.954796,4,1,0,90,0,1
121542,-81.59713,4,1,0,90,0,1
121605,-82.26035,4,1,0,90,0,1
121667,-82.92365,4,1,0,90,0,1
121761,-83.94997,4,1,0,90,0,1
121855,-85.00201,4,1,0,90,0,1
121917,-85.71044,4,1,0,90,0,1
121980,-86.44251,4,1,0,90,0,1
122042,-87.175285,4,1,0,90,0,1
122136,-88.31025,4,1,0,90,0,1
122230,-89.47515,4,1,0,90,0,1
122328,-90.4977375565611,4,1,0,90,0,1
122417,-91.88643,4,1,0,90,0,1
122605,-95.2380952380952,4,1,0,90,0,1
122703,-96.226974,4,1,0,90,0,1
122792,-97.135895,4,1,0,90,0,1
122855,-98.07722,4,1,0,90,0,1
122917,-99.02159,4,1,0,90,0,1
122980,-100,4,1,0,90,0,1
122985,-100,4,1,0,90,0,0
123026,-100,4,1,0,90,0,0
123031,-100,4,1,0,70,0,0
123355,-100.947174,4,1,0,70,0,0
123730,-102.0489,4,1,0,70,0,0
124011,-102.89035,4,1,0,70,0,0
124292,-103.74579,4,1,0,70,0,0
124480,-104.32609,4,1,0,70,0,0
124667,-104.90979,4,1,0,70,0,0
124855,-105.50324,4,1,0,70,0,0
125230,-106.707245,4,1,0,70,0,0
125511,-107.62761,4,1,0,70,0,0
125792,-108.563995,4,1,0,70,0,0
125980,-109.19963,4,1,0,70,0,0
126355,-110.48999,4,1,0,70,0,0
126730,-111.81122,4,1,0,70,0,0
127011,-112.82215,4,1,0,70,0,0
127292,-113.85155,4,1,0,70,0,0
127480,-114.5508,4,1,0,70,0,0
127667,-115.254906,4,1,0,70,0,0
127855,-115.97154,4,1,0,70,0,0
128230,-100,4,1,0,70,0,0
128292,-101.4237,4,1,0,70,0,0
128355,-102.91249,4,1,0,70,0,0
128417,-104.420944,4,1,0,70,0,0
128511,-106.79423,4,1,0,70,0,0
128605,-109.27791,4,1,0,70,0,0
128667,-110.980286,4,1,0,70,0,0
128730,-112.76533,4,1,0,70,0,0
128792,-114.57898,4,1,0,70,0,0
128886,-117.44281,4,1,0,70,0,0
128980,-120.45345,4,1,0,70,0,0
129355,-122.0254,4,1,0,70,0,0
129730,-123.63892,4,1,0,70,0,0
130011,-124.876236,4,1,0,70,0,0
130292,-126.138565,4,1,0,70,0,0
130480,-126.99747,4,1,0,70,0,0
130855,-128.7461,4,1,0,70,0,0
131230,-130.54355,4,1,0,70,0,0
131511,-131.92369,4,1,0,70,0,0
131792,-133.33333,4,1,0,70,0,0
131980,-128.56055,4,1,0,70,0,0
132167,-124.140465,4,1,0,70,0,0
132355,-119.99289,4,1,0,70,0,0
132542,-116.13346,4,1,0,70,0,0
132730,-112.49583,4,1,0,70,0,0
132823,-110.77933,4,1,0,70,0,0
132917,-109.09679,4,1,0,70,0,0
133011,-107.464584,4,1,0,70,0,0
133105,-105.88051,4,1,0,70,0,0
133198,-104.358574,4,1,0,70,0,0
133292,-102.864105,4,1,0,70,0,0
133386,-101.41184,4,1,0,70,0,0
133480,-83.3333333333333,4,1,0,70,0,0
133761,-100,4,1,0,70,0,0

[HitObjects]
326,297,2422,5,0,0:0:0:0:
326,297,2516,1,0,0:0:0:0:
331,302,2610,1,0,0:0:0:0:
332,305,2703,1,0,0:0:0:0:
333,309,2797,1,0,0:0:0:0:
453,292,2985,1,12,0:0:0:0:
330,182,3266,1,8,0:0:0:0:
198,207,3453,1,0,0:0:0:0:
309,271,3641,1,8,0:0:0:0:
238,119,3828,1,8,0:0:0:0:
238,119,3922,1,0,0:0:0:0:
407,276,4110,1,8,0:0:0:0:
396,171,4297,1,0,0:0:0:0:
266,248,4485,1,8,0:0:0:0:
325,139,4766,1,0,0:0:0:0:
325,139,4953,1,8,0:0:0:0:
396,263,5141,1,0,0:0:0:0:
282,267,5328,1,0,0:0:0:0:
449,251,5422,1,8,0:0:0:0:
402,191,5610,1,0,0:0:0:0:
357,254,5985,1,8,0:0:0:0:
242,207,6266,1,0,0:0:0:0:
430,292,6453,1,8,0:0:0:0:
444,291,6641,1,8,0:0:0:0:
351,275,6828,1,0,0:0:0:0:
436,269,6922,1,8,0:0:0:0:
176,278,7110,1,8,0:0:0:0:
334,201,7297,1,0,0:0:0:0:
334,201,7485,1,8,0:0:0:0:
227,116,7578,1,0,0:0:0:0:
410,238,7766,1,8,0:0:0:0:
416,295,7953,1,0,0:0:0:0:
410,238,8047,1,8,0:0:0:0:
235,270,8235,1,8,0:0:0:0:
313,231,8422,1,0,0:0:0:0:
137,203,8516,1,0,0:0:0:0:
228,185,8610,1,8,0:0:0:0:
386,195,8797,1,0,0:0:0:0:
329,129,8985,1,12,0:0:0:0:
329,288,9266,1,0,0:0:0:0:
414,261,9453,1,8,0:0:0:0:
414,261,9547,1,0,0:0:0:0:
227,234,9641,1,8,0:0:0:0:
275,187,9828,1,8,0:0:0:0:
275,187,9922,1,0,0:0:0:0:
373,201,10110,1,8,0:0:0:0:
376,281,10297,1,8,0:0:0:0:
242,118,10485,1,4,0:0:0:0:
388,119,10766,1,0,0:0:0:0:
388,119,10953,1,8,0:0:0:0:
414,253,11047,1,0,0:0:0:0:
296,217,11235,1,8,0:0:0:0:
414,253,11422,1,0,0:0:0:0:
438,214,11610,1,8,0:0:0:0:
462,273,11703,1,8,0:0:0:0:
391,239,11797,1,0,0:0:0:0:
391,239,11985,1,4,0:0:0:0:
222,185,12172,1,0,0:0:0:0:
222,185,12266,1,0,0:0:0:0:
222,185,12360,1,8,0:0:0:0:
222,185,12453,1,8,0:0:0:0:
222,185,12547,1,0,0:0:0:0:
409,266,12735,1,8,0:0:0:0:
320,272,12828,1,8,0:0:0:0:
320,272,12922,1,0,0:0:0:0:
409,266,13016,1,0,0:0:0:0:
482,260,13110,1,8,0:0:0:0:
482,260,13297,1,0,0:0:0:0:
387,177,13485,1,0,0:0:0:0:
387,177,13578,1,0,0:0:0:0:
273,225,13766,1,8,0:0:0:0:
336,272,13953,1,8,0:0:0:0:
168,271,14047,1,0,0:0:0:0:
320,121,14141,1,0,0:0:0:0:
358,50,14235,1,8,0:0:0:0:
358,50,14422,1,0,0:0:0:0:
427,282,14610,1,8,0:0:0:0:
429,284,14672,1,8,0:0:0:0:
429,284,14735,1,8,0:0:0:0:
429,284,14797,1,0,0:0:0:0:
427,282,14985,1,12,0:0:0:0:
249,237,15266,1,0,0:0:0:0:
301,221,15360,1,8,0:0:0:0:
341,258,15453,1,0,0:0:0:0:
345,328,15641,1,0,0:0:0:0:
395,242,15828,1,0,0:0:0:0:
395,242,15922,1,8,0:0:0:0:
239,200,16110,1,8,0:0:0:0:
289,237,16297,1,0,0:0:0:0:
289,237,16391,1,0,0:0:0:0:
354,172,16485,1,8,0:0:0:0:
354,172,16578,1,0,0:0:0:0:
424,314,16766,1,0,0:0:0:0:
220,114,16860,1,8,0:0:0:0:
390,118,16953,1,0,0:0:0:0:
199,235,17141,1,8,0:0:0:0:
340,231,17328,1,8,0:0:0:0:
472,238,17422,1,0,0:0:0:0:
454,281,17610,1,8,0:0:0:0:
300,301,17703,1,0,0:0:0:0:
256,317,17797,1,8,0:0:0:0:
207,187,17985,1,0,0:0:0:0:
281,183,18078,1,0,0:0:0:0:
377,209,18266,1,0,0:0:0:0:
418,213,18360,1,8,0:0:0:0:
241,302,18453,1,0,0:0:0:0:
131,221,18641,1,0,0:0:0:0:
375,271,18828,1,0,0:0:0:0:
271,185,18922,1,8,0:0:0:0:
408,205,19110,1,0,0:0:0:0:
201,152,19297,1,0,0:0:0:0:
201,152,19391,1,0,0:0:0:0:
356,127,19485,1,8,0:0:0:0:
361,143,19578,1,0,0:0:0:0:
420,301,19766,1,0,0:0:0:0:
217,300,19953,1,0,0:0:0:0:
449,258,20047,1,8,0:0:0:0:
311,227,20235,1,8,0:0:0:0:
302,87,20328,1,8,0:0:0:0:
407,177,20422,1,0,0:0:0:0:
476,255,20610,1,0,0:0:0:0:
238,124,20703,1,0,0:0:0:0:
161,171,20797,1,8,0:0:0:0:
344,232,20985,1,12,0:0:0:0:
367,124,21266,1,0,0:0:0:0:
367,124,21360,1,8,0:0:0:0:
381,192,21453,1,0,0:0:0:0:
418,242,21547,1,0,0:0:0:0:
376,289,21735,1,8,0:0:0:0:
245,187,21922,1,0,0:0:0:0:
191,252,22016,1,8,0:0:0:0:
126,131,22110,1,0,0:0:0:0:
126,131,22203,1,0,0:0:0:0:
126,131,22297,1,8,0:0:0:0:
331,143,22485,1,12,0:0:0:0:
367,124,22766,1,0,0:0:0:0:
367,124,22860,1,8,0:0:0:0:
381,192,22953,1,8,0:0:0:0:
418,242,23047,1,0,0:0:0:0:
376,289,23235,1,8,0:0:0:0:
245,187,23422,1,0,0:0:0:0:
191,252,23516,1,0,0:0:0:0:
126,131,23610,1,8,0:0:0:0:
126,131,23703,1,8,0:0:0:0:
219,108,23797,1,0,0:0:0:0:
331,143,23985,1,4,0:0:0:0:
356,291,24172,1,0,0:0:0:0:
456,271,24266,1,0,0:0:0:0:
403,257,24360,1,8,0:0:0:0:
439,329,24453,1,8,0:0:0:0:
356,291,24547,1,0,0:0:0:0:
403,257,24735,1,8,0:0:0:0:
356,291,24828,1,0,0:0:0:0:
356,291,24922,1,0,0:0:0:0:
403,257,25016,1,0,0:0:0:0:
403,257,25110,1,8,0:0:0:0:
239,137,25297,1,0,0:0:0:0:
239,137,25391,1,0,0:0:0:0:
297,252,25485,1,12,0:0:0:0:
399,177,25672,1,0,0:0:0:0:
399,177,25766,1,0,0:0:0:0:
399,177,25860,1,8,0:0:0:0:
399,177,25953,1,0,0:0:0:0:
408,260,26047,1,8,0:0:0:0:
436,92,26235,1,0,0:0:0:0:
436,92,26328,1,0,0:0:0:0:
441,99,26422,1,0,0:0:0:0:
246,165,26610,1,8,0:0:0:0:
246,165,26703,1,8,0:0:0:0:
246,165,26797,1,0,0:0:0:0:
212,244,26985,1,12,0:0:0:0:
468,250,27172,1,0,0:0:0:0:
377,243,27266,1,0,0:0:0:0:
410,128,27360,1,8,0:0:0:0:
346,167,27453,1,0,0:0:0:0:
346,167,27547,1,8,0:0:0:0:
346,167,27735,1,0,0:0:0:0:
264,238,27828,1,8,0:0:0:0:
209,162,28016,1,8,0:0:0:0:
274,121,28110,1,0,0:0:0:0:
387,248,28297,1,8,0:0:0:0:
387,248,28391,1,8,0:0:0:0:
387,248,28485,1,0,0:0:0:0:
374,296,28578,1,0,0:0:0:0:
277,274,28766,1,8,0:0:0:0:
408,199,28860,1,0,0:0:0:0:
157,236,28953,1,0,0:0:0:0:
252,152,29047,1,8,0:0:0:0:
252,152,29235,1,0,0:0:0:0:
365,195,29328,1,0,0:0:0:0:
379,251,29516,1,0,0:0:0:0:
368,117,29610,1,8,0:0:0:0:
421,211,29797,1,0,0:0:0:0:
421,211,29891,1,0,0:0:0:0:
421,211,29985,1,8,0:0:0:0:
349,262,30078,1,8,0:0:0:0:
438,298,30266,1,8,0:0:0:0:
270,181,30360,1,0,0:0:0:0:
148,277,30453,1,0,0:0:0:0:
259,297,30547,1,8,0:0:0:0:
270,181,30735,1,0,0:0:0:0:
285,298,30828,1,8,0:0:0:0:
388,271,31016,1,8,0:0:0:0:
270,181,31110,1,0,0:0:0:0:
416,242,31297,1,0,0:0:0:0:
416,242,31391,1,0,0:0:0:0:
416,242,31485,1,8,0:0:0:0:
359,111,31578,1,8,0:0:0:0:
441,168,31766,1,0,0:0:0:0:
284,188,31953,1,0,0:0:0:0:
370,282,32047,1,8,0:0:0:0:
370,282,32235,1,8,0:0:0:0:
139,144,32297,1,8,0:0:0:0:
139,144,32360,1,8,0:0:0:0:
139,144,32422,1,0,0:0:0:0:
244,225,32610,1,0,0:0:0:0:
244,225,32672,1,0,0:0:0:0:
244,225,32735,1,0,0:0:0:0:
244,225,32797,1,8,0:0:0:0:
289,131,32985,1,4,0:0:0:0:
360,259,33172,1,8,0:0:0:0:
426,252,33266,1,0,0:0:0:0:
426,252,33360,1,8,0:0:0:0:
396,315,33453,1,8,0:0:0:0:
274,298,33547,1,0,0:0:0:0:
216,227,33735,1,8,0:0:0:0:
266,239,33828,1,0,0:0:0:0:
360,238,34016,1,0,0:0:0:0:
360,238,34110,1,8,0:0:0:0:
368,227,34297,1,8,0:0:0:0:
369,227,34391,1,0,0:0:0:0:
389,241,34485,1,8,0:0:0:0:
389,241,34578,1,8,0:0:0:0:
287,302,34766,1,0,0:0:0:0:
287,302,34860,1,8,0:0:0:0:
457,232,34953,1,8,0:0:0:0:
457,232,35047,1,0,0:0:0:0:
506,321,35235,1,8,0:0:0:0:
455,287,35328,1,0,0:0:0:0:
405,288,35516,1,0,0:0:0:0:
405,288,35610,1,8,0:0:0:0:
259,293,35797,1,0,0:0:0:0:
259,293,35891,1,0,0:0:0:0:
286,304,35985,1,8,0:0:0:0:
378,157,36078,1,8,0:0:0:0:
326,147,36266,1,0,0:0:0:0:
289,200,36360,1,8,0:0:0:0:
352,287,36547,1,0,0:0:0:0:
352,287,36641,1,0,0:0:0:0:
279,169,36735,1,8,0:0:0:0:
171,171,36828,1,0,0:0:0:0:
401,250,37016,1,0,0:0:0:0:
385,198,37110,1,8,0:0:0:0:
272,302,37297,1,0,0:0:0:0:
426,167,37485,1,8,0:0:0:0:
426,167,37578,1,8,0:0:0:0:
426,167,37672,1,8,0:0:0:0:
370,183,37766,1,0,0:0:0:0:
172,201,37953,1,0,0:0:0:0:
280,166,38047,1,8,0:0:0:0:
413,305,38235,1,8,0:0:0:0:
413,305,38297,1,8,0:0:0:0:
413,305,38360,1,8,0:0:0:0:
413,305,38422,1,0,0:0:0:0:
318,243,38610,1,0,0:0:0:0:
318,243,38672,1,0,0:0:0:0:
318,243,38735,1,0,0:0:0:0:
318,243,38797,1,8,0:0:0:0:
370,251,38985,1,4,0:0:0:0:
424,196,39172,1,8,0:0:0:0:
430,206,39266,1,0,0:0:0:0:
268,110,39360,1,8,0:0:0:0:
438,304,39453,1,8,0:0:0:0:
241,338,39547,1,0,0:0:0:0:
241,338,39735,1,8,0:0:0:0:
260,298,39828,1,0,0:0:0:0:
308,285,40016,1,0,0:0:0:0:
268,110,40110,1,8,0:0:0:0:
408,275,40297,1,0,0:0:0:0:
408,275,40391,1,0,0:0:0:0:
438,304,40485,1,8,0:0:0:0:
273,267,40578,1,8,0:0:0:0:
274,283,40766,1,0,0:0:0:0:
268,110,40860,1,8,0:0:0:0:
371,254,40953,1,0,0:0:0:0:
388,211,41047,1,8,0:0:0:0:
214,252,41235,1,8,0:0:0:0:
320,344,41328,1,0,0:0:0:0:
214,252,41516,1,0,0:0:0:0:
268,110,41610,1,8,0:0:0:0:
134,214,41703,1,8,0:0:0:0:
241,223,41797,1,0,0:0:0:0:
241,223,41891,1,0,0:0:0:0:
381,268,41985,1,8,0:0:0:0:
381,268,42078,1,0,0:0:0:0:
384,290,42266,1,0,0:0:0:0:
295,234,42360,1,8,0:0:0:0:
374,152,42547,1,8,0:0:0:0:
374,152,42641,1,8,0:0:0:0:
374,152,42735,1,0,0:0:0:0:
400,186,42828,1,8,0:0:0:0:
406,265,43016,1,0,0:0:0:0:
295,234,43110,1,8,0:0:0:0:
192,157,43297,1,8,0:0:0:0:
202,165,43391,1,0,0:0:0:0:
276,172,43485,1,8,0:0:0:0:
276,172,43578,1,8,0:0:0:0:
228,77,43672,1,0,0:0:0:0:
276,172,43766,1,0,0:0:0:0:
295,234,43860,1,8,0:0:0:0:
380,162,44047,1,8,0:0:0:0:
200,264,44141,1,0,0:0:0:0:
200,264,44235,1,8,0:0:0:0:
200,264,44297,1,8,0:0:0:0:
458,207,44360,1,8,0:0:0:0:
200,264,44422,1,0,0:0:0:0:
298,304,44610,1,0,0:0:0:0:
406,159,44672,1,0,0:0:0:0:
248,108,44735,1,0,0:0:0:0:
357,268,44797,1,8,0:0:0:0:
426,305,44985,1,8,0:0:0:0:
426,305,45078,1,0,0:0:0:0:
397,254,45266,1,0,0:0:0:0:
223,171,45360,1,8,0:0:0:0:
360,179,45453,1,8,0:0:0:0:
414,222,45547,1,0,0:0:0:0:
325,273,45641,1,8,0:0:0:0:
325,273,45735,1,0,0:0:0:0:
265,316,45828,1,0,0:0:0:0:
376,306,46016,1,0,0:0:0:0:
322,158,46110,1,8,0:0:0:0:
246,234,46203,1,0,0:0:0:0:
421,208,46297,1,8,0:0:0:0:
421,208,46391,1,8,0:0:0:0:
421,211,46485,1,0,0:0:0:0:
382,267,46578,1,0,0:0:0:0:
234,153,46766,1,0,0:0:0:0:
328,164,46860,1,8,0:0:0:0:
158,256,46953,1,8,0:0:0:0:
280,273,47047,1,0,0:0:0:0:
280,273,47235,1,8,0:0:0:0:
135,181,47328,1,0,0:0:0:0:
126,135,47516,1,0,0:0:0:0:
328,164,47610,1,8,0:0:0:0:
246,200,47703,1,0,0:0:0:0:
386,247,47797,1,8,0:0:0:0:
386,247,47985,1,0,0:0:0:0:
202,290,48078,1,0,0:0:0:0:
329,298,48172,1,8,0:0:0:0:
329,298,48266,1,0,0:0:0:0:
372,234,48360,1,8,0:0:0:0:
435,306,48453,1,8,0:0:0:0:
278,237,48547,1,0,0:0:0:0:
372,234,48735,1,8,0:0:0:0:
261,240,48828,1,0,0:0:0:0:
261,241,48922,1,0,0:0:0:0:
261,241,49016,1,0,0:0:0:0:
372,234,49110,1,8,0:0:0:0:
261,241,49203,1,0,0:0:0:0:
193,211,49297,1,8,0:0:0:0:
193,211,49391,1,8,0:0:0:0:
340,262,49485,1,4,0:0:0:0:
340,131,50235,1,0,0:0:0:0:
340,131,50328,1,0,0:0:0:0:
340,131,50422,1,0,0:0:0:0:
388,227,50610,1,8,0:0:0:0:
388,227,50703,1,8,0:0:0:0:
388,227,50797,1,0,0:0:0:0:
388,227,50891,1,0,0:0:0:0:
418,308,50985,1,12,0:0:0:0:
229,267,51266,1,0,0:0:0:0:
243,267,51360,1,8,0:0:0:0:
307,289,51547,1,0,0:0:0:0:
241,154,51735,1,8,0:0:0:0:
243,267,52016,1,8,0:0:0:0:
229,267,52110,1,0,0:0:0:0:
307,289,52297,1,8,0:0:0:0:
241,154,52485,1,0,0:0:0:0:
229,267,52766,1,0,0:0:0:0:
243,267,52860,1,8,0:0:0:0:
307,289,53047,1,0,0:0:0:0:
241,154,53235,1,8,0:0:0:0:
243,267,53516,1,8,0:0:0:0:
229,267,53610,1,0,0:0:0:0:
307,289,53797,1,8,0:0:0:0:
241,154,53985,1,0,0:0:0:0:
229,267,54266,1,0,0:0:0:0:
243,267,54360,1,8,0:0:0:0:
307,289,54547,1,0,0:0:0:0:
241,154,54735,1,8,0:0:0:0:
243,267,55016,1,8,0:0:0:0:
229,267,55110,1,0,0:0:0:0:
307,289,55297,1,8,0:0:0:0:
241,154,55485,1,0,0:0:0:0:
229,267,55766,1,0,0:0:0:0:
243,267,55860,1,8,0:0:0:0:
307,289,56047,1,0,0:0:0:0:
241,154,56235,1,8,0:0:0:0:
384,135,56328,1,8,0:0:0:0:
384,135,56422,1,0,0:0:0:0:
229,267,56610,1,0,0:0:0:0:
385,205,56703,1,0,0:0:0:0:
307,289,56797,1,8,0:0:0:0:
241,154,56985,1,4,0:0:0:0:
410,251,57266,1,0,0:0:0:0:
412,280,57360,1,8,0:0:0:0:
385,288,57547,1,0,0:0:0:0:
385,288,57641,1,0,0:0:0:0:
385,288,57735,1,8,0:0:0:0:
298,179,57922,1,8,0:0:0:0:
298,179,58016,1,0,0:0:0:0:
289,215,58110,1,8,0:0:0:0:
270,239,58297,1,0,0:0:0:0:
195,187,58485,1,12,0:0:0:0:
410,251,58766,1,0,0:0:0:0:
412,280,58860,1,8,0:0:0:0:
385,288,59047,1,0,0:0:0:0:
385,288,59141,1,0,0:0:0:0:
385,288,59235,1,8,0:0:0:0:
298,179,59422,1,8,0:0:0:0:
298,179,59516,1,0,0:0:0:0:
289,215,59610,1,8,0:0:0:0:
270,239,59797,1,0,0:0:0:0:
390,161,59891,1,0,0:0:0:0:
195,187,59985,1,12,0:0:0:0:
417,338,60172,1,8,0:0:0:0:
425,271,60266,1,0,0:0:0:0:
417,338,60360,1,8,0:0:0:0:
320,170,60547,1,0,0:0:0:0:
320,170,60641,1,0,0:0:0:0:
320,170,60735,1,8,0:0:0:0:
320,170,60828,1,8,0:0:0:0:
258,226,60922,1,8,0:0:0:0:
265,224,61110,1,0,0:0:0:0:
265,224,61203,1,8,0:0:0:0:
265,224,61297,1,0,0:0:0:0:
360,304,61391,1,0,0:0:0:0:
326,224,61485,1,8,0:0:0:0:
326,224,61860,1,8,0:0:0:0:
326,224,62235,1,8,0:0:0:0:
249,212,62610,1,0,0:0:0:0:
403,217,62985,1,4,0:0:0:0:
403,217,63360,1,4,0:0:0:0:
403,217,63735,1,4,0:0:0:0:
403,217,64016,1,4,0:0:0:0:
351,266,64297,1,4,0:0:0:0:
395,304,64485,1,4,0:0:0:0:
395,304,64860,1,4,0:0:0:0:
395,304,65235,1,4,0:0:0:0:
395,304,65516,1,4,0:0:0:0:
395,304,65797,1,4,0:0:0:0:
318,206,65985,1,4,0:0:0:0:
369,212,66360,1,4,0:0:0:0:
369,212,66735,1,4,0:0:0:0:
266,247,67016,1,4,0:0:0:0:
266,247,67297,1,4,0:0:0:0:
273,247,67485,1,4,0:0:0:0:
406,288,67860,1,12,0:0:0:0:
406,288,68047,1,4,0:0:0:0:
342,185,68235,1,4,0:0:0:0:
342,185,68422,1,4,0:0:0:0:
342,185,68610,1,12,0:0:0:0:
403,217,68985,1,4,0:0:0:0:
403,217,69360,1,4,0:0:0:0:
403,217,69735,1,4,0:0:0:0:
403,217,70016,1,4,0:0:0:0:
351,266,70297,1,4,0:0:0:0:
395,304,70485,1,4,0:0:0:0:
395,304,70860,1,4,0:0:0:0:
395,304,71235,1,4,0:0:0:0:
395,304,71516,1,4,0:0:0:0:
395,304,71797,1,4,0:0:0:0:
318,206,71985,1,4,0:0:0:0:
369,212,72360,1,4,0:0:0:0:
369,212,72735,1,4,0:0:0:0:
266,247,73016,1,4,0:0:0:0:
266,247,73297,1,4,0:0:0:0:
273,247,73485,1,4,0:0:0:0:
341,203,73672,1,8,0:0:0:0:
380,283,73766,1,8,0:0:0:0:
206,161,73860,1,0,0:0:0:0:
215,143,74047,1,0,0:0:0:0:
217,142,74141,1,0,0:0:0:0:
281,152,74235,1,8,0:0:0:0:
281,152,74328,1,0,0:0:0:0:
281,152,74422,1,8,0:0:0:0:
281,152,74610,1,0,0:0:0:0:
462,192,74703,1,0,0:0:0:0:
462,192,74797,1,8,0:0:0:0:
403,217,74985,1,4,0:0:0:0:
403,217,75360,1,12,0:0:0:0:
403,217,75735,1,4,0:0:0:0:
403,217,76016,1,4,0:0:0:0:
351,266,76297,1,4,0:0:0:0:
395,304,76485,1,4,0:0:0:0:
422,272,76860,1,12,0:0:0:0:
395,304,77235,1,4,0:0:0:0:
395,304,77516,1,4,0:0:0:0:
395,304,77797,1,4,0:0:0:0:
318,206,77985,1,4,0:0:0:0:
445,297,78360,1,12,0:0:0:0:
369,212,78735,1,4,0:0:0:0:
266,247,79016,1,4,0:0:0:0:
266,247,79297,1,4,0:0:0:0:
273,247,79485,1,4,0:0:0:0:
406,288,79860,1,12,0:0:0:0:
406,288,80047,1,4,0:0:0:0:
342,185,80235,1,4,0:0:0:0:
342,185,80422,1,4,0:0:0:0:
342,185,80610,1,12,0:0:0:0:
403,217,80985,1,4,0:0:0:0:
376,250,81360,1,12,0:0:0:0:
403,217,81735,1,4,0:0:0:0:
403,217,82016,1,4,0:0:0:0:
351,266,82297,1,4,0:0:0:0:
395,304,82485,1,4,0:0:0:0:
373,237,82860,1,12,0:0:0:0:
262,180,83047,1,4,0:0:0:0:
342,185,83235,1,4,0:0:0:0:
342,185,83422,1,4,0:0:0:0:
342,185,83610,1,12,0:0:0:0:
318,206,83985,1,4,0:0:0:0:
210,234,84172,1,8,0:0:0:0:
369,212,84360,1,4,0:0:0:0:
346,290,84547,1,8,0:0:0:0:
369,212,84735,1,4,0:0:0:0:
265,113,85016,1,4,0:0:0:0:
266,247,85297,1,4,0:0:0:0:
341,203,85484,1,8,0:0:0:0:
444,210,85547,1,8,0:0:0:0:
421,127,85609,1,8,0:0:0:0:
206,161,85672,1,0,0:0:0:0:
256,301,85860,1,8,0:0:0:0:
281,152,86047,1,0,0:0:0:0:
139,166,86141,1,0,0:0:0:0:
298,82,86235,1,8,0:0:0:0:
462,192,86422,1,0,0:0:0:0:
357,81,86610,1,8,0:0:0:0:
357,81,86703,1,8,0:0:0:0:
462,192,86797,1,0,0:0:0:0:
394,262,86985,1,12,0:0:0:0:
273,263,87266,1,8,0:0:0:0:
351,288,87453,1,0,0:0:0:0:
270,143,87641,1,8,0:0:0:0:
357,165,87828,1,0,0:0:0:0:
357,165,87922,1,0,0:0:0:0:
426,233,88110,1,8,0:0:0:0:
439,268,88297,1,0,0:0:0:0:
270,284,88485,1,8,0:0:0:0:
381,227,88766,1,8,0:0:0:0:
381,227,88953,1,0,0:0:0:0:
346,308,89141,1,8,0:0:0:0:
306,247,89328,1,8,0:0:0:0:
306,247,89422,1,0,0:0:0:0:
301,161,89610,1,8,0:0:0:0:
301,161,89797,1,8,0:0:0:0:
196,222,89985,1,0,0:0:0:0:
351,288,90266,1,0,0:0:0:0:
273,263,90453,1,0,0:0:0:0:
270,143,90641,1,8,0:0:0:0:
357,165,90828,1,0,0:0:0:0:
357,165,90922,1,8,0:0:0:0:
426,233,91110,1,0,0:0:0:0:
439,268,91297,1,0,0:0:0:0:
270,284,91485,1,8,0:0:0:0:
235,115,91766,1,0,0:0:0:0:
291,215,91953,1,8,0:0:0:0:
454,291,92047,1,8,0:0:0:0:
425,175,92235,1,0,0:0:0:0:
425,175,92328,1,0,0:0:0:0:
425,175,92422,1,8,0:0:0:0:
407,258,92610,1,8,0:0:0:0:
407,258,92703,1,8,0:0:0:0:
407,258,92797,1,0,0:0:0:0:
298,186,92985,1,12,0:0:0:0:
366,287,93266,1,0,0:0:0:0:
298,186,93360,1,8,0:0:0:0:
285,281,93453,1,0,0:0:0:0:
376,155,93641,1,0,0:0:0:0:
449,307,93735,1,8,0:0:0:0:
234,305,93828,1,8,0:0:0:0:
457,239,93922,1,0,0:0:0:0:
303,307,94110,1,8,0:0:0:0:
227,213,94297,1,0,0:0:0:0:
303,307,94485,1,12,0:0:0:0:
234,214,94766,1,0,0:0:0:0:
303,307,94860,1,8,0:0:0:0:
368,325,94953,1,0,0:0:0:0:
380,296,95141,1,0,0:0:0:0:
303,307,95235,1,8,0:0:0:0:
409,217,95422,1,0,0:0:0:0:
409,217,95516,1,0,0:0:0:0:
303,307,95610,1,8,0:0:0:0:
286,138,95797,1,0,0:0:0:0:
411,331,95985,1,12,0:0:0:0:
411,331,96172,1,0,0:0:0:0:
411,331,96360,1,12,0:0:0:0:
460,249,96547,1,0,0:0:0:0:
314,270,96735,1,0,0:0:0:0:
314,270,96828,1,0,0:0:0:0:
411,331,96922,1,8,0:0:0:0:
288,152,97016,1,0,0:0:0:0:
411,331,97110,1,8,0:0:0:0:
411,331,97297,1,8,0:0:0:0:
273,247,97485,1,0,0:0:0:0:
163,318,97547,1,0,0:0:0:0:
126,160,97610,1,0,0:0:0:0:
134,115,97672,1,8,0:0:0:0:
264,298,97860,1,8,0:0:0:0:
281,152,98047,1,0,0:0:0:0:
298,82,98141,1,0,0:0:0:0:
298,82,98235,1,8,0:0:0:0:
462,192,98422,1,0,0:0:0:0:
357,81,98610,1,8,0:0:0:0:
357,81,98703,1,8,0:0:0:0:
462,192,98797,1,0,0:0:0:0:
394,262,98985,1,12,0:0:0:0:
381,200,99735,1,12,0:0:0:0:
381,200,100016,1,12,0:0:0:0:
381,200,100297,1,12,0:0:0:0:
392,287,100485,1,4,0:0:0:0:
381,200,101235,1,4,0:0:0:0:
381,200,101516,1,4,0:0:0:0:
381,200,101797,1,4,0:0:0:0:
392,287,101985,1,12,0:0:0:0:
315,241,102735,1,4,0:0:0:0:
389,176,103016,1,12,0:0:0:0:
415,224,103297,1,4,0:0:0:0:
270,188,103485,1,8,0:0:0:0:
289,230,103547,1,8,0:0:0:0:
289,230,103610,1,8,0:0:0:0:
324,253,103672,1,0,0:0:0:0:
419,123,103860,1,8,0:0:0:0:
419,123,103922,1,8,0:0:0:0:
382,210,103985,1,0,0:0:0:0:
419,123,104047,1,0,0:0:0:0:
320,247,104235,1,8,0:0:0:0:
320,247,104297,1,0,0:0:0:0:
320,247,104360,1,0,0:0:0:0:
419,123,104422,1,8,0:0:0:0:
306,175,104610,1,8,0:0:0:0:
261,98,104672,1,8,0:0:0:0:
322,118,104735,1,8,0:0:0:0:
369,206,104797,1,0,0:0:0:0:
370,206,104860,1,0,0:0:0:0:
370,206,104922,1,0,0:0:0:0:
372,207,104985,1,12,0:0:0:0:
420,293,105360,1,8,0:0:0:0:
371,188,105547,1,8,0:0:0:0:
346,310,105641,1,0,0:0:0:0:
401,223,105735,1,8,0:0:0:0:
407,221,105922,1,0,0:0:0:0:
407,221,106016,1,0,0:0:0:0:
407,221,106110,1,8,0:0:0:0:
292,224,106297,1,0,0:0:0:0:
306,126,106485,1,12,0:0:0:0:
286,300,106672,1,0,0:0:0:0:
186,152,106766,1,0,0:0:0:0:
181,279,106860,1,8,0:0:0:0:
376,274,107047,1,8,0:0:0:0:
362,213,107141,1,0,0:0:0:0:
376,222,107235,1,8,0:0:0:0:
278,215,107422,1,0,0:0:0:0:
239,116,107610,1,8,0:0:0:0:
239,116,107703,1,8,0:0:0:0:
198,222,107797,1,0,0:0:0:0:
395,249,107985,1,12,0:0:0:0:
339,155,108172,1,0,0:0:0:0:
412,258,108360,1,12,0:0:0:0:
339,155,108547,1,0,0:0:0:0:
254,194,108735,1,0,0:0:0:0:
246,189,108828,1,0,0:0:0:0:
246,189,108922,1,0,0:0:0:0:
254,194,109110,1,8,0:0:0:0:
254,194,109203,1,8,0:0:0:0:
254,194,109297,1,8,0:0:0:0:
254,194,109391,1,8,0:0:0:0:
254,194,109485,1,4,0:0:0:0:
404,258,110235,1,0,0:0:0:0:
463,206,110297,1,0,0:0:0:0:
334,134,110360,1,0,0:0:0:0:
418,265,110422,1,8,0:0:0:0:
366,191,110610,1,8,0:0:0:0:
427,128,110672,1,8,0:0:0:0:
223,153,110735,1,8,0:0:0:0:
272,168,110797,1,0,0:0:0:0:
212,244,110985,1,12,0:0:0:0:
468,250,111172,1,0,0:0:0:0:
377,243,111266,1,0,0:0:0:0:
410,128,111360,1,8,0:0:0:0:
346,167,111453,1,0,0:0:0:0:
346,167,111547,1,8,0:0:0:0:
346,167,111735,1,0,0:0:0:0:
264,238,111828,1,8,0:0:0:0:
209,162,112016,1,8,0:0:0:0:
274,121,112110,1,0,0:0:0:0:
387,248,112297,1,8,0:0:0:0:
387,248,112391,1,8,0:0:0:0:
387,248,112485,1,0,0:0:0:0:
374,296,112578,1,0,0:0:0:0:
277,274,112766,1,8,0:0:0:0:
408,199,112860,1,0,0:0:0:0:
157,236,112953,1,0,0:0:0:0:
252,152,113047,1,8,0:0:0:0:
252,152,113235,1,0,0:0:0:0:
365,195,113328,1,0,0:0:0:0:
379,251,113516,1,0,0:0:0:0:
368,117,113610,1,8,0:0:0:0:
421,211,113797,1,0,0:0:0:0:
421,211,113891,1,0,0:0:0:0:
421,211,113985,1,8,0:0:0:0:
349,262,114078,1,8,0:0:0:0:
438,298,114266,1,8,0:0:0:0:
270,181,114360,1,0,0:0:0:0:
148,277,114453,1,0,0:0:0:0:
259,297,114547,1,8,0:0:0:0:
270,181,114735,1,0,0:0:0:0:
285,298,114828,1,8,0:0:0:0:
388,271,115016,1,8,0:0:0:0:
270,181,115110,1,0,0:0:0:0:
416,242,115297,1,0,0:0:0:0:
416,242,115391,1,0,0:0:0:0:
416,242,115485,1,8,0:0:0:0:
359,111,115578,1,8,0:0:0:0:
441,168,115766,1,0,0:0:0:0:
284,188,115953,1,0,0:0:0:0:
370,282,116047,1,8,0:0:0:0:
370,282,116235,1,8,0:0:0:0:
139,144,116297,1,8,0:0:0:0:
139,144,116360,1,8,0:0:0:0:
139,144,116422,1,0,0:0:0:0:
244,225,116610,1,0,0:0:0:0:
244,225,116672,1,0,0:0:0:0:
244,225,116735,1,0,0:0:0:0:
244,225,116797,1,8,0:0:0:0:
289,131,116985,1,4,0:0:0:0:
360,259,117172,1,8,0:0:0:0:
426,252,117266,1,0,0:0:0:0:
426,252,117360,1,8,0:0:0:0:
396,315,117453,1,8,0:0:0:0:
274,298,117547,1,0,0:0:0:0:
216,227,117735,1,8,0:0:0:0:
266,239,117828,1,0,0:0:0:0:
360,238,118016,1,0,0:0:0:0:
360,238,118110,1,8,0:0:0:0:
368,227,118297,1,8,0:0:0:0:
369,227,118391,1,0,0:0:0:0:
389,241,118485,1,8,0:0:0:0:
389,241,118578,1,8,0:0:0:0:
287,302,118766,1,0,0:0:0:0:
287,302,118860,1,8,0:0:0:0:
457,232,118953,1,8,0:0:0:0:
457,232,119047,1,0,0:0:0:0:
506,321,119235,1,8,0:0:0:0:
455,287,119328,1,0,0:0:0:0:
405,288,119516,1,0,0:0:0:0:
405,288,119610,1,8,0:0:0:0:
259,293,119797,1,0,0:0:0:0:
259,293,119891,1,0,0:0:0:0:
286,304,119985,1,8,0:0:0:0:
378,157,120078,1,8,0:0:0:0:
326,147,120266,1,0,0:0:0:0:
289,200,120360,1,8,0:0:0:0:
421,282,120453,1,8,0:0:0:0:
352,287,120547,1,0,0:0:0:0:
352,287,120641,1,0,0:0:0:0:
279,169,120735,1,8,0:0:0:0:
171,171,120828,1,0,0:0:0:0:
401,250,121016,1,0,0:0:0:0:
385,198,121110,1,8,0:0:0:0:
272,302,121297,1,0,0:0:0:0:
272,302,121391,1,0,0:0:0:0:
426,167,121485,1,8,0:0:0:0:
426,167,121547,1,8,0:0:0:0:
426,167,121610,1,8,0:0:0:0:
426,167,121672,1,0,0:0:0:0:
413,305,121860,1,8,0:0:0:0:
413,305,121922,1,8,0:0:0:0:
413,305,121985,1,8,0:0:0:0:
413,305,122047,1,0,0:0:0:0:
370,183,122235,1,0,0:0:0:0:
215,70,122328,1,0,0:0:0:0:
280,166,122422,1,8,0:0:0:0:
318,243,122610,1,8,0:0:0:0:
318,243,122703,1,8,0:0:0:0:
318,243,122797,1,0,0:0:0:0:
370,251,122985,1,4,0:0:0:0:
158,298,123360,1,0,0:0:0:0:
351,286,123735,1,0,0:0:0:0:
158,298,124016,1,0,0:0:0:0:
282,203,124297,1,0,0:0:0:0:
363,291,124672,1,0,0:0:0:0:
363,291,124860,1,0,0:0:0:0:
350,285,125235,1,0,0:0:0:0:
350,285,125516,1,0,0:0:0:0:
350,285,125797,1,0,0:0:0:0:
311,187,125985,1,8,0:0:0:0:
341,241,126360,1,8,0:0:0:0:
341,241,126735,1,8,0:0:0:0:
341,241,127016,1,8,0:0:0:0:
341,241,127297,1,8,0:0:0:0:
337,316,127672,1,8,0:0:0:0:
356,320,127860,1,8,0:0:0:0:
356,320,128235,1,0,0:0:0:0:
356,320,128297,1,0,0:0:0:0:
426,316,128360,1,0,0:0:0:0:
285,147,128422,1,8,0:0:0:0:
356,320,128610,1,8,0:0:0:0:
356,320,128672,1,8,0:0:0:0:
426,316,128735,1,8,0:0:0:0:
285,147,128797,1,0,0:0:0:0:
256,241,128985,1,4,0:0:0:0:
437,243,129360,1,0,0:0:0:0:
448,262,129735,1,0,0:0:0:0:
341,194,130016,1,0,0:0:0:0:
341,194,130297,1,0,0:0:0:0:
271,220,130485,1,12,0:0:0:0:
359,252,130860,1,8,0:0:0:0:
359,252,131235,1,8,0:0:0:0:
359,252,131516,1,8,0:0:0:0:
359,252,131797,1,8,0:0:0:0:
386,223,131985,1,4,0:0:0:0:
387,293,132172,1,8,0:0:0:0:
387,293,132360,1,0,0:0:0:0:
387,293,132547,1,8,0:0:0:0:
387,293,132735,1,0,0:0:0:0:
274,249,132828,1,0,0:0:0:0:
387,293,132922,1,0,0:0:0:0:
274,249,133110,1,0,0:0:0:0:
274,249,133203,1,0,0:0:0:0:
274,249,133297,1,0,0:0:0:0:
274,249,133391,1,0,0:0:0:0:
283,140,133485,1,12,0:0:0:0:
187,151,133766,1,0,0:0:0:0:
416,284,133953,1,8,0:0:0:0:
392,283,134141,1,0,0:0:0:0:
392,283,134235,1,0,0:0:0:0:
385,287,134422,1,8,0:0:0:0:
371,290,134610,1,0,0:0:0:0:
371,290,134797,1,8,0:0:0:0:
