osu file format v14

[General]
AudioFilename: audio.mp3
AudioLeadIn: 0
PreviewTime: 26985
Countdown: 0
SampleSet: Normal
StackLeniency: 0.7
Mode: 1
LetterboxInBreaks: 0
WidescreenStoryboard: 0

[Editor]
Bookmarks: 14985,20985,26985,38985,50985,56985,61485,62985,74985,85485,86985,95985
DistanceSpacing: 1.9
BeatDivisor: 4
GridSize: 32
TimelineZoom: 3.399999

[Metadata]
Title:Love Kills U
TitleUnicode:Love Kills U
Artist:EmoCosine
ArtistUnicode:EmoCosine
Creator:GIGACHAD
Version:Devotion
Source:WACCA Reverse
Tags:featured artist chatter izzeee ikin5050 dako electronic instrumental hardstyle future bass jersey club
BeatmapID:3514399
BeatmapSetID:1719687

[Difficulty]
HPDrainRate:6
CircleSize:2
OverallDifficulty:6.5
ApproachRate:9.6
SliderMultiplier:1.4
SliderTickRate:1

[Events]
//Background and Video events
0,0,"jr-korpa-7NoLliK6ntc-unsplash.jpg",0,100
//Break Periods
//Storyboard Layer 0 (Background)
//Storyboard Layer 1 (Fail)
//Storyboard Layer 2 (Pass)
//Storyboard Layer 3 (Foreground)
//Storyboard Layer 4 (Overlay)
//Storyboard Sound Samples

[TimingPoints]
-15,375,4,1,0,50,1,0
1461,-133.333333333333,4,1,0,50,0,0
2417,-133.33333,4,1,0,50,0,0
2511,-123.27025,4,1,0,50,0,0
2605,-113.966675,4,1,0,50,0,0
2698,-105.45326,4,1,0,50,0,0
2792,-97.494385,4,1,0,50,0,0
2886,-90.136185,4,1,0,50,0,0
2961,-90.136185,4,1,0,70,0,0
2985,375,4,2,0,70,1,0
2985,-83.33333,4,1,0,70,0,0
3266,-90.90909,4,1,0,70,0,0
3453,-91.47138,4,1,0,70,0,0
3547,-91.75666,4,1,0,70,0,0
3641,-92.04373,4,1,0,70,0,0
3828,-92.62019,4,1,0,70,0,0
3922,-92.9127,4,1,0,70,0,0
4110,-93.50329,4,1,0,70,0,0
4297,-94.09823,4,1,0,70,0,0
4485,-94.70404,4,1,0,70,0,0
4578,-95.006615,4,1,0,70,0,0
4766,-95.62421,4,1,0,70,0,0
4953,-96.246544,4,1,0,70,0,0
5047,-96.56244,4,1,0,70,0,0
5141,-96.88042,4,1,0,70,0,0
5328,-97.519264,4,1,0,70,0,0
5422,-97.84358,4,1,0,70,0,0
5610,-98.49874,4,1,0,70,0,0
5703,-98.826096,4,1,0,70,0,0
5797,-99.15918,4,1,0,70,0,0
5985,-99.83214,4,1,0,70,0,0
6078,-100.16843,4,1,0,70,0,0
6266,-100.8552,4,1,0,70,0,0
6453,-101.54772,4,1,0,70,0,0
6547,-101.899445,4,1,0,70,0,0
6641,-102.25361,4,1,0,70,0,0
6828,-102.965546,4,1,0,70,0,0
6922,-103.32717,4,1,0,70,0,0
7110,-104.058105,4,1,0,70,0,0
7297,-104.79547,4,1,0,70,0,0
7485,-105.54739,4,1,0,70,0,0
7578,-105.92336,4,1,0,70,0,0
7766,-106.69161,4,1,0,70,0,0
7953,-107.46692,4,1,0,70,0,0
8047,-107.860916,4,1,0,70,0,0
8141,-108.25781,4,1,0,70,0,0
8235,-108.657646,4,1,0,70,0,0
8422,-109.4619,4,1,0,70,0,0
8516,-109.87068,4,1,0,70,0,0
8610,-110.28253,4,1,0,70,0,0
8797,-111.111115,4,1,0,70,0,0
8985,-76.9230769230769,4,1,0,70,0,0
9266,-86.95652,4,1,0,70,0,0
9360,-88.003075,4,1,0,70,0,0
9453,-89.063576,4,1,0,70,0,0
9547,-90.16179,4,1,0,70,0,0
9641,-91.28741,4,1,0,70,0,0
9828,-93.61239,4,1,0,70,0,0
9922,-94.8264,4,1,0,70,0,0
10016,-96.0723,4,1,0,70,0,0
10110,-97.351395,4,1,0,70,0,0
10297,-100,4,1,0,70,0,0
10485,-66.6666666666667,4,1,0,70,0,0
10766,-90.9090909090909,4,1,0,70,0,0
10860,-87.719298245614,4,1,0,70,0,0
10953,-84.7457627118644,4,1,0,70,0,0
11047,-81.9672131147541,4,1,0,70,0,0
11235,-87.719298245614,4,1,0,70,0,0
11328,-84.7457627118644,4,1,0,70,0,0
11422,-81.9672131147541,4,1,0,70,0,0
11610,-87.719298245614,4,1,0,70,0,0
11703,-84.7457627118644,4,1,0,70,0,0
11797,-81.9672131147541,4,1,0,70,0,0
11985,-66.6666666666667,4,1,0,70,0,0
12172,-83.33333,4,1,0,70,0,0
12266,-84.51022,4,1,0,70,0,0
12360,-85.72082,4,1,0,70,0,0
12453,-86.95316,4,1,0,70,0,0
12547,-88.2353,4,1,0,70,0,0
12641,-89.5558,4,1,0,70,0,0
12735,-90.91644,4,1,0,70,0,0
12828,-92.30391,4,1,0,70,0,0
12922,-93.74999,4,1,0,70,0,0
13016,-95.24212,4,1,0,70,0,0
13110,-96.782524,4,1,0,70,0,0
13203,-98.35635,4,1,0,70,0,0
13297,-100,4,1,0,70,0,0
13485,-76.92308,4,1,0,70,0,0
13547,-77.66387,4,1,0,70,0,0
13610,-78.43138,4,1,0,70,0,0
13672,-79.20165,4,1,0,70,0,0
13766,-80.39878,4,1,0,70,0,0
13860,-81.63266,4,1,0,70,0,0
13922,-82.46742,4,1,0,70,0,0
13985,-83.333336,4,1,0,70,0,0
14047,-84.203445,4,1,0,70,0,0
14141,-85.55784,4,1,0,70,0,0
14235,-86.95652,4,1,0,70,0,0
14297,-87.904366,4,1,0,70,0,0
14360,-88.888885,4,1,0,70,0,0
14422,-89.87956,4,1,0,70,0,0
14516,-91.42439,4,1,0,70,0,0
14610,-93.023254,4,1,0,70,0,0
14672,-94.108795,4,1,0,70,0,0
14735,-95.2381,4,1,0,70,0,0
14797,-96.37626,4,1,0,70,0,0
14860,-97.560974,4,1,0,70,0,0
14922,-98.755684,4,1,0,70,0,0
14961,-98.755684,4,1,0,80,0,0
14985,-76.9230769230769,4,1,0,80,0,0
15266,-76.92308,4,1,0,80,0,0
15360,-77.0523,4,1,0,80,0,0
15453,-77.18056,4,1,0,80,0,0
15641,-77.44114,4,1,0,80,0,0
15828,-77.702095,4,1,0,80,0,0
15922,-77.83394,4,1,0,80,0,0
16110,-78.09897,4,1,0,80,0,0
16203,-78.23074,4,1,0,80,0,0
16297,-78.36439,4,1,0,80,0,0
16391,-78.49849,4,1,0,80,0,0
16485,-78.63305,4,1,0,80,0,0
16578,-78.766624,4,1,0,80,0,0
16766,-79.03806,4,1,0,80,0,0
16860,-79.17448,4,1,0,80,0,0
16953,-79.309906,4,1,0,80,0,0
17047,-79.447266,4,1,0,80,0,0
17141,-79.5851,4,1,0,80,0,0
17328,-79.86073,4,1,0,80,0,0
17422,-80,4,1,0,80,0,0
17516,-80.13976,4,1,0,80,0,0
17610,-80.280014,4,1,0,80,0,0
17703,-80.41925,4,1,0,80,0,0
17797,-80.56049,4,1,0,80,0,0
17985,-80.844444,4,1,0,80,0,0
18078,-80.98565,4,1,0,80,0,0
18266,-81.27262,4,1,0,80,0,0
18360,-81.41687,4,1,0,80,0,0
18453,-81.56008,4,1,0,80,0,0
18547,-81.70535,4,1,0,80,0,0
18641,-81.85114,4,1,0,80,0,0
18828,-82.14272,4,1,0,80,0,0
18922,-82.29008,4,1,0,80,0,0
19016,-82.43796,4,1,0,80,0,0
19110,-82.58639,4,1,0,80,0,0
19297,-82.88323,4,1,0,80,0,0
19391,-83.03326,4,1,0,80,0,0
19485,-83.18382,4,1,0,80,0,0
19578,-83.33333,4,1,0,80,0,0
20235,-76.9230769230769,4,1,0,80,0,0
20297,-78.4313725490196,4,1,0,80,0,0
20360,-80,4,1,0,80,0,0
20422,-81.6326530612245,4,1,0,80,0,0
20610,-81.6326530612245,4,1,0,80,0,0
20672,-80,4,1,0,80,0,0
20735,-78.4313725490196,4,1,0,80,0,0
20797,-76.9230769230769,4,1,0,80,0,0
20985,-76.9230769230769,4,1,0,80,0,0
21266,-76.92308,4,1,0,80,0,0
21360,-77.12819,4,1,0,80,0,0
21453,-77.3322,4,1,0,80,0,0
21547,-77.539505,4,1,0,80,0,0
21641,-77.74792,4,1,0,80,0,0
21735,-77.95746,4,1,0,80,0,0
21922,-78.37768,4,1,0,80,0,0
22016,-78.59063,4,1,0,80,0,0
22110,-78.80474,4,1,0,80,0,0
22203,-79.01773,4,1,0,80,0,0
22297,-79.23418,4,1,0,80,0,0
22391,-79.45182,4,1,0,80,0,0
22485,-79.670654,4,1,0,80,0,0
22766,-80.332085,4,1,0,80,0,0
22860,-80.55581,4,1,0,80,0,0
22953,-80.77837,4,1,0,80,0,0
23047,-81.00459,4,1,0,80,0,0
23141,-81.23208,4,1,0,80,0,0
23235,-81.460846,4,1,0,80,0,0
23422,-81.9198,4,1,0,80,0,0
23516,-82.15246,4,1,0,80,0,0
23610,-82.38645,4,1,0,80,0,0
23703,-82.61927,4,1,0,80,0,0
23797,-82.85593,4,1,0,80,0,0
23891,-83.09395,4,1,0,80,0,0
23985,-83.33333,4,1,0,80,0,0
24172,-81.63709,4,1,0,80,0,0
24266,-80.81026,4,1,0,80,0,0
24360,-79.99999,4,1,0,80,0,0
24453,-79.214195,4,1,0,80,0,0
24547,-78.43546,4,1,0,80,0,0
24735,-76.92308,4,1,0,80,0,0
24828,-76.19627,4,1,0,80,0,0
24922,-75.475494,4,1,0,80,0,0
25016,-74.76822,4,1,0,80,0,0
25110,-74.07407,4,1,0,80,0,0
25203,-73.39988,4,1,0,80,0,0
25297,-72.7308,4,1,0,80,0,0
25391,-72.07381,4,1,0,80,0,0
25485,-66.6666666666667,4,1,0,80,0,0
25672,-90.90909,4,1,0,80,0,0
25766,-92.596245,4,1,0,80,0,0
25860,-94.34721,4,1,0,80,0,0
25953,-96.14596,4,1,0,80,0,0
26047,-98.03512,4,1,0,80,0,0
26141,-100,4,1,0,80,0,0
26235,-90.9090909090909,4,1,0,80,0,0
26297,-93.0232558139535,4,1,0,80,0,0
26360,-95.2380952380952,4,1,0,80,0,0
26422,-97.5609756097561,4,1,0,80,0,0
26610,-90.9090909090909,4,1,0,80,0,0
26672,-93.0232558139535,4,1,0,80,0,0
26735,-95.2380952380952,4,1,0,80,0,0
26797,-97.5609756097561,4,1,0,80,0,0
26961,-97.5609756097561,4,1,0,90,0,0
26985,-66.666664,4,1,0,90,0,1
27172,-67.63023,4,1,0,90,0,1
27266,-68.12519,4,1,0,90,0,1
27360,-68.62745,4,1,0,90,0,1
27453,-69.1317,4,1,0,90,0,1
27547,-69.648964,4,1,0,90,0,1
27641,-70.174034,4,1,0,90,0,1
27735,-70.70707,4,1,0,90,0,1
27828,-71.24246,4,1,0,90,0,1
28016,-72.34993,4,1,0,90,0,1
28110,-72.91666,4,1,0,90,0,1
28297,-74.07093,4,1,0,90,0,1
28391,-74.66507,4,1,0,90,0,1
28485,-75.26881,4,1,0,90,0,1
28578,-75.875824,4,1,0,90,0,1
28672,-76.49938,4,1,0,90,0,1
28766,-77.133286,4,1,0,90,0,1
28860,-77.77777,4,1,0,90,0,1
28953,-78.4261,4,1,0,90,0,1
29047,-79.09247,4,1,0,90,0,1
29141,-79.77026,4,1,0,90,0,1
29235,-80.45976,4,1,0,90,0,1
29328,-81.15378,4,1,0,90,0,1
29516,-82.593925,4,1,0,90,0,1
29610,-83.33333,4,1,0,90,0,1
29797,-66.666664,4,1,0,90,0,1
29891,-67.087074,4,1,0,90,0,1
29985,-67.512825,4,1,0,90,0,1
30078,-67.93939,4,1,0,90,0,1
30172,-68.37606,4,1,0,90,0,1
30266,-68.81838,4,1,0,90,0,1
30360,-69.266464,4,1,0,90,0,1
30453,-69.71555,4,1,0,90,0,1
30547,-70.17544,4,1,0,90,0,1
30641,-70.64142,4,1,0,90,0,1
30735,-71.11364,4,1,0,90,0,1
30828,-71.58708,4,1,0,90,0,1
31016,-72.563675,4,1,0,90,0,1
31110,-73.06203,4,1,0,90,0,1
31203,-73.56187,4,1,0,90,0,1
31297,-74.07407,4,1,0,90,0,1
31391,-74.59347,4,1,0,90,0,1
31485,-75.12019,4,1,0,90,0,1
31578,-75.64868,4,1,0,90,0,1
31766,-76.74008,4,1,0,90,0,1
31953,-77.85737,4,1,0,90,0,1
32047,-78.43137,4,1,0,90,0,1
32141,-79.01391,4,1,0,90,0,1
32235,-79.605156,4,1,0,90,0,1
32297,-80,4,1,0,90,0,1
32360,-80.40524,4,1,0,90,0,1
32422,-80.80808,4,1,0,90,0,1
32610,-82.05464,4,1,0,90,0,1
32672,-82.47423,4,1,0,90,0,1
32735,-82.90499,4,1,0,90,0,1
32797,-83.33333,4,1,0,90,0,1
32985,-66.666664,4,1,0,90,0,1
33172,-67.63023,4,1,0,90,0,1
33266,-68.12519,4,1,0,90,0,1
33360,-68.62745,4,1,0,90,0,1
33453,-69.1317,4,1,0,90,0,1
33547,-69.648964,4,1,0,90,0,1
33641,-70.174034,4,1,0,90,0,1
33735,-70.70707,4,1,0,90,0,1
33828,-71.24246,4,1,0,90,0,1
34016,-72.34993,4,1,0,90,0,1
34110,-72.91666,4,1,0,90,0,1
34297,-74.07093,4,1,0,90,0,1
34391,-74.66507,4,1,0,90,0,1
34485,-75.26881,4,1,0,90,0,1
34578,-75.875824,4,1,0,90,0,1
34672,-76.49938,4,1,0,90,0,1
34766,-77.133286,4,1,0,90,0,1
34860,-77.77777,4,1,0,90,0,1
34953,-78.4261,4,1,0,90,0,1
35047,-79.09247,4,1,0,90,0,1
35141,-79.77026,4,1,0,90,0,1
35235,-80.45976,4,1,0,90,0,1
35328,-81.15378,4,1,0,90,0,1
35516,-82.593925,4,1,0,90,0,1
35610,-83.33333,4,1,0,90,0,1
35797,-66.666664,4,1,0,90,0,1
35891,-67.22839,4,1,0,90,0,1
35985,-67.799675,4,1,0,90,0,1
36078,-68.37451,4,1,0,90,0,1
36172,-68.965515,4,1,0,90,0,1
36266,-69.566826,4,1,0,90,0,1
36360,-70.17873,4,1,0,90,0,1
36453,-70.794785,4,1,0,90,0,1
36547,-71.42857,4,1,0,90,0,1
36641,-72.07381,4,1,0,90,0,1
36735,-72.7308,4,1,0,90,0,1
36828,-73.3927,4,1,0,90,0,1
37016,-74.76822,4,1,0,90,0,1
37110,-75.475494,4,1,0,90,0,1
37297,-76.92308,4,1,0,90,0,1
37391,-77.92479,4,1,0,90,0,1
37485,-78.95291,4,1,0,90,0,1
37547,-79.64603,4,1,0,90,0,1
37610,-80.36289,4,1,0,90,0,1
37672,-81.081085,4,1,0,90,0,1
37766,-82.19479,4,1,0,90,0,1
37860,-83.339516,4,1,0,90,0,1
37953,-84.503876,4,1,0,90,0,1
38047,-85.71429,4,1,0,90,0,1
38141,-86.959885,4,1,0,90,0,1
38235,-88.242226,4,1,0,90,0,1
38297,-89.10892,4,1,0,90,0,1
38360,-90.00721,4,1,0,90,0,1
38422,-90.909096,4,1,0,90,0,1
38610,-90.909096,4,1,0,90,0,1
38672,-85.753494,4,1,0,90,0,1
38735,-81.08108,4,1,0,90,0,1
38797,-76.95464,4,1,0,90,0,1
38860,-73.17073,4,1,0,90,0,1
38922,-69.79341,4,1,0,90,0,1
38985,-66.666664,4,1,0,90,0,1
39172,-67.748085,4,1,0,90,0,1
39266,-68.30505,4,1,0,90,0,1
39360,-68.871254,4,1,0,90,0,1
39453,-69.440735,4,1,0,90,0,1
39547,-70.02599,4,1,0,90,0,1
39641,-70.62121,4,1,0,90,0,1
39735,-71.22662,4,1,0,90,0,1
39828,-71.83591,4,1,0,90,0,1
40016,-73.09996,4,1,0,90,0,1
40110,-73.74882,4,1,0,90,0,1
40203,-74.4022,4,1,0,90,0,1
40297,-75.074486,4,1,0,90,0,1
40391,-75.75903,4,1,0,90,0,1
40485,-76.456184,4,1,0,90,0,1
40578,-77.15866,4,1,0,90,0,1
40672,-77.88193,4,1,0,90,0,1
40766,-78.61888,4,1,0,90,0,1
40860,-79.36992,4,1,0,90,0,1
40953,-80.12721,4,1,0,90,0,1
41047,-80.90748,4,1,0,90,0,1
41235,-82.51452,4,1,0,90,0,1
41328,-83.33333,4,1,0,90,0,1
41516,-66.666664,4,1,0,90,0,1
41610,-67.050865,4,1,0,90,0,1
41703,-67.435356,4,1,0,90,0,1
41797,-67.82849,4,1,0,90,0,1
41891,-68.226234,4,1,0,90,0,1
41985,-68.62868,4,1,0,90,0,1
42078,-69.03153,4,1,0,90,0,1
42172,-69.44356,4,1,0,90,0,1
42266,-69.86053,4,1,0,90,0,1
42360,-70.28254,4,1,0,90,0,1
42453,-70.70511,4,1,0,90,0,1
42547,-71.13741,4,1,0,90,0,1
42641,-71.57504,4,1,0,90,0,1
42735,-72.01808,4,1,0,90,0,1
42828,-72.461845,4,1,0,90,0,1
43016,-73.375824,4,1,0,90,0,1
43110,-73.841515,4,1,0,90,0,1
43297,-74.785736,4,1,0,90,0,1
43391,-75.269554,4,1,0,90,0,1
43485,-75.759674,4,1,0,90,0,1
43578,-76.2509,4,1,0,90,0,1
43672,-76.75392,4,1,0,90,0,1
43766,-77.263626,4,1,0,90,0,1
43860,-77.78014,4,1,0,90,0,1
43953,-78.29801,4,1,0,90,0,1
44047,-78.82851,4,1,0,90,0,1
44141,-79.36623,4,1,0,90,0,1
44235,-79.91134,4,1,0,90,0,1
44297,-80.275,4,1,0,90,0,1
44360,-80.647934,4,1,0,90,0,1
44422,-81.01835,4,1,0,90,0,1
44610,-82.16262,4,1,0,90,0,1
44672,-82.54712,4,1,0,90,0,1
44735,-82.9415,4,1,0,90,0,1
44797,-83.33333,4,1,0,90,0,1
44985,-66.666664,4,1,0,90,0,1
45078,-67.12911,4,1,0,90,0,1
45266,-68.08382,4,1,0,90,0,1
45360,-68.57143,4,1,0,90,0,1
45453,-69.06077,4,1,0,90,0,1
45547,-69.56253,4,1,0,90,0,1
45641,-70.071625,4,1,0,90,0,1
45735,-70.588234,4,1,0,90,0,1
45828,-71.106895,4,1,0,90,0,1
46016,-72.179,4,1,0,90,0,1
46110,-72.727264,4,1,0,90,0,1
46203,-73.27797,4,1,0,90,0,1
46297,-73.84312,4,1,0,90,0,1
46391,-74.41706,4,1,0,90,0,1
46485,-75,4,1,0,90,0,1
46578,-75.585785,4,1,0,90,0,1
46672,-76.18725,4,1,0,90,0,1
46766,-76.79836,4,1,0,90,0,1
46860,-77.41935,4,1,0,90,0,1
46953,-78.0437,4,1,0,90,0,1
47047,-78.68508,4,1,0,90,0,1
47235,-80,4,1,0,90,0,1
47328,-80.66685,4,1,0,90,0,1
47516,-82.0494,4,1,0,90,0,1
47610,-82.75862,4,1,0,90,0,1
47703,-83.47245,4,1,0,90,0,1
47797,-84.20659,4,1,0,90,0,1
47891,-84.95374,4,1,0,90,0,1
47985,-85.71428,4,1,0,90,0,1
48078,-86.480255,4,1,0,90,0,1
48172,-87.26849,4,1,0,90,0,1
48266,-88.07124,4,1,0,90,0,1
48360,-88.888885,4,1,0,90,0,1
48453,-89.71291,4,1,0,90,0,1
48547,-90.561485,4,1,0,90,0,1
48641,-91.42624,4,1,0,90,0,1
48735,-92.307686,4,1,0,90,0,1
48828,-93.19665,4,1,0,90,0,1
48922,-94.112724,4,1,0,90,0,1
49016,-95.047005,4,1,0,90,0,1
49110,-96,4,1,0,90,0,1
49203,-96.96186,4,1,0,90,0,1
49297,-97.95385,4,1,0,90,0,1
49391,-98.966354,4,1,0,90,0,1
49485,-66.6666666666667,4,1,0,90,0,0
49531,-100,4,1,0,70,0,0
50235,-90.90909,4,1,0,70,0,0
50328,-91.94557,4,1,0,70,0,0
50422,-93.01749,4,1,0,70,0,0
50516,-94.11469,4,1,0,70,0,0
50610,-95.2381,4,1,0,70,0,0
50703,-96.37625,4,1,0,70,0,0
50797,-97.554634,4,1,0,70,0,0
50891,-98.76217,4,1,0,70,0,0
50961,-98.76217,4,1,0,80,0,0
51266,-83.3333333333333,4,1,0,80,0,0
56235,-83.3333333333333,4,1,0,80,0,0
56297,-85.1063829787234,4,1,0,80,0,0
56360,-86.9565217391304,4,1,0,80,0,0
56422,-88.8888888888889,4,1,0,80,0,0
56610,-83.3333333333333,4,1,0,80,0,0
56672,-85.1063829787234,4,1,0,80,0,0
56735,-86.9565217391304,4,1,0,80,0,0
56797,-88.8888888888889,4,1,0,80,0,0
56985,-66.6666666666667,4,1,0,80,0,0
57266,-83.33333,4,1,0,80,0,0
57360,-83.09395,4,1,0,80,0,0
57547,-82.62178,4,1,0,80,0,0
57641,-82.38645,4,1,0,80,0,0
57735,-82.15246,4,1,0,80,0,0
57922,-81.690895,4,1,0,80,0,0
58016,-81.460846,4,1,0,80,0,0
58110,-81.23208,4,1,0,80,0,0
58297,-80.78078,4,1,0,80,0,0
58485,-80.332085,4,1,0,80,0,0
58766,-79.670654,4,1,0,80,0,0
58860,-79.45182,4,1,0,80,0,0
59047,-79.02003,4,1,0,80,0,0
59141,-78.80474,4,1,0,80,0,0
59235,-78.59063,4,1,0,80,0,0
59422,-78.16813,4,1,0,80,0,0
59516,-77.95746,4,1,0,80,0,0
59610,-77.74792,4,1,0,80,0,0
59797,-77.334404,4,1,0,80,0,0
59891,-77.12819,4,1,0,80,0,0
59985,-76.92308,4,1,0,80,0,0
60172,-75.475494,4,1,0,80,0,0
60266,-74.76822,4,1,0,80,0,0
60360,-74.07407,4,1,0,80,0,0
60547,-72.7308,4,1,0,80,0,0
60641,-72.07381,4,1,0,80,0,0
60735,-71.42857,4,1,0,80,0,0
60828,-70.801476,4,1,0,80,0,0
60922,-70.17873,4,1,0,80,0,0
61016,-69.566826,4,1,0,80,0,0
61110,-68.965515,4,1,0,80,0,0
61203,-68.38074,4,1,0,80,0,0
61297,-67.799675,4,1,0,80,0,0
61391,-67.22839,4,1,0,80,0,0
61485,-66.666664,4,1,0,80,0,0
61860,-76.9230733727812,4,1,0,80,0,0
62235,-90.9090859504135,4,1,0,80,0,0
62610,-111.111103703704,4,1,0,80,0,0
62961,-111.111103703704,4,1,0,90,0,0
62985,-50,4,1,0,90,0,0
63360,-53.8477286784089,4,1,0,90,0,0
63735,-58.337041707747,4,1,0,90,0,0
64016,-62.2243243872229,4,1,0,90,0,0
64297,-66.6666666666667,4,1,0,90,0,0
64485,-50,4,1,0,90,0,0
64860,-53.8477286784089,4,1,0,90,0,0
65235,-58.337041707747,4,1,0,90,0,0
65516,-62.2243243872229,4,1,0,90,0,0
65797,-66.6666666666667,4,1,0,90,0,0
65985,-50,4,1,0,90,0,0
66360,-53.8477286784089,4,1,0,90,0,0
66735,-58.337041707747,4,1,0,90,0,0
67016,-62.2243243872229,4,1,0,90,0,0
67297,-66.6666666666667,4,1,0,90,0,0
67485,-50,4,1,0,90,0,0
67860,-54.5454499173554,4,1,0,90,0,0
68047,-57.1356029801604,4,1,0,90,0,0
68235,-60.0000065,4,1,0,90,0,0
68328,-61.5258444252709,4,1,0,90,0,0
68422,-63.1490255759341,4,1,0,90,0,0
68516,-64.8601877560763,4,1,0,90,0,0
68610,-66.6666666666667,4,1,0,90,0,0
68985,-50,4,1,0,90,0,0
69360,-53.8477286784089,4,1,0,90,0,0
69735,-58.337041707747,4,1,0,90,0,0
70016,-62.2243243872229,4,1,0,90,0,0
70297,-66.6666666666667,4,1,0,90,0,0
70485,-50,4,1,0,90,0,0
70860,-53.8477286784089,4,1,0,90,0,0
71235,-58.337041707747,4,1,0,90,0,0
71516,-62.2243243872229,4,1,0,90,0,0
71797,-66.6666666666667,4,1,0,90,0,0
71985,-50,4,1,0,90,0,0
72360,-53.8477286784089,4,1,0,90,0,0
72735,-58.337041707747,4,1,0,90,0,0
73016,-62.2243243872229,4,1,0,90,0,0
73297,-66.6666666666667,4,1,0,90,0,0
73485,-57.1428571428571,4,1,0,90,0,0
73672,-58.82353,4,1,0,90,0,0
73766,-59.40751,4,1,0,90,0,0
73860,-60.003204,4,1,0,90,0,0
73953,-60.604427,4,1,0,90,0,0
74047,-61.224487,4,1,0,90,0,0
74141,-61.857372,4,1,0,90,0,0
74235,-62.50347,4,1,0,90,0,0
74328,-63.15612,4,1,0,90,0,0
74422,-63.829784,4,1,0,90,0,0
74516,-64.517975,4,1,0,90,0,0
74610,-65.22117,4,1,0,90,0,0
74672,-65.69343,4,1,0,90,0,0
74735,-66.18036,4,1,0,90,0,0
74797,-66.666664,4,1,0,90,0,0
74985,-50,4,1,0,90,0,0
75360,-53.8477286784089,4,1,0,90,0,0
75735,-58.337041707747,4,1,0,90,0,0
76016,-62.2243243872229,4,1,0,90,0,0
76110,-63.6429804759849,4,1,0,90,0,0
76297,-66.6666666666667,4,1,0,90,0,0
76485,-50,4,1,0,90,0,0
76860,-53.8477286784089,4,1,0,90,0,0
77235,-58.337041707747,4,1,0,90,0,0
77516,-62.2243243872229,4,1,0,90,0,0
77610,-63.6429804759849,4,1,0,90,0,0
77797,-66.6666666666667,4,1,0,90,0,0
77985,-50,4,1,0,90,0,0
78360,-53.8477286784089,4,1,0,90,0,0
78735,-58.337041707747,4,1,0,90,0,0
79016,-62.2243243872229,4,1,0,90,0,0
79110,-63.6429804759849,4,1,0,90,0,0
79297,-66.6666666666667,4,1,0,90,0,0
79485,-50,4,1,0,90,0,0
79860,-53.8477286784089,4,1,0,90,0,0
80047,-55.9965872582959,4,1,0,90,0,0
80235,-58.337041707747,4,1,0,90,0,0
80328,-59.5686696800037,4,1,0,90,0,0
80422,-60.8675548359091,4,1,0,90,0,0
80516,-62.2243243872229,4,1,0,90,0,0
80610,-63.6942675159236,4,1,0,90,0,0
80797,-66.6666666666667,4,1,0,90,0,0
80985,-50,4,1,0,90,0,0
81360,-53.8477286784089,4,1,0,90,0,0
81735,-58.337041707747,4,1,0,90,0,0
82016,-62.2243243872229,4,1,0,90,0,0
82110,-63.6429804759849,4,1,0,90,0,0
82297,-66.6666666666667,4,1,0,90,0,0
82485,-50,4,1,0,90,0,0
82860,-53.8477286784089,4,1,0,90,0,0
83047,-55.9965872582959,4,1,0,90,0,0
83235,-58.337041707747,4,1,0,90,0,0
83328,-59.5686696800037,4,1,0,90,0,0
83422,-60.8675548359091,4,1,0,90,0,0
83516,-62.2243243872229,4,1,0,90,0,0
83610,-63.6942675159236,4,1,0,90,0,0
83797,-66.6666666666667,4,1,0,90,0,0
83985,-57.1428571428571,4,1,0,90,0,0
84172,-66.6666666666667,4,1,0,90,0,0
84360,-57.1428571428571,4,1,0,90,0,0
84547,-66.6666666666667,4,1,0,90,0,0
84735,-57.1428571428571,4,1,0,90,0,0
85016,-66.6666666666667,4,1,0,90,0,0
85110,-60.6060606060606,4,1,0,90,0,0
85297,-55.5555555555556,4,1,0,90,0,0
85672,-50,4,1,0,90,0,0
85735,-50.70994,4,1,0,90,0,0
85797,-51.428574,4,1,0,90,0,0
85860,-52.179962,4,1,0,90,0,0
85953,-53.33017,4,1,0,90,0,0
86047,-54.545452,4,1,0,90,0,0
86110,-55.39143,4,1,0,90,0,0
86172,-56.249996,4,1,0,90,0,0
86235,-57.150112,4,1,0,90,0,0
86328,-58.532772,4,1,0,90,0,0
86422,-59.999996,4,1,0,90,0,0
86516,-61.3496932515337,4,1,0,90,0,0
86610,-63.16676,4,1,0,90,0,0
86672,-64.28571,4,1,0,90,0,0
86735,-65.46406,4,1,0,90,0,0
86797,-66.666664,4,1,0,90,0,0
87031,-100,4,1,0,70,0,0
92961,-100,4,1,0,80,0,0
92985,-99.84152,4,1,0,80,0,0
93266,-98.0227,4,1,0,80,0,0
93360,-97.428955,4,1,0,80,0,0
93453,-96.84859,4,1,0,80,0,0
93641,-95.6962,4,1,0,80,0,0
93735,-95.13023,4,1,0,80,0,0
93828,-94.576836,4,1,0,80,0,0
93922,-94.024,4,1,0,80,0,0
94110,-92.93749,4,1,0,80,0,0
94297,-91.88138,4,1,0,80,0,0
94485,-90.84355,4,1,0,80,0,0
94766,-89.335304,4,1,0,80,0,0
94860,-88.84187,4,1,0,80,0,0
94953,-88.35905,4,1,0,80,0,0
95141,-87.39884,4,1,0,80,0,0
95235,-86.92653,4,1,0,80,0,0
95422,-86.00193,4,1,0,80,0,0
95516,-85.544556,4,1,0,80,0,0
95610,-85.09202,4,1,0,80,0,0
95797,-84.20583,4,1,0,80,0,0
95985,-83.33333,4,1,0,80,0,0
96172,-82.05464,4,1,0,80,0,0
96360,-80.80808,4,1,0,80,0,0
96547,-79.605156,4,1,0,80,0,0
96735,-78.43137,4,1,0,80,0,0
96828,-77.86342,4,1,0,80,0,0
96922,-77.297676,4,1,0,80,0,0
97016,-76.74008,4,1,0,80,0,0
97110,-76.190475,4,1,0,80,0,0
97203,-75.65441,4,1,0,80,0,0
97297,-75.12019,4,1,0,80,0,0
97485,-74.07407,4,1,0,80,0,0
97547,-73.735435,4,1,0,80,0,0
97610,-73.3945,4,1,0,80,0,0
97672,-73.06203,4,1,0,80,0,0
97735,-72.72727,4,1,0,80,0,0
97797,-72.40081,4,1,0,80,0,0
97860,-72.07207,4,1,0,80,0,0
97953,-71.59221,4,1,0,80,0,0
98047,-71.11364,4,1,0,80,0,0
98110,-70.796455,4,1,0,80,0,0
98172,-70.48707,4,1,0,80,0,0
98235,-70.17544,4,1,0,80,0,0
98297,-69.87144,4,1,0,80,0,0
98360,-69.56521,4,1,0,80,0,0
98422,-69.266464,4,1,0,80,0,0
98516,-68.81839,4,1,0,80,0,0
98610,-68.37606,4,1,0,80,0,0
98672,-68.087425,4,1,0,80,0,0
98735,-67.7966,4,1,0,80,0,0
98797,-67.512825,4,1,0,80,0,0
98860,-67.22689,4,1,0,80,0,0
98922,-66.947845,4,1,0,80,0,0
98985,-58.8235273356402,4,1,0,80,0,0
99735,-66.6666666666667,4,1,0,80,0,0
100485,-58.8235273356402,4,1,0,80,0,0
101235,-66.6666666666667,4,1,0,80,0,0
101985,-58.8235273356402,4,1,0,80,0,0
102735,-66.6666666666667,4,1,0,80,0,0
103485,-62.5,4,1,0,80,0,0
103671,-66.666664,4,1,0,80,0,0
103765,-68.38074,4,1,0,80,0,0
103859,-70.18528,4,1,0,80,0,0
103921,-71.428566,4,1,0,80,0,0
103984,-72.73785,4,1,0,80,0,0
104046,-74.074066,4,1,0,80,0,0
104140,-76.19627,4,1,0,80,0,0
104234,-78.44367,4,1,0,80,0,0
104296,-80,4,1,0,80,0,0
104359,-81.64597,4,1,0,80,0,0
104421,-83.33333,4,1,0,80,0,0
104515,-86.05846,4,1,0,80,0,0
104609,-88.92894,4,1,0,80,0,0
104671,-90.929405,4,1,0,80,0,0
104734,-93.05648,4,1,0,80,0,0
104796,-95.24924,4,1,0,80,0,0
104859,-97.58582,4,1,0,80,0,0
104921,-100,4,1,0,80,0,0
104985,-66.6666666666667,4,1,0,80,0,0
105360,-67.87352,4,1,0,80,0,0
105547,-68.49182,4,1,0,80,0,0
105641,-68.80689,4,1,0,80,0,0
105735,-69.12488,4,1,0,80,0,0
105922,-69.76629,4,1,0,80,0,0
106016,-70.09322,4,1,0,80,0,0
106110,-70.42324,4,1,0,80,0,0
106297,-71.08909,4,1,0,80,0,0
106485,-71.77131,4,1,0,80,0,0
106672,-72.46302,4,1,0,80,0,0
106766,-72.81579,4,1,0,80,0,0
106860,-73.172005,4,1,0,80,0,0
107047,-73.89111,4,1,0,80,0,0
107141,-74.25795,4,1,0,80,0,0
107235,-74.62845,4,1,0,80,0,0
107422,-75.37662,4,1,0,80,0,0
107610,-76.144066,4,1,0,80,0,0
107703,-76.5295,4,1,0,80,0,0
107797,-76.92308,4,1,0,80,0,0
107985,-74.99556,4,1,0,80,0,0
108172,-73.17179,4,1,0,80,0,0
108360,-71.42555,4,1,0,80,0,0
108547,-69.76937,4,1,0,80,0,0
108735,-68.179985,4,1,0,80,0,0
108828,-67.42022,4,1,0,80,0,0
108922,-66.669304,4,1,0,80,0,0
109016,-65.93493,4,1,0,80,0,0
109110,-65.21655,4,1,0,80,0,0
109203,-64.521065,4,1,0,80,0,0
109297,-63.83301,4,1,0,80,0,0
109391,-63.159477,4,1,0,80,0,0
109485,-58.8235329550172,4,1,0,80,0,0
110235,-83.33333,4,1,0,80,0,0
110297,-84.49752,4,1,0,80,0,0
110360,-85.71428,4,1,0,80,0,0
110422,-86.94644,4,1,0,80,0,0
110610,-90.90909,4,1,0,80,0,0
110672,-92.296326,4,1,0,80,0,0
110735,-93.74999,4,1,0,80,0,0
110797,-95.226006,4,1,0,80,0,0
110860,-96.77419,4,1,0,80,0,0
110922,-98.347755,4,1,0,80,0,0
110961,-98.347755,4,1,0,90,0,0
110985,-66.666664,4,1,0,90,0,1
111172,-67.63023,4,1,0,90,0,1
111266,-68.12519,4,1,0,90,0,1
111360,-68.62745,4,1,0,90,0,1
111453,-69.1317,4,1,0,90,0,1
111547,-69.648964,4,1,0,90,0,1
111641,-70.174034,4,1,0,90,0,1
111735,-70.70707,4,1,0,90,0,1
111828,-71.24246,4,1,0,90,0,1
112016,-72.34993,4,1,0,90,0,1
112110,-72.91666,4,1,0,90,0,1
112297,-74.07093,4,1,0,90,0,1
112391,-74.66507,4,1,0,90,0,1
112485,-75.26881,4,1,0,90,0,1
112578,-75.875824,4,1,0,90,0,1
112672,-76.49938,4,1,0,90,0,1
112766,-77.133286,4,1,0,90,0,1
112860,-77.77777,4,1,0,90,0,1
112953,-78.4261,4,1,0,90,0,1
113047,-79.09247,4,1,0,90,0,1
113141,-79.77026,4,1,0,90,0,1
113235,-80.45976,4,1,0,90,0,1
113328,-81.15378,4,1,0,90,0,1
113516,-82.593925,4,1,0,90,0,1
113610,-83.33333,4,1,0,90,0,1
113797,-66.666664,4,1,0,90,0,1
113891,-67.087074,4,1,0,90,0,1
113985,-67.512825,4,1,0,90,0,1
114078,-67.93939,4,1,0,90,0,1
114172,-68.37606,4,1,0,90,0,1
114266,-68.81838,4,1,0,90,0,1
114360,-69.266464,4,1,0,90,0,1
114453,-69.71555,4,1,0,90,0,1
114547,-70.17544,4,1,0,90,0,1
114641,-70.64142,4,1,0,90,0,1
114735,-71.11364,4,1,0,90,0,1
114828,-71.58708,4,1,0,90,0,1
115016,-72.563675,4,1,0,90,0,1
115110,-73.06203,4,1,0,90,0,1
115203,-73.56187,4,1,0,90,0,1
115297,-74.07407,4,1,0,90,0,1
115391,-74.59347,4,1,0,90,0,1
115485,-75.12019,4,1,0,90,0,1
115578,-75.64868,4,1,0,90,0,1
115766,-76.74008,4,1,0,90,0,1
115953,-77.85737,4,1,0,90,0,1
116047,-78.43137,4,1,0,90,0,1
116141,-79.01391,4,1,0,90,0,1
116235,-79.605156,4,1,0,90,0,1
116297,-80,4,1,0,90,0,1
116360,-80.40524,4,1,0,90,0,1
116422,-80.80808,4,1,0,90,0,1
116610,-82.05464,4,1,0,90,0,1
116672,-82.47423,4,1,0,90,0,1
116735,-82.90499,4,1,0,90,0,1
116797,-83.33333,4,1,0,90,0,1
116985,-66.666664,4,1,0,90,0,1
117172,-67.63023,4,1,0,90,0,1
117266,-68.12519,4,1,0,90,0,1
117360,-68.62745,4,1,0,90,0,1
117453,-69.1317,4,1,0,90,0,1
117547,-69.648964,4,1,0,90,0,1
117641,-70.174034,4,1,0,90,0,1
117735,-70.70707,4,1,0,90,0,1
117828,-71.24246,4,1,0,90,0,1
118016,-72.34993,4,1,0,90,0,1
118110,-72.91666,4,1,0,90,0,1
118297,-74.07093,4,1,0,90,0,1
118391,-74.66507,4,1,0,90,0,1
118485,-75.26881,4,1,0,90,0,1
118578,-75.875824,4,1,0,90,0,1
118672,-76.49938,4,1,0,90,0,1
118766,-77.133286,4,1,0,90,0,1
118860,-77.77777,4,1,0,90,0,1
118953,-78.4261,4,1,0,90,0,1
119047,-79.09247,4,1,0,90,0,1
119141,-79.77026,4,1,0,90,0,1
119235,-80.45976,4,1,0,90,0,1
119328,-81.15378,4,1,0,90,0,1
119516,-82.593925,4,1,0,90,0,1
119610,-83.33333,4,1,0,90,0,1
119797,-66.666664,4,1,0,90,0,1
119891,-67.3284,4,1,0,90,0,1
119985,-68.00341,4,1,0,90,0,1
120078,-68.684685,4,1,0,90,0,1
120172,-69.387314,4,1,0,90,0,1
120266,-70.10445,4,1,0,90,0,1
120360,-70.83657,4,1,0,90,0,1
120453,-71.5761,4,1,0,90,0,1
120547,-72.339455,4,1,0,90,0,1
120641,-73.11926,4,1,0,90,0,1
120735,-73.91606,4,1,0,90,0,1
120828,-74.721664,4,1,0,90,0,1
120922,-75.55397,4,1,0,90,0,1
121016,-76.40504,4,1,0,90,0,1
121110,-77.27548,4,1,0,90,0,1
121203,-78.15641,4,1,0,90,0,1
121297,-79.06746,4,1,0,90,0,1
121391,-80,4,1,0,90,0,1
121485,-80.954796,4,1,0,90,0,1
121547,-81.59713,4,1,0,90,0,1
121610,-82.26035,4,1,0,90,0,1
121672,-82.92365,4,1,0,90,0,1
121766,-83.94997,4,1,0,90,0,1
121860,-85.00201,4,1,0,90,0,1
121922,-85.71044,4,1,0,90,0,1
121985,-86.44251,4,1,0,90,0,1
122047,-87.175285,4,1,0,90,0,1
122141,-88.31025,4,1,0,90,0,1
122235,-89.47515,4,1,0,90,0,1
122297,-90.260475,4,1,0,90,0,1
122360,-91.0727,4,1,0,90,0,1
122422,-91.88643,4,1,0,90,0,1
122610,-94.44527,4,1,0,90,0,1
122672,-95.32067,4,1,0,90,0,1
122735,-96.226974,4,1,0,90,0,1
122797,-97.135895,4,1,0,90,0,1
122860,-98.07722,4,1,0,90,0,1
122922,-99.02159,4,1,0,90,0,1
122985,-100,4,1,0,90,0,0
123031,-100,4,1,0,70,0,0
123360,-100.947174,4,1,0,70,0,0
123735,-102.0489,4,1,0,70,0,0
124016,-102.89035,4,1,0,70,0,0
124297,-103.74579,4,1,0,70,0,0
124485,-104.32609,4,1,0,70,0,0
124672,-104.90979,4,1,0,70,0,0
124860,-105.50324,4,1,0,70,0,0
125235,-106.707245,4,1,0,70,0,0
125516,-107.62761,4,1,0,70,0,0
125797,-108.563995,4,1,0,70,0,0
125985,-109.19963,4,1,0,70,0,0
126360,-110.48999,4,1,0,70,0,0
126735,-111.81122,4,1,0,70,0,0
127016,-112.82215,4,1,0,70,0,0
127297,-113.85155,4,1,0,70,0,0
127485,-114.5508,4,1,0,70,0,0
127672,-115.254906,4,1,0,70,0,0
127860,-115.97154,4,1,0,70,0,0
128235,-100,4,1,0,70,0,0
128297,-101.4237,4,1,0,70,0,0
128360,-102.91249,4,1,0,70,0,0
128422,-104.420944,4,1,0,70,0,0
128516,-106.79423,4,1,0,70,0,0
128610,-109.27791,4,1,0,70,0,0
128672,-110.980286,4,1,0,70,0,0
128735,-112.76533,4,1,0,70,0,0
128797,-114.57898,4,1,0,70,0,0
128891,-117.44281,4,1,0,70,0,0
128985,-120.45345,4,1,0,70,0,0
129360,-122.0254,4,1,0,70,0,0
129735,-123.63892,4,1,0,70,0,0
130016,-124.876236,4,1,0,70,0,0
130297,-126.138565,4,1,0,70,0,0
130485,-126.99747,4,1,0,70,0,0
130860,-128.7461,4,1,0,70,0,0
131235,-130.54355,4,1,0,70,0,0
131516,-131.92369,4,1,0,70,0,0
131797,-133.33333,4,1,0,70,0,0
131985,-128.56055,4,1,0,70,0,0
132172,-124.140465,4,1,0,70,0,0
132360,-119.99289,4,1,0,70,0,0
132547,-116.13346,4,1,0,70,0,0
132735,-112.49583,4,1,0,70,0,0
132828,-110.77933,4,1,0,70,0,0
132922,-109.09679,4,1,0,70,0,0
133016,-107.464584,4,1,0,70,0,0
133110,-105.88051,4,1,0,70,0,0
133203,-104.358574,4,1,0,70,0,0
133297,-102.864105,4,1,0,70,0,0
133391,-101.41184,4,1,0,70,0,0
133485,-83.3333333333333,4,1,0,70,0,0
133766,-100,4,1,0,70,0,0

[HitObjects]
326,297,2422,5,0,0:0:0:0:
326,297,2516,1,0,0:0:0:0:
331,302,2610,1,0,0:0:0:0:
332,305,2703,1,0,0:0:0:0:
333,309,2797,1,0,0:0:0:0:
333,310,2891,1,0,0:0:0:0:
453,292,2985,1,12,0:0:0:0:
330,182,3266,1,8,0:0:0:0:
198,207,3453,1,0,0:0:0:0:
309,271,3641,1,8,0:0:0:0:
238,119,3828,1,8,0:0:0:0:
238,119,3922,1,0,0:0:0:0:
407,276,4110,1,8,0:0:0:0:
396,171,4297,1,0,0:0:0:0:
266,248,4485,1,8,0:0:0:0:
325,139,4766,1,0,0:0:0:0:
325,139,4953,1,8,0:0:0:0:
396,263,5141,1,8,0:0:0:0:
282,267,5328,1,8,0:0:0:0:
449,251,5422,1,0,0:0:0:0:
402,191,5610,1,8,0:0:0:0:
357,254,5985,1,0,0:0:0:0:
242,207,6266,1,0,0:0:0:0:
430,292,6453,1,8,0:0:0:0:
444,291,6641,1,8,0:0:0:0:
351,275,6828,1,0,0:0:0:0:
436,269,6922,1,8,0:0:0:0:
176,278,7110,1,8,0:0:0:0:
334,201,7297,1,0,0:0:0:0:
334,201,7485,1,8,0:0:0:0:
227,116,7578,1,0,0:0:0:0:
410,238,7766,1,8,0:0:0:0:
416,295,7953,1,0,0:0:0:0:
410,238,8047,1,8,0:0:0:0:
235,270,8235,1,8,0:0:0:0:
313,231,8422,1,0,0:0:0:0:
137,203,8516,1,0,0:0:0:0:
228,185,8610,1,8,0:0:0:0:
386,195,8797,1,0,0:0:0:0:
329,129,8985,1,12,0:0:0:0:
329,288,9266,1,0,0:0:0:0:
382,305,9360,1,8,0:0:0:0:
414,261,9453,1,8,0:0:0:0:
414,261,9547,1,0,0:0:0:0:
227,234,9641,1,8,0:0:0:0:
275,187,9828,1,8,0:0:0:0:
275,187,9922,1,0,0:0:0:0:
337,213,10016,1,0,0:0:0:0:
373,201,10110,1,8,0:0:0:0:
376,281,10297,1,8,0:0:0:0:
242,118,10485,1,4,0:0:0:0:
388,119,10766,1,0,0:0:0:0:
388,119,10860,1,8,0:0:0:0:
388,119,10953,1,8,0:0:0:0:
414,253,11047,1,4,0:0:0:0:
296,217,11235,1,8,0:0:0:0:
296,217,11328,1,8,0:0:0:0:
414,253,11422,1,4,0:0:0:0:
438,214,11610,1,0,0:0:0:0:
462,273,11703,1,8,0:0:0:0:
391,239,11797,1,4,0:0:0:0:
391,239,11985,1,4,0:0:0:0:
222,185,12172,1,0,0:0:0:0:
222,185,12266,1,0,0:0:0:0:
222,185,12360,1,8,0:0:0:0:
222,185,12453,1,8,0:0:0:0:
222,185,12547,1,0,0:0:0:0:
312,184,12641,1,8,0:0:0:0:
320,272,12735,1,0,0:0:0:0:
320,272,12828,1,0,0:0:0:0:
409,266,12922,1,8,0:0:0:0:
409,266,13016,1,0,0:0:0:0:
482,260,13110,1,8,0:0:0:0:
482,260,13203,1,8,0:0:0:0:
482,260,13297,1,0,0:0:0:0:
387,177,13485,1,8,0:0:0:0:
387,177,13547,1,8,0:0:0:0:
387,177,13610,1,8,0:0:0:0:
387,177,13672,1,0,0:0:0:0:
456,266,13766,1,0,0:0:0:0:
273,225,13860,1,8,0:0:0:0:
452,121,13922,1,8,0:0:0:0:
273,225,13985,1,8,0:0:0:0:
206,105,14047,1,0,0:0:0:0:
320,121,14141,1,0,0:0:0:0:
358,50,14235,1,8,0:0:0:0:
358,50,14297,1,0,0:0:0:0:
358,50,14360,1,0,0:0:0:0:
358,50,14422,1,8,0:0:0:0:
414,201,14516,1,8,0:0:0:0:
427,282,14610,1,0,0:0:0:0:
429,284,14672,1,0,0:0:0:0:
429,284,14735,1,0,0:0:0:0:
429,284,14797,1,8,0:0:0:0:
427,282,14860,1,8,0:0:0:0:
427,282,14922,1,8,0:0:0:0:
427,282,14985,1,4,0:0:0:0:
249,237,15266,1,0,0:0:0:0:
301,221,15360,1,8,0:0:0:0:
341,258,15453,1,0,0:0:0:0:
345,328,15641,1,0,0:0:0:0:
395,242,15828,1,0,0:0:0:0:
395,242,15922,1,8,0:0:0:0:
239,200,16110,1,8,0:0:0:0:
239,200,16203,1,8,0:0:0:0:
289,237,16297,1,0,0:0:0:0:
289,237,16391,1,0,0:0:0:0:
354,172,16485,1,8,0:0:0:0:
354,172,16578,1,0,0:0:0:0:
424,314,16766,1,0,0:0:0:0:
220,114,16860,1,8,0:0:0:0:
390,118,16953,1,0,0:0:0:0:
431,191,17047,1,0,0:0:0:0:
199,235,17141,1,8,0:0:0:0:
340,231,17328,1,8,0:0:0:0:
472,238,17422,1,0,0:0:0:0:
404,269,17516,1,0,0:0:0:0:
454,281,17610,1,8,0:0:0:0:
300,301,17703,1,0,0:0:0:0:
256,317,17797,1,8,0:0:0:0:
207,187,17985,1,0,0:0:0:0:
281,183,18078,1,0,0:0:0:0:
377,209,18266,1,0,0:0:0:0:
418,213,18360,1,8,0:0:0:0:
241,302,18453,1,0,0:0:0:0:
166,289,18547,1,8,0:0:0:0:
131,221,18641,1,0,0:0:0:0:
375,271,18828,1,0,0:0:0:0:
271,185,18922,1,8,0:0:0:0:
296,217,19016,1,8,0:0:0:0:
408,205,19110,1,0,0:0:0:0:
201,152,19297,1,0,0:0:0:0:
201,152,19391,1,0,0:0:0:0:
356,127,19485,1,8,0:0:0:0:
361,143,19578,1,0,0:0:0:0:
420,301,19766,1,0,0:0:0:0:
352,299,19860,1,8,0:0:0:0:
217,300,19953,1,0,0:0:0:0:
449,258,20047,1,8,0:0:0:0:
392,237,20141,1,0,0:0:0:0:
311,227,20235,1,8,0:0:0:0:
407,177,20297,1,8,0:0:0:0:
407,177,20360,1,8,0:0:0:0:
407,177,20422,1,0,0:0:0:0:
476,255,20610,1,0,0:0:0:0:
462,230,20672,1,0,0:0:0:0:
161,171,20735,1,0,0:0:0:0:
161,171,20797,1,8,0:0:0:0:
344,232,20985,1,12,0:0:0:0:
367,124,21266,1,0,0:0:0:0:
367,124,21360,1,8,0:0:0:0:
381,192,21453,1,0,0:0:0:0:
418,242,21547,1,0,0:0:0:0:
299,274,21641,1,0,0:0:0:0:
376,289,21735,1,8,0:0:0:0:
245,187,21922,1,0,0:0:0:0:
191,252,22016,1,8,0:0:0:0:
126,131,22110,1,0,0:0:0:0:
126,131,22203,1,0,0:0:0:0:
126,131,22297,1,8,0:0:0:0:
219,108,22391,1,0,0:0:0:0:
331,143,22485,1,12,0:0:0:0:
367,124,22766,1,0,0:0:0:0:
367,124,22860,1,8,0:0:0:0:
381,192,22953,1,8,0:0:0:0:
418,242,23047,1,0,0:0:0:0:
299,274,23141,1,0,0:0:0:0:
376,289,23235,1,8,0:0:0:0:
245,187,23422,1,0,0:0:0:0:
191,252,23516,1,0,0:0:0:0:
126,131,23610,1,8,0:0:0:0:
126,131,23703,1,8,0:0:0:0:
219,108,23797,1,0,0:0:0:0:
126,131,23891,1,8,0:0:0:0:
331,143,23985,1,4,0:0:0:0:
356,291,24172,1,0,0:0:0:0:
456,271,24266,1,0,0:0:0:0:
403,257,24360,1,8,0:0:0:0:
439,329,24453,1,8,0:0:0:0:
356,291,24547,1,0,0:0:0:0:
403,257,24735,1,8,0:0:0:0:
356,291,24828,1,0,0:0:0:0:
356,291,24922,1,0,0:0:0:0:
403,257,25016,1,0,0:0:0:0:
403,257,25110,1,8,0:0:0:0:
226,123,25203,1,0,0:0:0:0:
239,137,25297,1,0,0:0:0:0:
239,137,25391,1,0,0:0:0:0:
297,252,25485,1,12,0:0:0:0:
399,177,25672,1,0,0:0:0:0:
399,177,25766,1,0,0:0:0:0:
399,177,25860,1,8,0:0:0:0:
399,177,25953,1,0,0:0:0:0:
408,260,26047,1,8,0:0:0:0:
386,274,26141,1,8,0:0:0:0:
436,92,26235,1,0,0:0:0:0:
436,92,26297,1,0,0:0:0:0:
436,92,26360,1,0,0:0:0:0:
441,99,26422,1,8,0:0:0:0:
246,165,26610,1,8,0:0:0:0:
246,165,26672,1,8,0:0:0:0:
246,165,26735,1,8,0:0:0:0:
246,165,26797,1,0,0:0:0:0:
212,244,26985,1,12,0:0:0:0:
468,250,27172,1,0,0:0:0:0:
377,243,27266,1,0,0:0:0:0:
410,128,27360,1,8,0:0:0:0:
346,167,27453,1,0,0:0:0:0:
346,167,27547,1,8,0:0:0:0:
346,167,27641,1,8,0:0:0:0:
346,167,27735,1,0,0:0:0:0:
264,238,27828,1,8,0:0:0:0:
209,162,28016,1,8,0:0:0:0:
274,121,28110,1,0,0:0:0:0:
387,248,28297,1,8,0:0:0:0:
387,248,28391,1,8,0:0:0:0:
387,248,28485,1,0,0:0:0:0:
374,296,28578,1,0,0:0:0:0:
374,296,28672,1,0,0:0:0:0:
277,274,28766,1,8,0:0:0:0:
408,199,28860,1,0,0:0:0:0:
157,236,28953,1,0,0:0:0:0:
252,152,29047,1,8,0:0:0:0:
252,152,29141,1,8,0:0:0:0:
252,152,29235,1,0,0:0:0:0:
365,195,29328,1,0,0:0:0:0:
379,251,29516,1,0,0:0:0:0:
368,117,29610,1,8,0:0:0:0:
421,211,29797,1,0,0:0:0:0:
421,211,29891,1,0,0:0:0:0:
421,211,29985,1,8,0:0:0:0:
349,262,30078,1,8,0:0:0:0:
348,261,30172,1,0,0:0:0:0:
438,298,30266,1,8,0:0:0:0:
270,181,30360,1,0,0:0:0:0:
148,277,30453,1,0,0:0:0:0:
259,297,30547,1,8,0:0:0:0:
259,297,30641,1,8,0:0:0:0:
270,181,30735,1,0,0:0:0:0:
285,298,30828,1,8,0:0:0:0:
388,271,31016,1,8,0:0:0:0:
270,181,31110,1,0,0:0:0:0:
399,212,31203,1,8,0:0:0:0:
416,242,31297,1,0,0:0:0:0:
416,242,31391,1,0,0:0:0:0:
416,242,31485,1,8,0:0:0:0:
359,111,31578,1,8,0:0:0:0:
441,168,31766,1,0,0:0:0:0:
284,188,31953,1,0,0:0:0:0:
370,282,32047,1,8,0:0:0:0:
370,282,32141,1,0,0:0:0:0:
370,282,32235,1,8,0:0:0:0:
139,144,32297,1,8,0:0:0:0:
139,144,32360,1,8,0:0:0:0:
139,144,32422,1,0,0:0:0:0:
244,225,32610,1,0,0:0:0:0:
244,225,32672,1,0,0:0:0:0:
244,225,32735,1,0,0:0:0:0:
244,225,32797,1,8,0:0:0:0:
289,131,32985,1,4,0:0:0:0:
360,259,33172,1,8,0:0:0:0:
426,252,33266,1,0,0:0:0:0:
426,252,33360,1,8,0:0:0:0:
396,315,33453,1,8,0:0:0:0:
274,298,33547,1,0,0:0:0:0:
274,298,33641,1,0,0:0:0:0:
216,227,33735,1,8,0:0:0:0:
266,239,33828,1,0,0:0:0:0:
360,238,34016,1,0,0:0:0:0:
360,238,34110,1,8,0:0:0:0:
368,227,34297,1,8,0:0:0:0:
369,227,34391,1,0,0:0:0:0:
389,241,34485,1,8,0:0:0:0:
389,241,34578,1,8,0:0:0:0:
186,171,34672,1,8,0:0:0:0:
287,302,34766,1,0,0:0:0:0:
287,302,34860,1,8,0:0:0:0:
457,232,34953,1,8,0:0:0:0:
457,232,35047,1,0,0:0:0:0:
226,253,35141,1,0,0:0:0:0:
506,321,35235,1,8,0:0:0:0:
455,287,35328,1,0,0:0:0:0:
405,288,35516,1,0,0:0:0:0:
405,288,35610,1,8,0:0:0:0:
259,293,35797,1,0,0:0:0:0:
259,293,35891,1,0,0:0:0:0:
286,304,35985,1,8,0:0:0:0:
378,157,36078,1,0,0:0:0:0:
326,147,36172,1,8,0:0:0:0:
326,147,36266,1,0,0:0:0:0:
289,200,36360,1,8,0:0:0:0:
421,282,36453,1,8,0:0:0:0:
352,287,36547,1,0,0:0:0:0:
352,287,36641,1,0,0:0:0:0:
279,169,36735,1,8,0:0:0:0:
171,171,36828,1,0,0:0:0:0:
401,250,37016,1,0,0:0:0:0:
385,198,37110,1,8,0:0:0:0:
272,302,37297,1,0,0:0:0:0:
272,302,37391,1,0,0:0:0:0:
426,167,37485,1,8,0:0:0:0:
426,167,37547,1,8,0:0:0:0:
426,167,37610,1,8,0:0:0:0:
426,167,37672,1,0,0:0:0:0:
370,183,37766,1,0,0:0:0:0:
193,145,37860,1,8,0:0:0:0:
172,201,37953,1,0,0:0:0:0:
280,166,38047,1,8,0:0:0:0:
280,166,38141,1,0,0:0:0:0:
413,305,38235,1,8,0:0:0:0:
413,305,38297,1,8,0:0:0:0:
413,305,38360,1,8,0:0:0:0:
413,305,38422,1,0,0:0:0:0:
318,243,38610,1,0,0:0:0:0:
318,243,38672,1,0,0:0:0:0:
318,243,38735,1,0,0:0:0:0:
318,243,38797,1,8,0:0:0:0:
318,243,38860,1,8,0:0:0:0:
318,243,38922,1,8,0:0:0:0:
370,251,38985,1,4,0:0:0:0:
424,196,39172,1,8,0:0:0:0:
430,206,39266,1,0,0:0:0:0:
268,110,39360,1,8,0:0:0:0:
438,304,39453,1,8,0:0:0:0:
241,338,39547,1,0,0:0:0:0:
241,338,39641,1,0,0:0:0:0:
241,338,39735,1,8,0:0:0:0:
260,298,39828,1,0,0:0:0:0:
308,285,40016,1,0,0:0:0:0:
268,110,40110,1,8,0:0:0:0:
357,253,40203,1,8,0:0:0:0:
408,275,40297,1,0,0:0:0:0:
408,275,40391,1,0,0:0:0:0:
438,304,40485,1,8,0:0:0:0:
273,267,40578,1,8,0:0:0:0:
195,305,40672,1,8,0:0:0:0:
274,283,40766,1,0,0:0:0:0:
268,110,40860,1,8,0:0:0:0:
371,254,40953,1,0,0:0:0:0:
388,211,41047,1,8,0:0:0:0:
214,252,41235,1,8,0:0:0:0:
320,344,41328,1,0,0:0:0:0:
214,252,41516,1,0,0:0:0:0:
268,110,41610,1,8,0:0:0:0:
134,214,41703,1,8,0:0:0:0:
241,223,41797,1,0,0:0:0:0:
241,223,41891,1,0,0:0:0:0:
381,268,41985,1,8,0:0:0:0:
381,268,42078,1,0,0:0:0:0:
385,290,42172,1,0,0:0:0:0:
384,290,42266,1,0,0:0:0:0:
295,234,42360,1,8,0:0:0:0:
246,147,42453,1,0,0:0:0:0:
374,152,42547,1,8,0:0:0:0:
374,152,42641,1,8,0:0:0:0:
374,152,42735,1,0,0:0:0:0:
400,186,42828,1,8,0:0:0:0:
406,265,43016,1,0,0:0:0:0:
295,234,43110,1,8,0:0:0:0:
192,157,43297,1,8,0:0:0:0:
202,165,43391,1,0,0:0:0:0:
276,172,43485,1,8,0:0:0:0:
276,172,43578,1,8,0:0:0:0:
276,172,43672,1,0,0:0:0:0:
276,172,43766,1,0,0:0:0:0:
295,234,43860,1,8,0:0:0:0:
421,245,43953,1,0,0:0:0:0:
380,162,44047,1,8,0:0:0:0:
200,264,44141,1,0,0:0:0:0:
200,264,44235,1,8,0:0:0:0:
200,264,44297,1,8,0:0:0:0:
458,207,44360,1,8,0:0:0:0:
200,264,44422,1,0,0:0:0:0:
298,304,44610,1,0,0:0:0:0:
406,159,44672,1,0,0:0:0:0:
248,108,44735,1,0,0:0:0:0:
357,268,44797,1,8,0:0:0:0:
426,305,44985,1,8,0:0:0:0:
426,305,45078,1,0,0:0:0:0:
397,254,45266,1,0,0:0:0:0:
223,171,45360,1,8,0:0:0:0:
360,179,45453,1,8,0:0:0:0:
414,222,45547,1,0,0:0:0:0:
325,273,45641,1,8,0:0:0:0:
325,273,45735,1,0,0:0:0:0:
265,316,45828,1,0,0:0:0:0:
376,306,46016,1,0,0:0:0:0:
322,158,46110,1,8,0:0:0:0:
246,234,46203,1,0,0:0:0:0:
421,208,46297,1,8,0:0:0:0:
421,208,46391,1,8,0:0:0:0:
421,211,46485,1,0,0:0:0:0:
382,267,46578,1,0,0:0:0:0:
449,297,46672,1,8,0:0:0:0:
234,153,46766,1,0,0:0:0:0:
328,164,46860,1,8,0:0:0:0:
158,256,46953,1,8,0:0:0:0:
280,273,47047,1,0,0:0:0:0:
280,273,47235,1,8,0:0:0:0:
135,181,47328,1,0,0:0:0:0:
126,135,47516,1,0,0:0:0:0:
328,164,47610,1,8,0:0:0:0:
246,200,47703,1,0,0:0:0:0:
386,247,47797,1,8,0:0:0:0:
386,247,47891,1,8,0:0:0:0:
386,247,47985,1,0,0:0:0:0:
202,290,48078,1,0,0:0:0:0:
329,298,48172,1,8,0:0:0:0:
329,298,48266,1,0,0:0:0:0:
372,234,48360,1,8,0:0:0:0:
435,306,48453,1,8,0:0:0:0:
278,237,48547,1,0,0:0:0:0:
278,237,48641,1,0,0:0:0:0:
372,234,48735,1,8,0:0:0:0:
261,240,48828,1,0,0:0:0:0:
261,241,48922,1,0,0:0:0:0:
261,241,49016,1,0,0:0:0:0:
372,234,49110,1,8,0:0:0:0:
261,241,49203,1,0,0:0:0:0:
193,211,49297,1,8,0:0:0:0:
193,211,49391,1,8,0:0:0:0:
340,262,49485,1,4,0:0:0:0:
340,131,50235,1,0,0:0:0:0:
340,131,50328,1,0,0:0:0:0:
340,131,50422,1,0,0:0:0:0:
326,294,50516,1,0,0:0:0:0:
388,227,50610,1,8,0:0:0:0:
388,227,50703,1,8,0:0:0:0:
388,227,50797,1,0,0:0:0:0:
388,227,50891,1,0,0:0:0:0:
418,308,50985,1,12,0:0:0:0:
229,267,51266,1,0,0:0:0:0:
243,267,51360,1,8,0:0:0:0:
307,289,51547,1,0,0:0:0:0:
241,154,51735,1,8,0:0:0:0:
243,267,52016,1,8,0:0:0:0:
229,267,52110,1,0,0:0:0:0:
307,289,52297,1,8,0:0:0:0:
241,154,52485,1,0,0:0:0:0:
229,267,52766,1,0,0:0:0:0:
243,267,52860,1,8,0:0:0:0:
307,289,53047,1,0,0:0:0:0:
241,154,53235,1,8,0:0:0:0:
243,267,53516,1,8,0:0:0:0:
229,267,53610,1,0,0:0:0:0:
307,289,53797,1,8,0:0:0:0:
241,154,53985,1,0,0:0:0:0:
229,267,54266,1,0,0:0:0:0:
243,267,54360,1,8,0:0:0:0:
307,289,54547,1,0,0:0:0:0:
241,154,54735,1,8,0:0:0:0:
243,267,55016,1,8,0:0:0:0:
229,267,55110,1,0,0:0:0:0:
307,289,55297,1,8,0:0:0:0:
241,154,55485,1,0,0:0:0:0:
229,267,55766,1,0,0:0:0:0:
243,267,55860,1,8,0:0:0:0:
307,289,56047,1,0,0:0:0:0:
241,154,56235,1,8,0:0:0:0:
384,135,56297,1,8,0:0:0:0:
384,135,56360,1,8,0:0:0:0:
384,135,56422,1,0,0:0:0:0:
229,267,56610,1,0,0:0:0:0:
385,205,56672,1,0,0:0:0:0:
385,205,56735,1,0,0:0:0:0:
307,289,56797,1,8,0:0:0:0:
241,154,56985,1,4,0:0:0:0:
410,251,57266,1,0,0:0:0:0:
412,280,57360,1,8,0:0:0:0:
385,288,57547,1,0,0:0:0:0:
385,288,57641,1,0,0:0:0:0:
385,288,57735,1,8,0:0:0:0:
298,179,57922,1,8,0:0:0:0:
298,179,58016,1,0,0:0:0:0:
289,215,58110,1,8,0:0:0:0:
270,239,58297,1,0,0:0:0:0:
195,187,58485,1,12,0:0:0:0:
410,251,58766,1,0,0:0:0:0:
412,280,58860,1,8,0:0:0:0:
385,288,59047,1,0,0:0:0:0:
385,288,59141,1,0,0:0:0:0:
385,288,59235,1,8,0:0:0:0:
298,179,59422,1,8,0:0:0:0:
298,179,59516,1,0,0:0:0:0:
289,215,59610,1,8,0:0:0:0:
270,239,59797,1,0,0:0:0:0:
390,161,59891,1,0,0:0:0:0:
195,187,59985,1,12,0:0:0:0:
417,338,60172,1,8,0:0:0:0:
425,271,60266,1,0,0:0:0:0:
417,338,60360,1,8,0:0:0:0:
320,170,60547,1,0,0:0:0:0:
320,170,60641,1,0,0:0:0:0:
320,170,60735,1,8,0:0:0:0:
320,170,60828,1,8,0:0:0:0:
258,226,60922,1,8,0:0:0:0:
265,224,61016,1,8,0:0:0:0:
265,224,61110,1,0,0:0:0:0:
265,224,61203,1,8,0:0:0:0:
265,224,61297,1,0,0:0:0:0:
360,304,61391,1,0,0:0:0:0:
326,224,61485,1,8,0:0:0:0:
326,224,61860,1,8,0:0:0:0:
326,224,62235,1,8,0:0:0:0:
249,212,62610,1,0,0:0:0:0:
403,217,62985,1,4,0:0:0:0:
403,217,63360,1,4,0:0:0:0:
403,217,63735,1,4,0:0:0:0:
403,217,64016,1,4,0:0:0:0:
351,266,64297,1,4,0:0:0:0:
395,304,64485,1,4,0:0:0:0:
395,304,64860,1,4,0:0:0:0:
395,304,65235,1,4,0:0:0:0:
395,304,65516,1,4,0:0:0:0:
395,304,65797,1,4,0:0:0:0:
318,206,65985,1,4,0:0:0:0:
369,212,66360,1,4,0:0:0:0:
369,212,66735,1,4,0:0:0:0:
266,247,67016,1,4,0:0:0:0:
266,247,67297,1,4,0:0:0:0:
273,247,67485,1,4,0:0:0:0:
406,288,67860,1,12,0:0:0:0:
406,288,68047,1,4,0:0:0:0:
342,185,68235,1,12,0:0:0:0:
342,185,68328,1,4,0:0:0:0:
342,185,68422,1,12,0:0:0:0:
342,185,68516,1,4,0:0:0:0:
342,185,68610,1,12,0:0:0:0:
403,217,68985,1,4,0:0:0:0:
403,217,69360,1,4,0:0:0:0:
403,217,69735,1,4,0:0:0:0:
403,217,70016,1,4,0:0:0:0:
351,266,70297,1,4,0:0:0:0:
395,304,70485,1,4,0:0:0:0:
395,304,70860,1,4,0:0:0:0:
395,304,71235,1,4,0:0:0:0:
395,304,71516,1,4,0:0:0:0:
395,304,71797,1,4,0:0:0:0:
318,206,71985,1,4,0:0:0:0:
369,212,72360,1,4,0:0:0:0:
369,212,72735,1,4,0:0:0:0:
266,247,73016,1,4,0:0:0:0:
266,247,73297,1,4,0:0:0:0:
273,247,73485,1,4,0:0:0:0:
341,203,73672,1,8,0:0:0:0:
380,283,73766,1,8,0:0:0:0:
206,161,73860,1,0,0:0:0:0:
206,161,73953,1,0,0:0:0:0:
215,143,74047,1,8,0:0:0:0:
217,142,74141,1,0,0:0:0:0:
281,152,74235,1,8,0:0:0:0:
281,152,74328,1,0,0:0:0:0:
281,152,74422,1,8,0:0:0:0:
281,152,74516,1,8,0:0:0:0:
281,152,74610,1,0,0:0:0:0:
462,192,74672,1,0,0:0:0:0:
462,192,74735,1,0,0:0:0:0:
462,192,74797,1,8,0:0:0:0:
403,217,74985,1,4,0:0:0:0:
403,217,75360,1,12,0:0:0:0:
403,217,75735,1,4,0:0:0:0:
403,217,76016,1,4,0:0:0:0:
277,190,76110,1,12,0:0:0:0:
351,266,76297,1,4,0:0:0:0:
395,304,76485,1,4,0:0:0:0:
422,272,76860,1,12,0:0:0:0:
395,304,77235,1,4,0:0:0:0:
395,304,77516,1,4,0:0:0:0:
381,216,77610,1,12,0:0:0:0:
395,304,77797,1,4,0:0:0:0:
318,206,77985,1,4,0:0:0:0:
445,297,78360,1,12,0:0:0:0:
369,212,78735,1,4,0:0:0:0:
266,247,79016,1,4,0:0:0:0:
406,210,79110,1,12,0:0:0:0:
266,247,79297,1,4,0:0:0:0:
273,247,79485,1,4,0:0:0:0:
406,288,79860,1,12,0:0:0:0:
406,288,80047,1,4,0:0:0:0:
342,185,80235,1,12,0:0:0:0:
342,185,80328,1,4,0:0:0:0:
342,185,80422,1,12,0:0:0:0:
342,185,80516,1,4,0:0:0:0:
342,185,80610,1,12,0:0:0:0:
403,217,80985,1,4,0:0:0:0:
376,250,81360,1,12,0:0:0:0:
403,217,81735,1,4,0:0:0:0:
403,217,82016,1,4,0:0:0:0:
376,250,82110,1,12,0:0:0:0:
351,266,82297,1,4,0:0:0:0:
395,304,82485,1,4,0:0:0:0:
373,237,82860,1,12,0:0:0:0:
262,180,83047,1,4,0:0:0:0:
342,185,83235,1,12,0:0:0:0:
342,185,83328,1,4,0:0:0:0:
342,185,83422,1,12,0:0:0:0:
342,185,83516,1,4,0:0:0:0:
342,185,83610,1,12,0:0:0:0:
318,206,83985,1,4,0:0:0:0:
210,234,84172,1,0,0:0:0:0:
369,212,84360,1,12,0:0:0:0:
346,290,84547,1,8,0:0:0:0:
369,212,84735,1,4,0:0:0:0:
266,247,85016,1,4,0:0:0:0:
346,290,85110,1,12,0:0:0:0:
266,247,85297,1,4,0:0:0:0:
273,247,85485,1,4,0:0:0:0:
341,203,85672,1,8,0:0:0:0:
444,210,85735,1,8,0:0:0:0:
421,127,85797,1,8,0:0:0:0:
206,161,85860,1,0,0:0:0:0:
206,161,85953,1,0,0:0:0:0:
298,82,86047,1,8,0:0:0:0:
298,82,86110,1,8,0:0:0:0:
298,82,86172,1,8,0:0:0:0:
281,152,86235,1,0,0:0:0:0:
462,192,86328,1,0,0:0:0:0:
281,152,86422,1,8,0:0:0:0:
281,152,86516,1,0,0:0:0:0:
357,81,86610,1,8,0:0:0:0:
357,81,86672,1,8,0:0:0:0:
281,152,86735,1,8,0:0:0:0:
462,192,86797,1,0,0:0:0:0:
394,262,86985,1,12,0:0:0:0:
273,263,87266,1,8,0:0:0:0:
351,288,87453,1,0,0:0:0:0:
270,143,87641,1,8,0:0:0:0:
357,165,87828,1,0,0:0:0:0:
357,165,87922,1,0,0:0:0:0:
426,233,88110,1,8,0:0:0:0:
439,268,88297,1,0,0:0:0:0:
270,284,88485,1,8,0:0:0:0:
381,227,88766,1,8,0:0:0:0:
381,227,88953,1,0,0:0:0:0:
346,308,89141,1,8,0:0:0:0:
306,247,89328,1,8,0:0:0:0:
306,247,89422,1,0,0:0:0:0:
301,161,89610,1,8,0:0:0:0:
301,161,89797,1,8,0:0:0:0:
196,222,89985,1,0,0:0:0:0:
351,288,90266,1,0,0:0:0:0:
273,263,90453,1,0,0:0:0:0:
270,143,90641,1,8,0:0:0:0:
357,165,90828,1,0,0:0:0:0:
357,165,90922,1,8,0:0:0:0:
426,233,91110,1,0,0:0:0:0:
439,268,91297,1,0,0:0:0:0:
270,284,91485,1,8,0:0:0:0:
235,115,91766,1,0,0:0:0:0:
291,215,91953,1,8,0:0:0:0:
454,291,92047,1,8,0:0:0:0:
425,175,92235,1,0,0:0:0:0:
425,175,92297,1,0,0:0:0:0:
425,175,92360,1,0,0:0:0:0:
425,175,92422,1,8,0:0:0:0:
407,258,92610,1,8,0:0:0:0:
407,258,92703,1,8,0:0:0:0:
407,258,92797,1,0,0:0:0:0:
298,186,92985,1,12,0:0:0:0:
366,287,93266,1,0,0:0:0:0:
298,186,93360,1,8,0:0:0:0:
285,281,93453,1,0,0:0:0:0:
376,155,93641,1,0,0:0:0:0:
449,307,93735,1,8,0:0:0:0:
234,305,93828,1,8,0:0:0:0:
457,239,93922,1,0,0:0:0:0:
303,307,94110,1,8,0:0:0:0:
227,213,94297,1,0,0:0:0:0:
303,307,94485,1,12,0:0:0:0:
234,214,94766,1,0,0:0:0:0:
303,307,94860,1,8,0:0:0:0:
368,325,94953,1,0,0:0:0:0:
380,296,95141,1,0,0:0:0:0:
303,307,95235,1,8,0:0:0:0:
409,217,95422,1,0,0:0:0:0:
409,217,95516,1,0,0:0:0:0:
303,307,95610,1,8,0:0:0:0:
286,138,95797,1,0,0:0:0:0:
411,331,95985,1,12,0:0:0:0:
411,331,96172,1,0,0:0:0:0:
411,331,96360,1,12,0:0:0:0:
460,249,96547,1,0,0:0:0:0:
314,270,96735,1,0,0:0:0:0:
314,270,96828,1,0,0:0:0:0:
411,331,96922,1,8,0:0:0:0:
288,152,97016,1,0,0:0:0:0:
411,331,97110,1,8,0:0:0:0:
288,152,97203,1,0,0:0:0:0:
411,331,97297,1,8,0:0:0:0:
448,210,97485,1,0,0:0:0:0:
448,210,97547,1,0,0:0:0:0:
448,210,97610,1,0,0:0:0:0:
453,243,97672,1,8,0:0:0:0:
453,243,97735,1,8,0:0:0:0:
453,243,97797,1,8,0:0:0:0:
453,243,97860,1,0,0:0:0:0:
224,216,97953,1,0,0:0:0:0:
367,132,98047,1,8,0:0:0:0:
367,132,98110,1,8,0:0:0:0:
367,132,98172,1,8,0:0:0:0:
367,132,98235,1,0,0:0:0:0:
367,132,98297,1,0,0:0:0:0:
367,132,98360,1,0,0:0:0:0:
270,160,98422,1,8,0:0:0:0:
340,284,98516,1,8,0:0:0:0:
448,210,98610,1,0,0:0:0:0:
448,210,98672,1,0,0:0:0:0:
448,210,98735,1,0,0:0:0:0:
453,243,98797,1,8,0:0:0:0:
453,243,98860,1,8,0:0:0:0:
453,243,98922,1,8,0:0:0:0:
453,243,98985,1,4,0:0:0:0:
381,200,99735,1,12,0:0:0:0:
381,200,100016,1,12,0:0:0:0:
381,200,100297,1,12,0:0:0:0:
392,287,100485,1,4,0:0:0:0:
381,200,101235,1,4,0:0:0:0:
381,200,101516,1,4,0:0:0:0:
381,200,101797,1,4,0:0:0:0:
392,287,101985,1,12,0:0:0:0:
315,241,102735,1,4,0:0:0:0:
389,176,103016,1,12,0:0:0:0:
415,224,103297,1,4,0:0:0:0:
415,224,103485,1,12,0:0:0:0:
362,151,103672,1,0,0:0:0:0:
346,314,103766,1,0,0:0:0:0:
419,123,103860,1,8,0:0:0:0:
419,123,103922,1,8,0:0:0:0:
419,123,103985,1,8,0:0:0:0:
419,123,104047,1,0,0:0:0:0:
468,181,104141,1,0,0:0:0:0:
419,123,104235,1,8,0:0:0:0:
419,123,104297,1,8,0:0:0:0:
419,123,104360,1,8,0:0:0:0:
419,123,104422,1,0,0:0:0:0:
468,181,104516,1,0,0:0:0:0:
306,175,104610,1,8,0:0:0:0:
306,175,104672,1,8,0:0:0:0:
306,175,104735,1,8,0:0:0:0:
306,175,104797,1,8,0:0:0:0:
306,175,104860,1,8,0:0:0:0:
306,175,104922,1,8,0:0:0:0:
306,175,104985,1,4,0:0:0:0:
420,293,105360,1,8,0:0:0:0:
371,188,105547,1,8,0:0:0:0:
346,310,105641,1,0,0:0:0:0:
401,223,105735,1,8,0:0:0:0:
407,221,105922,1,0,0:0:0:0:
407,221,106016,1,0,0:0:0:0:
407,221,106110,1,8,0:0:0:0:
292,224,106297,1,0,0:0:0:0:
306,126,106485,1,12,0:0:0:0:
286,300,106672,1,0,0:0:0:0:
186,152,106766,1,0,0:0:0:0:
181,279,106860,1,8,0:0:0:0:
376,274,107047,1,8,0:0:0:0:
362,213,107141,1,0,0:0:0:0:
376,222,107235,1,8,0:0:0:0:
278,215,107422,1,0,0:0:0:0:
239,116,107610,1,8,0:0:0:0:
239,116,107703,1,8,0:0:0:0:
198,222,107797,1,0,0:0:0:0:
395,249,107985,1,12,0:0:0:0:
339,155,108172,1,0,0:0:0:0:
412,258,108360,1,12,0:0:0:0:
339,155,108547,1,0,0:0:0:0:
254,194,108735,1,0,0:0:0:0:
246,189,108828,1,0,0:0:0:0:
246,189,108922,1,0,0:0:0:0:
246,189,109016,1,0,0:0:0:0:
254,194,109110,1,8,0:0:0:0:
254,194,109203,1,8,0:0:0:0:
254,194,109297,1,8,0:0:0:0:
254,194,109391,1,8,0:0:0:0:
254,194,109485,1,4,0:0:0:0:
404,258,110235,1,0,0:0:0:0:
463,206,110297,1,0,0:0:0:0:
334,134,110360,1,0,0:0:0:0:
418,265,110422,1,8,0:0:0:0:
366,191,110610,1,8,0:0:0:0:
427,128,110672,1,8,0:0:0:0:
223,153,110735,1,8,0:0:0:0:
272,168,110797,1,0,0:0:0:0:
293,89,110860,1,0,0:0:0:0:
293,89,110922,1,0,0:0:0:0:
331,102,110985,1,12,0:0:0:0:
468,250,111172,1,0,0:0:0:0:
377,243,111266,1,0,0:0:0:0:
410,128,111360,1,8,0:0:0:0:
346,167,111453,1,0,0:0:0:0:
346,167,111547,1,8,0:0:0:0:
346,167,111641,1,8,0:0:0:0:
346,167,111735,1,0,0:0:0:0:
264,238,111828,1,8,0:0:0:0:
274,121,112016,1,0,0:0:0:0:
209,162,112110,1,8,0:0:0:0:
387,248,112297,1,8,0:0:0:0:
387,248,112391,1,8,0:0:0:0:
387,248,112485,1,0,0:0:0:0:
374,296,112578,1,8,0:0:0:0:
374,296,112672,1,0,0:0:0:0:
408,199,112766,1,0,0:0:0:0:
277,274,112860,1,8,0:0:0:0:
157,236,112953,1,0,0:0:0:0:
252,152,113047,1,8,0:0:0:0:
252,152,113141,1,8,0:0:0:0:
252,152,113235,1,0,0:0:0:0:
365,195,113328,1,0,0:0:0:0:
379,251,113516,1,0,0:0:0:0:
368,117,113610,1,8,0:0:0:0:
421,211,113797,1,0,0:0:0:0:
421,211,113891,1,0,0:0:0:0:
421,211,113985,1,8,0:0:0:0:
349,262,114078,1,8,0:0:0:0:
348,261,114172,1,8,0:0:0:0:
438,298,114266,1,0,0:0:0:0:
270,181,114360,1,8,0:0:0:0:
148,277,114453,1,0,0:0:0:0:
259,297,114547,1,8,0:0:0:0:
259,297,114641,1,8,0:0:0:0:
270,181,114735,1,0,0:0:0:0:
285,298,114828,1,8,0:0:0:0:
270,181,115016,1,0,0:0:0:0:
388,271,115110,1,8,0:0:0:0:
399,212,115203,1,8,0:0:0:0:
416,242,115297,1,0,0:0:0:0:
416,242,115391,1,0,0:0:0:0:
416,242,115485,1,8,0:0:0:0:
359,111,115578,1,8,0:0:0:0:
441,168,115766,1,0,0:0:0:0:
284,188,115953,1,0,0:0:0:0:
370,282,116047,1,8,0:0:0:0:
370,282,116141,1,0,0:0:0:0:
370,282,116235,1,8,0:0:0:0:
139,144,116297,1,8,0:0:0:0:
139,144,116360,1,8,0:0:0:0:
139,144,116422,1,0,0:0:0:0:
244,225,116610,1,0,0:0:0:0:
244,225,116672,1,0,0:0:0:0:
244,225,116735,1,0,0:0:0:0:
244,225,116797,1,8,0:0:0:0:
289,131,116985,1,4,0:0:0:0:
360,259,117172,1,8,0:0:0:0:
426,252,117266,1,0,0:0:0:0:
426,252,117360,1,8,0:0:0:0:
396,315,117453,1,8,0:0:0:0:
274,298,117547,1,0,0:0:0:0:
274,298,117641,1,0,0:0:0:0:
216,227,117735,1,8,0:0:0:0:
266,239,117828,1,0,0:0:0:0:
360,238,118016,1,0,0:0:0:0:
360,238,118110,1,8,0:0:0:0:
368,227,118297,1,8,0:0:0:0:
369,227,118391,1,0,0:0:0:0:
389,241,118485,1,8,0:0:0:0:
389,241,118578,1,8,0:0:0:0:
186,171,118672,1,8,0:0:0:0:
287,302,118766,1,0,0:0:0:0:
287,302,118860,1,8,0:0:0:0:
457,232,118953,1,8,0:0:0:0:
457,232,119047,1,0,0:0:0:0:
226,253,119141,1,0,0:0:0:0:
506,321,119235,1,8,0:0:0:0:
455,287,119328,1,0,0:0:0:0:
405,288,119516,1,0,0:0:0:0:
405,288,119610,1,8,0:0:0:0:
259,293,119797,1,0,0:0:0:0:
259,293,119891,1,0,0:0:0:0:
286,304,119985,1,8,0:0:0:0:
378,157,120078,1,8,0:0:0:0:
326,147,120172,1,8,0:0:0:0:
326,147,120266,1,0,0:0:0:0:
289,200,120360,1,8,0:0:0:0:
421,282,120453,1,8,0:0:0:0:
352,287,120547,1,0,0:0:0:0:
352,287,120641,1,0,0:0:0:0:
279,169,120735,1,8,0:0:0:0:
223,82,120828,1,8,0:0:0:0:
219,69,120922,1,8,0:0:0:0:
401,250,121016,1,0,0:0:0:0:
385,198,121110,1,8,0:0:0:0:
183,142,121203,1,8,0:0:0:0:
272,302,121297,1,0,0:0:0:0:
272,302,121391,1,0,0:0:0:0:
426,167,121485,1,8,0:0:0:0:
426,167,121547,1,8,0:0:0:0:
426,167,121610,1,8,0:0:0:0:
426,167,121672,1,0,0:0:0:0:
370,183,121766,1,8,0:0:0:0:
335,94,121860,1,0,0:0:0:0:
172,201,121922,1,0,0:0:0:0:
184,98,121985,1,0,0:0:0:0:
280,166,122047,1,8,0:0:0:0:
280,166,122141,1,0,0:0:0:0:
413,305,122235,1,8,0:0:0:0:
413,305,122297,1,8,0:0:0:0:
413,305,122360,1,8,0:0:0:0:
413,305,122422,1,0,0:0:0:0:
318,243,122610,1,0,0:0:0:0:
318,243,122672,1,0,0:0:0:0:
318,243,122735,1,0,0:0:0:0:
318,243,122797,1,8,0:0:0:0:
318,243,122860,1,8,0:0:0:0:
318,243,122922,1,8,0:0:0:0:
370,251,122985,1,4,0:0:0:0:
158,298,123360,1,0,0:0:0:0:
351,286,123735,1,0,0:0:0:0:
158,298,124016,1,0,0:0:0:0:
282,203,124297,1,0,0:0:0:0:
363,291,124672,1,0,0:0:0:0:
363,291,124860,1,0,0:0:0:0:
350,285,125235,1,0,0:0:0:0:
350,285,125516,1,0,0:0:0:0:
350,285,125797,1,0,0:0:0:0:
311,187,125985,1,8,0:0:0:0:
341,241,126360,1,8,0:0:0:0:
341,241,126735,1,8,0:0:0:0:
341,241,127016,1,8,0:0:0:0:
341,241,127297,1,8,0:0:0:0:
337,316,127672,1,8,0:0:0:0:
356,320,127860,1,8,0:0:0:0:
356,320,128235,1,0,0:0:0:0:
356,320,128297,1,0,0:0:0:0:
426,316,128360,1,0,0:0:0:0:
285,147,128422,1,8,0:0:0:0:
394,181,128516,1,8,0:0:0:0:
356,320,128610,1,0,0:0:0:0:
356,320,128672,1,0,0:0:0:0:
426,316,128735,1,0,0:0:0:0:
285,147,128797,1,8,0:0:0:0:
394,181,128891,1,8,0:0:0:0:
256,241,128985,1,4,0:0:0:0:
437,243,129360,1,0,0:0:0:0:
448,262,129735,1,0,0:0:0:0:
341,194,130016,1,0,0:0:0:0:
341,194,130297,1,0,0:0:0:0:
271,220,130485,1,12,0:0:0:0:
359,252,130860,1,8,0:0:0:0:
359,252,131235,1,8,0:0:0:0:
359,252,131516,1,8,0:0:0:0:
359,252,131797,1,8,0:0:0:0:
386,223,131985,1,4,0:0:0:0:
387,293,132172,1,8,0:0:0:0:
387,293,132360,1,0,0:0:0:0:
387,293,132547,1,8,0:0:0:0:
387,293,132735,1,0,0:0:0:0:
274,249,132828,1,0,0:0:0:0:
387,293,132922,1,0,0:0:0:0:
387,293,133016,1,0,0:0:0:0:
274,249,133110,1,0,0:0:0:0:
274,249,133203,1,0,0:0:0:0:
274,249,133297,1,0,0:0:0:0:
274,249,133391,1,0,0:0:0:0:
283,140,133485,1,12,0:0:0:0:
187,151,133766,1,0,0:0:0:0:
416,284,133953,1,8,0:0:0:0:
392,283,134141,1,0,0:0:0:0:
392,283,134235,1,0,0:0:0:0:
385,287,134422,1,8,0:0:0:0:
371,290,134610,1,0,0:0:0:0:
371,290,134797,1,8,0:0:0:0:
