osu file format v14

[General]
AudioFilename: audio.mp3
AudioLeadIn: 0
PreviewTime: 115471
Countdown: 0
SampleSet: Normal
StackLeniency: 1
Mode: 1
LetterboxInBreaks: 0
WidescreenStoryboard: 1

[Editor]
Bookmarks: 1515,7515,13515,19515,31515,43515,54015,55515,67515,79515,91515,103515,109515,115515,127515,136515
DistanceSpacing: 1.1
BeatDivisor: 4
GridSize: 32
TimelineZoom: 1.1

[Metadata]
Title:Cutter
TitleUnicode:Cutter
Artist:EmoCosine
ArtistUnicode:EmoCosine
Creator:Rycy
Version:Kan//tan
Source:BOFXVI
Tags:C5H10 _gt doulph bms of fighters xvi neo dystopia emoco. party parrot dubstep dnb drum n n' bass drum'n'bass jersey club kawaii future bass muse dash O.N.G.E.K.I. ONGEKI bright instrumental electronic Kantan Futsuu Muzukashii Oni
BeatmapID:3264897
BeatmapSetID:1598606

[Difficulty]
HPDrainRate:8
CircleSize:2
OverallDifficulty:3
ApproachRate:0
SliderMultiplier:1.4
SliderTickRate:1

[Events]
//Background and Video events
0,0,"cutter.jpg",0,-100
//Break Periods
2,91679,94179
//Storyboard Layer 0 (Background)
//Storyboard Layer 1 (Fail)
//Storyboard Layer 2 (Pass)
//Storyboard Layer 3 (Foreground)
//Storyboard Layer 4 (Overlay)
//Storyboard Sound Samples

[TimingPoints]
-4521,375,4,1,0,75,1,0
-21,-111.111111111111,4,1,0,75,0,0
7479,-111.111111111111,4,1,0,70,0,0
13479,-111.111111111111,4,1,0,75,0,0
19479,-105.263157894737,4,1,0,80,0,0
28479,-104.166666666667,4,1,0,80,0,0
28854,-103.092783505155,4,1,0,80,0,0
29229,-102.040816326531,4,1,0,80,0,0
29604,-101.010101010101,4,1,0,80,0,0
29979,-100,4,1,0,80,0,0
31479,-100,4,1,0,85,0,0
43479,-100,4,1,0,85,0,1
53979,-100,4,1,0,85,0,0
54002,-100,4,1,0,50,0,0
55479,-100,4,1,0,65,0,0
56979,-125,4,1,0,70,0,0
58479,-125,4,1,0,75,0,0
59979,-125,4,1,0,80,0,0
61479,-125,4,1,0,85,0,0
62229,-121.212121212121,4,1,0,85,0,0
62979,-117.647058823529,4,1,0,90,0,0
63729,-114.285714285714,4,1,0,90,0,0
64479,-111.111111111111,4,1,0,95,0,0
64854,-108.695652173913,4,1,0,95,0,0
65229,-106.382978723404,4,1,0,95,0,0
65604,-104.166666666667,4,1,0,95,0,0
65979,-102.040816326531,4,1,0,95,0,0
67479,-100,4,1,0,100,0,1
73104,-100,4,1,0,100,0,0
73479,-100,4,1,0,100,0,1
77979,-100,4,1,0,90,0,0
79479,-100,4,1,0,100,0,1
85104,-100,4,1,0,100,0,0
85479,-100,4,1,0,100,0,1
89979,-100,4,1,0,90,0,0
91479,-100,4,1,0,75,0,0
91666,-125,4,1,0,75,0,0
97479,-122.489824338504,4,1,0,75,0,0
97854,-120.03005653182,4,1,0,75,0,0
98229,-117.619684319387,4,1,0,75,0,0
98979,-115.257715768256,4,1,0,75,0,0
99354,-112.943178864887,4,1,0,75,0,0
99729,-110.675121115138,4,1,0,75,0,0
100479,-108.452609152287,4,1,0,75,0,0
100854,-106.274728352928,4,1,0,75,0,0
101229,-104.140582460579,4,1,0,75,0,0
101604,-102.049293216846,4,1,0,75,0,0
101979,-99.9999999999999,4,1,0,75,0,0
103479,-111.111111111111,4,1,0,70,0,0
109479,-110.051944047921,4,1,0,75,0,0
109854,-109.00287349854,4,1,0,75,0,0
110229,-107.963803217915,4,1,0,75,0,0
110979,-106.934637878448,4,1,0,75,0,0
111354,-105.915283061252,4,1,0,75,0,0
111729,-104.905645247489,4,1,0,75,0,0
112479,-103.905631809789,4,1,0,75,0,0
112854,-102.915151003753,4,1,0,75,0,0
113229,-101.934111959535,4,1,0,75,0,0
113604,-100.962424673506,4,1,0,75,0,0
113979,-100,4,1,0,75,0,0
115479,-100,4,1,0,90,0,1
127479,-111.111111111111,4,1,0,70,0,0
136479,-108.695652173913,4,1,0,75,0,0
136854,-106.382978723404,4,1,0,75,0,0
137229,-104.166666666667,4,1,0,75,0,0
137604,-102.040816326531,4,1,0,75,0,0
137979,-100,4,1,0,75,0,0

[HitObjects]
256,192,1479,5,0,0:0:0:0:
256,192,2979,1,8,0:0:0:0:
256,192,4479,12,8,6354,0:0:0:0:
256,192,6729,5,8,0:0:0:0:
160,192,7479,5,4,0:0:0:0:
256,192,8979,1,8,0:0:0:0:
256,192,10479,1,0,0:0:0:0:
256,192,11979,1,8,0:0:0:0:
352,192,13479,5,4,0:0:0:0:
352,192,14791,1,4,0:0:0:0:
352,192,15541,1,4,0:0:0:0:
160,192,16479,1,12,0:0:0:0:
160,192,17041,1,12,0:0:0:0:
352,192,17416,1,4,0:0:0:0:
256,192,17979,1,0,0:0:0:0:
256,192,18729,1,0,0:0:0:0:
352,192,19479,5,4,0:0:0:0:
256,192,19854,1,8,0:0:0:0:
256,192,20604,1,8,0:0:0:0:
256,192,21354,1,8,0:0:0:0:
256,192,22104,1,8,0:0:0:0:
256,192,22479,1,0,0:0:0:0:
256,192,22854,1,8,0:0:0:0:
256,192,23604,1,8,0:0:0:0:
256,192,24354,1,8,0:0:0:0:
256,192,25479,1,0,0:0:0:0:
256,192,25854,1,8,0:0:0:0:
256,192,26229,1,0,0:0:0:0:
256,192,26979,1,0,0:0:0:0:
256,192,27354,1,0,0:0:0:0:
256,192,27729,1,8,0:0:0:0:
256,192,28479,1,8,0:0:0:0:
256,192,28854,1,8,0:0:0:0:
256,192,29229,1,0,0:0:0:0:
256,192,29604,1,0,0:0:0:0:
256,192,29979,1,8,0:0:0:0:
160,192,31104,1,12,0:0:0:0:
352,192,31479,5,4,0:0:0:0:
256,192,32979,1,8,0:0:0:0:
256,192,33354,1,8,0:0:0:0:
256,192,33729,1,8,0:0:0:0:
352,192,34479,1,4,0:0:0:0:
256,192,35979,1,8,0:0:0:0:
256,192,36729,1,8,0:0:0:0:
256,192,37104,1,8,0:0:0:0:
352,192,37479,1,4,0:0:0:0:
256,192,38979,1,8,0:0:0:0:
256,192,39729,1,8,0:0:0:0:
256,192,40104,1,8,0:0:0:0:
352,192,40479,1,4,0:0:0:0:
256,192,41229,1,0,0:0:0:0:
256,192,41979,1,8,0:0:0:0:
256,192,42729,1,8,0:0:0:0:
256,192,43104,1,0,0:0:0:0:
160,192,43479,5,12,0:0:0:0:
256,192,44604,1,8,0:0:0:0:
256,192,44979,1,0,0:0:0:0:
256,192,45729,1,8,0:0:0:0:
256,192,46104,1,0,0:0:0:0:
256,192,46479,1,8,0:0:0:0:
256,192,47604,1,8,0:0:0:0:
256,192,47979,1,0,0:0:0:0:
256,192,48729,1,0,0:0:0:0:
256,192,49104,1,0,0:0:0:0:
256,192,49479,1,8,0:0:0:0:
256,192,50229,1,8,0:0:0:0:
256,192,50604,1,8,0:0:0:0:
256,192,50979,1,0,0:0:0:0:
256,192,51729,1,8,0:0:0:0:
256,192,52479,1,8,0:0:0:0:
256,192,52854,1,8,0:0:0:0:
256,192,53229,1,0,0:0:0:0:
256,192,53604,1,0,0:0:0:0:
160,192,53979,1,12,0:0:0:0:
160,192,55479,5,12,0:0:0:0:
256,192,56979,1,0,0:0:0:0:
256,192,58479,1,8,0:0:0:0:
256,192,59979,1,0,0:0:0:0:
256,192,61479,1,8,0:0:0:0:
256,192,62229,1,8,0:0:0:0:
256,192,62979,1,0,0:0:0:0:
256,192,63729,1,8,0:0:0:0:
256,192,64479,1,0,0:0:0:0:
256,192,64854,1,0,0:0:0:0:
256,192,65229,1,8,0:0:0:0:
256,192,65604,1,8,0:0:0:0:
256,192,65979,1,0,0:0:0:0:
160,192,67479,5,12,0:0:0:0:
256,192,68604,1,8,0:0:0:0:
256,192,68979,1,0,0:0:0:0:
256,192,69354,1,8,0:0:0:0:
256,192,70104,1,0,0:0:0:0:
256,192,70479,1,0,0:0:0:0:
256,192,70854,1,8,0:0:0:0:
256,192,71604,1,8,0:0:0:0:
256,192,71979,1,0,0:0:0:0:
256,192,72354,1,8,0:0:0:0:
256,192,73104,1,8,0:0:0:0:
160,192,73479,5,4,0:0:0:0:
256,192,74604,1,0,0:0:0:0:
256,192,74979,1,8,0:0:0:0:
256,192,75354,1,0,0:0:0:0:
256,192,76104,1,8,0:0:0:0:
256,192,76479,1,8,0:0:0:0:
256,192,76854,1,0,0:0:0:0:
256,192,77604,1,0,0:0:0:0:
256,192,77979,5,8,0:0:0:0:
256,192,78729,1,0,0:0:0:0:
256,192,79104,1,8,0:0:0:0:
160,192,79479,5,12,0:0:0:0:
256,192,80604,1,8,0:0:0:0:
256,192,80979,1,0,0:0:0:0:
256,192,81354,1,8,0:0:0:0:
256,192,82104,1,0,0:0:0:0:
256,192,82479,1,0,0:0:0:0:
256,192,82854,1,8,0:0:0:0:
256,192,83604,1,8,0:0:0:0:
256,192,83979,1,0,0:0:0:0:
256,192,84354,1,8,0:0:0:0:
256,192,85104,1,8,0:0:0:0:
160,192,85479,1,4,0:0:0:0:
256,192,86604,1,0,0:0:0:0:
256,192,86979,1,8,0:0:0:0:
256,192,87354,1,0,0:0:0:0:
256,192,88104,1,8,0:0:0:0:
256,192,88479,1,0,0:0:0:0:
256,192,88854,1,0,0:0:0:0:
256,192,89604,1,8,0:0:0:0:
256,192,89979,1,0,0:0:0:0:
256,192,90729,1,8,0:0:0:0:
256,192,91104,1,8,0:0:0:0:
352,192,91479,1,4,0:0:0:0:
256,192,95979,5,8,0:0:0:0:
256,192,96729,1,0,0:0:0:0:
256,192,97479,1,0,0:0:0:0:
256,192,97854,1,8,0:0:0:0:
256,192,98229,1,0,0:0:0:0:
256,192,98979,1,8,0:0:0:0:
256,192,99354,1,0,0:0:0:0:
256,192,99729,1,8,0:0:0:0:
256,192,100479,1,0,0:0:0:0:
256,192,100854,1,0,0:0:0:0:
256,192,101229,1,8,0:0:0:0:
256,192,101604,1,8,0:0:0:0:
256,192,101979,1,0,0:0:0:0:
352,192,103479,5,4,0:0:0:0:
160,192,104979,1,12,0:0:0:0:
352,192,106479,1,4,0:0:0:0:
160,192,107979,1,12,0:0:0:0:
256,192,108729,1,0,0:0:0:0:
256,192,109479,1,8,0:0:0:0:
256,192,109854,1,8,0:0:0:0:
256,192,110229,1,0,0:0:0:0:
256,192,110979,1,8,0:0:0:0:
256,192,111354,1,0,0:0:0:0:
256,192,111729,1,0,0:0:0:0:
256,192,112479,1,0,0:0:0:0:
256,192,112854,1,0,0:0:0:0:
256,192,113229,1,8,0:0:0:0:
256,192,113604,1,8,0:0:0:0:
256,192,113979,1,0,0:0:0:0:
160,192,115479,5,12,0:0:0:0:
256,192,116604,1,0,0:0:0:0:
256,192,116979,1,8,0:0:0:0:
256,192,117729,1,8,0:0:0:0:
256,192,118104,1,0,0:0:0:0:
256,192,118479,1,8,0:0:0:0:
256,192,119604,1,0,0:0:0:0:
160,192,119979,1,12,0:0:0:0:
256,192,120729,1,0,0:0:0:0:
256,192,121104,1,0,0:0:0:0:
256,192,121479,1,8,0:0:0:0:
256,192,122229,1,8,0:0:0:0:
256,192,122604,1,8,0:0:0:0:
256,192,122979,1,0,0:0:0:0:
256,192,123729,1,0,0:0:0:0:
256,192,124479,1,0,0:0:0:0:
256,192,124854,1,0,0:0:0:0:
256,192,125229,1,8,0:0:0:0:
256,192,125604,1,8,0:0:0:0:
256,192,125979,1,0,0:0:0:0:
160,192,127479,5,12,0:0:0:0:
256,192,128979,1,8,0:0:0:0:
256,192,130479,1,8,0:0:0:0:
256,192,131979,1,8,0:0:0:0:
256,192,133479,1,0,0:0:0:0:
256,192,134229,1,0,0:0:0:0:
256,192,134979,1,8,0:0:0:0:
256,192,135729,1,0,0:0:0:0:
256,192,136479,1,8,0:0:0:0:
256,192,136854,1,8,0:0:0:0:
256,192,137229,1,0,0:0:0:0:
256,192,137604,1,0,0:0:0:0:
160,192,137979,1,12,0:0:0:0:
