osu file format v14

[General]
AudioFilename: audio.mp3
AudioLeadIn: 0
PreviewTime: 115471
Countdown: 0
SampleSet: Normal
StackLeniency: 1
Mode: 1
LetterboxInBreaks: 0
WidescreenStoryboard: 1

[Editor]
Bookmarks: 1565,4565,7565,13565,19565,31565,43565,54065,55565,67565,79565,91565,97565,103565,109565,115565,127565,133565,136565,139565
DistanceSpacing: 1.1
BeatDivisor: 4
GridSize: 32
TimelineZoom: 2.5

[Metadata]
Title:Cutter
TitleUnicode:Cutter
Artist:EmoCosine
ArtistUnicode:EmoCosine
Creator:Rycy
Version:C5's Muzu//kashii
Source:BOFXVI
Tags:C5H10 _gt doulph bms of fighters xvi neo dystopia emoco. party parrot dubstep dnb drum n n' bass drum'n'bass jersey club kawaii future bass muse dash O.N.G.E.K.I. ONGEKI bright instrumental electronic Kantan Futsuu Muzukashii Oni
BeatmapID:3264893
BeatmapSetID:1598606

[Difficulty]
HPDrainRate:6
CircleSize:2
OverallDifficulty:5
ApproachRate:8
SliderMultiplier:1.4
SliderTickRate:1

[Events]
//Background and Video events
0,0,"cutter.jpg",0,-100
//Break Periods
//Storyboard Layer 0 (Background)
//Storyboard Layer 1 (Fail)
//Storyboard Layer 2 (Pass)
//Storyboard Layer 3 (Foreground)
//Storyboard Layer 4 (Overlay)
//Storyboard Sound Samples

[TimingPoints]
-4521,375,4,1,0,75,1,0
-21,-125,4,1,0,75,0,0
4479,-117.647058823529,4,1,0,80,0,0
5604,-116.279069767442,4,1,0,80,0,0
5979,-114.942528735632,4,1,0,80,0,0
6354,-113.636363636364,4,1,0,80,0,0
6541,-112.359550561798,4,1,0,80,0,0
6729,-111.111111111111,4,1,0,80,0,0
7479,-117.647058823529,4,1,0,70,0,0
13479,-117.647058823529,4,1,0,75,0,0
14791,-116.279069767442,4,1,0,75,0,0
15541,-114.942528735632,4,1,0,75,0,0
16010,-113.636363636364,4,1,0,75,0,0
16291,-112.359550561798,4,1,0,75,0,0
16479,-111.111111111111,4,1,0,80,0,0
17041,-112.359550561798,4,1,0,80,0,0
17416,-113.636363636364,4,1,0,80,0,0
17791,-114.942528735632,4,1,0,80,0,0
17979,-116.279069767442,4,1,0,80,0,0
18354,-117.647058823529,4,1,0,80,0,0
18729,-119.047619047619,4,1,0,80,0,0
18916,-120.481927710843,4,1,0,80,0,0
19104,-121.951219512195,4,1,0,80,0,0
19479,-125,4,1,0,80,0,0
24729,-123.456790123457,4,1,0,80,0,0
25479,-121.951219512195,4,1,0,80,0,0
28479,-120.481927710843,4,1,0,80,0,0
29229,-119.047619047619,4,1,0,80,0,0
29791,-117.647058823529,4,1,0,85,0,0
30541,-117.647058823529,4,1,0,85,0,0
30916,-119.047619047619,4,1,0,85,0,0
31104,-121.951219512195,4,1,0,85,0,0
31479,-117.647058823529,4,1,0,80,0,0
31854,-116.279069767442,4,1,0,80,0,0
32041,-114.942528735632,4,1,0,80,0,0
32510,-112.359550561798,4,1,0,80,0,0
32791,-111.111111111111,4,1,0,80,0,0
33354,-112.359550561798,4,1,0,80,0,0
33729,-113.636363636364,4,1,0,80,0,0
33916,-114.942528735632,4,1,0,80,0,0
34291,-116.279069767442,4,1,0,80,0,0
34479,-117.647058823529,4,1,0,75,0,0
40479,-116.279069767442,4,1,0,80,0,0
40854,-111.111111111111,4,1,0,80,0,0
41041,-112.359550561798,4,1,0,80,0,0
41322,-113.636363636364,4,1,0,80,0,0
41510,-114.942528735632,4,1,0,80,0,0
41791,-116.279069767442,4,1,0,80,0,0
41979,-117.647058823529,4,1,0,75,0,0
43479,-117.647058823529,4,1,0,80,0,1
48729,-116.279069767442,4,1,0,80,0,1
49479,-114.942528735632,4,1,0,80,0,1
51729,-116.279069767442,4,1,0,80,0,1
52479,-117.647058823529,4,1,0,85,0,1
52854,-116.279069767442,4,1,0,85,0,1
53229,-114.942528735632,4,1,0,85,0,1
53604,-113.636363636364,4,1,0,85,0,1
53791,-112.359550561798,4,1,0,85,0,1
53979,-111.111111111111,4,1,0,50,0,0
55479,-125,4,1,0,60,0,0
55854,-123.456790123457,4,1,0,60,0,0
56979,-121.951219512195,4,1,0,60,0,0
57354,-120.481927710843,4,1,0,60,0,0
57729,-119.047619047619,4,1,0,60,0,0
58479,-116.279069767442,4,1,0,60,0,0
58854,-114.942528735632,4,1,0,60,0,0
59979,-111.111111111111,4,1,0,60,0,0
60354,-109.89010989011,4,1,0,60,0,0
60541,-108.695652173913,4,1,0,60,0,0
60916,-107.52688172043,4,1,0,60,0,0
61104,-106.382978723404,4,1,0,60,0,0
61479,-105.263157894737,4,1,0,75,0,0
61854,-107.52688172043,4,1,0,75,0,0
62229,-109.89010989011,4,1,0,75,0,0
62416,-111.111111111111,4,1,0,75,0,0
62604,-112.359550561798,4,1,0,75,0,0
62979,-114.942528735632,4,1,0,75,0,0
63354,-116.279069767442,4,1,0,75,0,0
63729,-114.942528735632,4,1,0,75,0,0
63916,-113.636363636364,4,1,0,75,0,0
64104,-112.359550561798,4,1,0,75,0,0
64479,-111.111111111111,4,1,0,80,0,0
64854,-109.89010989011,4,1,0,80,0,0
65229,-108.695652173913,4,1,0,80,0,0
65604,-107.52688172043,4,1,0,80,0,0
65791,-106.382978723404,4,1,0,80,0,0
65979,-105.263157894737,4,1,0,80,0,0
66729,-106.382978723404,4,1,0,80,0,0
66916,-107.52688172043,4,1,0,80,0,0
67104,-108.695652173913,4,1,0,80,0,0
67479,-100,4,1,0,100,0,1
73104,-100,4,1,0,100,0,0
73479,-100,4,1,0,100,0,1
77979,-100,4,1,0,100,0,0
78354,-105.263157894737,4,1,0,100,0,0
78729,-111.111111111111,4,1,0,100,0,0
78916,-108.695652173913,4,1,0,100,0,0
79104,-105.263157894737,4,1,0,100,0,0
79291,-103.092783505155,4,1,0,100,0,0
79479,-100,4,1,0,100,0,1
85104,-100,4,1,0,100,0,0
85479,-100,4,1,0,100,0,1
88479,-99.009900990099,4,1,0,100,0,1
88854,-98.0392156862745,4,1,0,100,0,1
89041,-97.0873786407767,4,1,0,100,0,1
89604,-96.1538461538461,4,1,0,100,0,1
89979,-95.2380952380952,4,1,0,95,0,0
90354,-100,4,1,0,95,0,0
90729,-105.263157894737,4,1,0,95,0,0
90916,-108.695652173913,4,1,0,95,0,0
91104,-111.111111111111,4,1,0,95,0,0
91291,-114.942528735632,4,1,0,95,0,0
91479,-117.647058823529,4,1,0,70,0,0
95979,-116.279069767442,4,1,0,70,0,0
97479,-114.942528735632,4,1,0,75,0,0
98979,-113.636363636364,4,1,0,75,0,0
99729,-112.359550561798,4,1,0,75,0,0
100479,-111.111111111111,4,1,0,80,0,0
100854,-108.695652173913,4,1,0,80,0,0
101229,-107.52688172043,4,1,0,80,0,0
101604,-106.382978723404,4,1,0,80,0,0
101791,-105.263157894737,4,1,0,80,0,0
102541,-107.52688172043,4,1,0,80,0,0
102916,-108.695652173913,4,1,0,80,0,0
103104,-109.89010989011,4,1,0,80,0,0
103479,-111.111111111111,4,1,0,70,0,0
104229,-108.695652173913,4,1,0,70,0,0
104510,-106.382978723404,4,1,0,70,0,0
104791,-104.166666666667,4,1,0,70,0,0
104979,-102.040816326531,4,1,0,70,0,0
105729,-104.166666666667,4,1,0,70,0,0
106010,-106.382978723404,4,1,0,70,0,0
106291,-108.695652173913,4,1,0,70,0,0
106479,-111.111111111111,4,1,0,70,0,0
107229,-108.695652173913,4,1,0,70,0,0
107510,-106.382978723404,4,1,0,70,0,0
107791,-104.166666666667,4,1,0,70,0,0
107979,-102.040816326531,4,1,0,70,0,0
108729,-117.647058823529,4,1,0,70,0,0
109010,-116.279069767442,4,1,0,70,0,0
109291,-113.636363636364,4,1,0,70,0,0
109479,-111.111111111111,4,1,0,75,0,0
111354,-109.89010989011,4,1,0,75,0,0
111541,-108.695652173913,4,1,0,75,0,0
112010,-107.52688172043,4,1,0,75,0,0
112291,-106.382978723404,4,1,0,75,0,0
112479,-105.263157894737,4,1,0,75,0,0
112666,-104.166666666667,4,1,0,75,0,0
113041,-103.092783505155,4,1,0,75,0,0
113416,-102.040816326531,4,1,0,75,0,0
113791,-101.010101010101,4,1,0,75,0,0
113979,-100,4,1,0,75,0,0
114729,-104.166666666667,4,1,0,75,0,0
114916,-103.092783505155,4,1,0,75,0,0
115104,-102.040816326531,4,1,0,75,0,0
115291,-101.010101010101,4,1,0,75,0,0
115479,-100,4,1,0,80,0,1
119604,-99.009900990099,4,1,0,80,0,1
119791,-97.0873786407767,4,1,0,80,0,1
119979,-95.2380952380952,4,1,0,90,0,1
120729,-99.009900990099,4,1,0,75,0,1
120916,-98.0392156862745,4,1,0,75,0,1
121104,-97.0873786407767,4,1,0,75,0,1
121479,-95.2380952380952,4,1,0,80,0,1
123354,-94.3396226415094,4,1,0,80,0,1
123729,-93.4579439252336,4,1,0,80,0,1
123916,-92.5925925925926,4,1,0,80,0,1
124291,-91.743119266055,4,1,0,80,0,1
124479,-90.9090909090909,4,1,0,80,0,1
124854,-90.0900900900901,4,1,0,80,0,1
125041,-89.2857142857143,4,1,0,80,0,1
125416,-88.4955752212389,4,1,0,80,0,1
125604,-87.719298245614,4,1,0,80,0,1
125791,-86.9565217391304,4,1,0,80,0,1
125979,-86.9565217391304,4,1,0,80,0,0
126729,-112.359550561798,4,1,0,80,0,0
126916,-113.636363636364,4,1,0,80,0,0
127104,-114.942528735632,4,1,0,80,0,0
127291,-116.279069767442,4,1,0,80,0,0
127479,-117.647058823529,4,1,0,70,0,0
132729,-116.279069767442,4,1,0,70,0,0
133479,-114.942528735632,4,1,0,75,0,0
134979,-113.636363636364,4,1,0,75,0,0
135729,-112.359550561798,4,1,0,75,0,0
136479,-111.111111111111,4,1,0,80,0,0
136666,-109.89010989011,4,1,0,80,0,0
137229,-108.695652173913,4,1,0,80,0,0
137416,-107.52688172043,4,1,0,80,0,0
137604,-106.382978723404,4,1,0,80,0,0
137979,-105.263157894737,4,1,0,70,0,0

[HitObjects]
256,192,1479,5,0,0:0:0:0:
256,192,2979,5,8,0:0:0:0:
256,192,4479,5,0,0:0:0:0:
256,192,4854,1,8,0:0:0:0:
256,192,5604,1,8,0:0:0:0:
256,192,5979,5,0,0:0:0:0:
256,192,6354,1,0,0:0:0:0:
256,192,6541,1,0,0:0:0:0:
256,192,6729,1,8,0:0:0:0:
256,192,7479,5,0,0:0:0:0:
256,192,8229,1,0,0:0:0:0:
256,192,8510,1,0,0:0:0:0:
256,192,8791,1,0,0:0:0:0:
256,192,8979,5,8,0:0:0:0:
256,192,9729,1,0,0:0:0:0:
256,192,10010,1,8,0:0:0:0:
256,192,10291,1,8,0:0:0:0:
256,192,10479,5,0,0:0:0:0:
256,192,11229,1,0,0:0:0:0:
256,192,11510,1,0,0:0:0:0:
256,192,11791,1,0,0:0:0:0:
256,192,11979,5,8,0:0:0:0:
256,192,12354,1,8,0:0:0:0:
256,192,12729,1,8,0:0:0:0:
256,192,12916,1,8,0:0:0:0:
256,192,13010,1,8,0:0:0:0:
256,192,13104,1,8,0:0:0:0:
256,192,13291,1,0,0:0:0:0:
256,192,13479,5,8,0:0:0:0:
256,192,14229,1,0,0:0:0:0:
256,192,14510,1,0,0:0:0:0:
256,192,14791,5,8,0:0:0:0:
256,192,14979,1,0,0:0:0:0:
256,192,15354,1,0,0:0:0:0:
256,192,15541,5,8,0:0:0:0:
256,192,15729,1,0,0:0:0:0:
256,192,16010,1,0,0:0:0:0:
256,192,16104,1,0,0:0:0:0:
256,192,16291,1,0,0:0:0:0:
256,192,16479,5,12,0:0:0:0:
256,192,17041,5,12,0:0:0:0:
256,192,17416,5,12,0:0:0:0:
256,192,17791,5,12,0:0:0:0:
256,192,17979,5,12,0:0:0:0:
256,192,18354,1,8,0:0:0:0:
256,192,18729,1,0,0:0:0:0:
256,192,18822,1,0,0:0:0:0:
256,192,18916,1,0,0:0:0:0:
256,192,19104,1,8,0:0:0:0:
256,192,19479,5,4,0:0:0:0:
256,192,20041,1,0,0:0:0:0:
256,192,20416,1,0,0:0:0:0:
256,192,20604,1,8,0:0:0:0:
256,192,20979,5,8,0:0:0:0:
256,192,21541,1,0,0:0:0:0:
256,192,21916,1,0,0:0:0:0:
256,192,22104,1,8,0:0:0:0:
256,192,22291,1,0,0:0:0:0:
256,192,22479,5,8,0:0:0:0:
256,192,23041,1,0,0:0:0:0:
256,192,23416,1,0,0:0:0:0:
256,192,23604,1,8,0:0:0:0:
256,192,23979,5,0,0:0:0:0:
256,192,24354,1,0,0:0:0:0:
256,192,24729,1,0,0:0:0:0:
256,192,24822,1,0,0:0:0:0:
256,192,24916,1,0,0:0:0:0:
256,192,25104,1,8,0:0:0:0:
256,192,25291,1,8,0:0:0:0:
256,192,25479,5,0,0:0:0:0:
256,192,25854,1,0,0:0:0:0:
256,192,26229,1,0,0:0:0:0:
256,192,26510,1,0,0:0:0:0:
256,192,26604,1,8,0:0:0:0:
256,192,26791,1,0,0:0:0:0:
256,192,26979,5,8,0:0:0:0:
256,192,27354,1,8,0:0:0:0:
256,192,27729,1,8,0:0:0:0:
256,192,28010,1,8,0:0:0:0:
256,192,28104,1,8,0:0:0:0:
256,192,28291,1,8,0:0:0:0:
256,192,28479,5,0,0:0:0:0:
256,192,28666,1,8,0:0:0:0:
256,192,28854,1,0,0:0:0:0:
256,192,29041,1,0,0:0:0:0:
256,192,29229,1,8,0:0:0:0:
256,192,29416,1,0,0:0:0:0:
256,192,29604,1,8,0:0:0:0:
256,192,29791,1,8,0:0:0:0:
256,192,29885,1,8,0:0:0:0:
256,192,29979,5,8,0:0:0:0:
256,192,30541,1,0,0:0:0:0:
256,192,30635,1,0,0:0:0:0:
256,192,30729,1,0,0:0:0:0:
256,192,30916,1,0,0:0:0:0:
256,192,31104,1,8,0:0:0:0:
256,192,31479,5,8,0:0:0:0:
256,192,31854,1,0,0:0:0:0:
256,192,32041,1,0,0:0:0:0:
256,192,32135,1,0,0:0:0:0:
256,192,32510,1,0,0:0:0:0:
256,192,32604,1,0,0:0:0:0:
256,192,32791,1,8,0:0:0:0:
256,192,32885,1,8,0:0:0:0:
256,192,32979,5,8,0:0:0:0:
256,192,33354,1,8,0:0:0:0:
256,192,33541,1,0,0:0:0:0:
256,192,33729,1,8,0:0:0:0:
256,192,33916,1,0,0:0:0:0:
256,192,34010,1,0,0:0:0:0:
256,192,34104,1,0,0:0:0:0:
256,192,34291,1,8,0:0:0:0:
256,192,34479,5,0,0:0:0:0:
256,192,34854,1,0,0:0:0:0:
256,192,35041,1,0,0:0:0:0:
256,192,35135,1,0,0:0:0:0:
256,192,35510,1,0,0:0:0:0:
256,192,35604,1,0,0:0:0:0:
256,192,35791,1,0,0:0:0:0:
256,192,35979,5,8,0:0:0:0:
256,192,36541,1,0,0:0:0:0:
256,192,36729,1,8,0:0:0:0:
256,192,37010,1,8,0:0:0:0:
256,192,37291,1,8,0:0:0:0:
256,192,37479,5,0,0:0:0:0:
256,192,37854,1,0,0:0:0:0:
256,192,38041,1,0,0:0:0:0:
256,192,38135,1,0,0:0:0:0:
256,192,38510,1,0,0:0:0:0:
256,192,38604,1,0,0:0:0:0:
256,192,38791,1,8,0:0:0:0:
256,192,38979,5,0,0:0:0:0:
256,192,39541,1,0,0:0:0:0:
256,192,39729,1,8,0:0:0:0:
256,192,40010,1,8,0:0:0:0:
256,192,40291,1,8,0:0:0:0:
256,192,40479,5,0,0:0:0:0:
256,192,40854,1,8,0:0:0:0:
256,192,41041,1,8,0:0:0:0:
256,192,41135,1,8,0:0:0:0:
256,192,41322,1,8,0:0:0:0:
256,192,41510,1,0,0:0:0:0:
256,192,41604,1,0,0:0:0:0:
256,192,41791,1,0,0:0:0:0:
256,192,41979,5,8,0:0:0:0:
256,192,42354,1,0,0:0:0:0:
256,192,42541,1,0,0:0:0:0:
256,192,42635,1,0,0:0:0:0:
256,192,42729,1,0,0:0:0:0:
256,192,42916,1,8,0:0:0:0:
256,192,43104,1,0,0:0:0:0:
256,192,43291,1,0,0:0:0:0:
256,192,43479,5,12,0:0:0:0:
256,192,44041,1,0,0:0:0:0:
256,192,44229,1,8,0:0:0:0:
256,192,44416,1,0,0:0:0:0:
256,192,44510,1,0,0:0:0:0:
256,192,44604,1,0,0:0:0:0:
256,192,44791,1,0,0:0:0:0:
256,192,44979,5,8,0:0:0:0:
256,192,45354,1,0,0:0:0:0:
256,192,45729,1,8,0:0:0:0:
256,192,46010,1,8,0:0:0:0:
256,192,46291,1,8,0:0:0:0:
256,192,46479,5,0,0:0:0:0:
256,192,47041,1,0,0:0:0:0:
256,192,47229,1,8,0:0:0:0:
256,192,47416,1,0,0:0:0:0:
256,192,47510,1,0,0:0:0:0:
256,192,47604,1,0,0:0:0:0:
256,192,47791,1,8,0:0:0:0:
256,192,47979,5,0,0:0:0:0:
256,192,48354,1,0,0:0:0:0:
256,192,48729,1,8,0:0:0:0:
256,192,49010,1,8,0:0:0:0:
256,192,49291,1,8,0:0:0:0:
256,192,49479,5,0,0:0:0:0:
256,192,49854,1,8,0:0:0:0:
256,192,50229,1,0,0:0:0:0:
256,192,50416,1,0,0:0:0:0:
256,192,50510,1,0,0:0:0:0:
256,192,50604,1,0,0:0:0:0:
256,192,50791,1,0,0:0:0:0:
256,192,50979,5,8,0:0:0:0:
256,192,51354,1,0,0:0:0:0:
256,192,51729,1,8,0:0:0:0:
256,192,52010,1,8,0:0:0:0:
256,192,52291,1,8,0:0:0:0:
256,192,52479,5,0,0:0:0:0:
256,192,52854,1,8,0:0:0:0:
256,192,53041,1,0,0:0:0:0:
256,192,53229,1,8,0:0:0:0:
256,192,53322,1,8,0:0:0:0:
256,192,53416,1,8,0:0:0:0:
256,192,53604,1,8,0:0:0:0:
256,192,53791,1,8,0:0:0:0:
256,192,53979,5,4,0:0:0:0:
256,192,55479,5,4,0:0:0:0:
256,192,55854,1,0,0:0:0:0:
256,192,56041,1,8,0:0:0:0:
256,192,56229,1,8,0:0:0:0:
256,192,56416,1,0,0:0:0:0:
256,192,56604,1,8,0:0:0:0:
256,192,56979,5,0,0:0:0:0:
256,192,57354,1,0,0:0:0:0:
256,192,57729,1,8,0:0:0:0:
256,192,57916,1,8,0:0:0:0:
256,192,58104,1,0,0:0:0:0:
256,192,58479,5,0,0:0:0:0:
256,192,58854,1,8,0:0:0:0:
256,192,59041,1,8,0:0:0:0:
256,192,59229,1,0,0:0:0:0:
256,192,59416,1,0,0:0:0:0:
256,192,59604,1,8,0:0:0:0:
256,192,59979,5,0,0:0:0:0:
256,192,60166,1,0,0:0:0:0:
256,192,60354,1,8,0:0:0:0:
256,192,60541,1,8,0:0:0:0:
256,192,60635,1,8,0:0:0:0:
256,192,60729,1,8,0:0:0:0:
256,192,60916,1,0,0:0:0:0:
256,192,61104,5,12,0:0:0:0:
256,192,61479,5,0,0:0:0:0:
256,192,61854,1,0,0:0:0:0:
256,192,62229,1,0,0:0:0:0:
256,192,62416,1,0,0:0:0:0:
256,192,62604,1,8,0:0:0:0:
256,192,62979,5,8,0:0:0:0:
256,192,63354,1,0,0:0:0:0:
256,192,63729,1,0,0:0:0:0:
256,192,63916,1,8,0:0:0:0:
256,192,64104,1,0,0:0:0:0:
256,192,64479,5,8,0:0:0:0:
256,192,64666,1,0,0:0:0:0:
256,192,64854,1,8,0:0:0:0:
256,192,65041,1,0,0:0:0:0:
256,192,65229,1,8,0:0:0:0:
256,192,65322,1,8,0:0:0:0:
256,192,65416,1,8,0:0:0:0:
256,192,65604,1,8,0:0:0:0:
256,192,65791,1,8,0:0:0:0:
256,192,65979,5,0,0:0:0:0:
256,192,66729,1,0,0:0:0:0:
256,192,66916,1,0,0:0:0:0:
256,192,67104,1,8,0:0:0:0:
256,192,67479,5,4,0:0:0:0:
256,192,68041,1,8,0:0:0:0:
256,192,68135,1,8,0:0:0:0:
256,192,68229,1,8,0:0:0:0:
256,192,68416,1,8,0:0:0:0:
256,192,68604,1,0,0:0:0:0:
256,192,68979,5,0,0:0:0:0:
256,192,69354,1,8,0:0:0:0:
256,192,69541,1,0,0:0:0:0:
256,192,69635,1,0,0:0:0:0:
256,192,69729,1,0,0:0:0:0:
256,192,69916,1,0,0:0:0:0:
256,192,70104,1,8,0:0:0:0:
256,192,70479,5,0,0:0:0:0:
256,192,70854,1,0,0:0:0:0:
256,192,71041,1,8,0:0:0:0:
256,192,71135,1,8,0:0:0:0:
256,192,71229,1,8,0:0:0:0:
256,192,71416,1,8,0:0:0:0:
256,192,71604,1,0,0:0:0:0:
256,192,71979,5,0,0:0:0:0:
256,192,72354,1,8,0:0:0:0:
256,192,72541,1,0,0:0:0:0:
256,192,72635,1,0,0:0:0:0:
256,192,72729,1,0,0:0:0:0:
256,192,72916,1,0,0:0:0:0:
256,192,73104,5,8,0:0:0:0:
256,192,73479,5,4,0:0:0:0:
256,192,74041,1,0,0:0:0:0:
256,192,74135,1,0,0:0:0:0:
256,192,74229,1,0,0:0:0:0:
256,192,74416,1,8,0:0:0:0:
256,192,74604,1,0,0:0:0:0:
256,192,74979,5,0,0:0:0:0:
256,192,75354,1,8,0:0:0:0:
256,192,75541,1,0,0:0:0:0:
256,192,75635,1,0,0:0:0:0:
256,192,75729,1,0,0:0:0:0:
256,192,75916,1,0,0:0:0:0:
256,192,76104,1,8,0:0:0:0:
256,192,76479,5,0,0:0:0:0:
256,192,76854,1,8,0:0:0:0:
256,192,77041,1,0,0:0:0:0:
256,192,77135,1,0,0:0:0:0:
256,192,77229,1,0,0:0:0:0:
256,192,77416,1,8,0:0:0:0:
256,192,77604,1,0,0:0:0:0:
256,192,77791,1,0,0:0:0:0:
256,192,77979,5,8,0:0:0:0:
256,192,78354,1,0,0:0:0:0:
256,192,78729,1,8,0:0:0:0:
256,192,78916,1,0,0:0:0:0:
256,192,79104,1,8,0:0:0:0:
256,192,79291,1,0,0:0:0:0:
256,192,79479,5,12,0:0:0:0:
256,192,80041,1,8,0:0:0:0:
256,192,80135,1,8,0:0:0:0:
256,192,80229,1,8,0:0:0:0:
256,192,80416,1,0,0:0:0:0:
256,192,80604,1,8,0:0:0:0:
256,192,80979,5,0,0:0:0:0:
256,192,81166,1,8,0:0:0:0:
256,192,81260,1,8,0:0:0:0:
256,192,81354,1,8,0:0:0:0:
256,192,81541,1,0,0:0:0:0:
256,192,81729,1,8,0:0:0:0:
256,192,82104,1,8,0:0:0:0:
256,192,82479,5,8,0:0:0:0:
256,192,82666,1,8,0:0:0:0:
256,192,82760,1,8,0:0:0:0:
256,192,82854,1,8,0:0:0:0:
256,192,83041,1,0,0:0:0:0:
256,192,83229,1,8,0:0:0:0:
256,192,83604,1,8,0:0:0:0:
256,192,83979,5,0,0:0:0:0:
256,192,84166,1,8,0:0:0:0:
256,192,84260,1,8,0:0:0:0:
256,192,84354,1,8,0:0:0:0:
256,192,84541,1,0,0:0:0:0:
256,192,84729,1,8,0:0:0:0:
256,192,85104,1,8,0:0:0:0:
256,192,85291,1,8,0:0:0:0:
256,192,85385,1,8,0:0:0:0:
256,192,85479,5,8,0:0:0:0:
256,192,86041,1,0,0:0:0:0:
256,192,86135,1,0,0:0:0:0:
256,192,86229,1,0,0:0:0:0:
256,192,86416,1,0,0:0:0:0:
256,192,86604,1,8,0:0:0:0:
256,192,86979,5,8,0:0:0:0:
256,192,87166,1,0,0:0:0:0:
256,192,87260,1,0,0:0:0:0:
256,192,87354,1,0,0:0:0:0:
256,192,87541,1,0,0:0:0:0:
256,192,87729,1,8,0:0:0:0:
256,192,88104,1,8,0:0:0:0:
256,192,88479,5,0,0:0:0:0:
256,192,88666,1,0,0:0:0:0:
256,192,88854,1,8,0:0:0:0:
256,192,89041,1,8,0:0:0:0:
256,192,89135,1,8,0:0:0:0:
256,192,89229,1,8,0:0:0:0:
256,192,89416,1,0,0:0:0:0:
256,192,89604,1,8,0:0:0:0:
256,192,89979,5,0,0:0:0:0:
256,192,90354,1,0,0:0:0:0:
256,192,90729,1,8,0:0:0:0:
256,192,90916,1,0,0:0:0:0:
256,192,91104,1,8,0:0:0:0:
256,192,91291,1,0,0:0:0:0:
256,192,91479,5,8,0:0:0:0:
256,192,92229,1,0,0:0:0:0:
256,192,92510,1,0,0:0:0:0:
256,192,92604,1,0,0:0:0:0:
256,192,92791,1,0,0:0:0:0:
256,192,92979,5,8,0:0:0:0:
256,192,93729,1,0,0:0:0:0:
256,192,94010,1,8,0:0:0:0:
256,192,94104,1,8,0:0:0:0:
256,192,94291,1,8,0:0:0:0:
256,192,94479,5,0,0:0:0:0:
256,192,95229,1,0,0:0:0:0:
256,192,95510,1,0,0:0:0:0:
256,192,95604,1,0,0:0:0:0:
256,192,95791,1,0,0:0:0:0:
256,192,95979,5,8,0:0:0:0:
256,192,96354,1,0,0:0:0:0:
256,192,96541,1,8,0:0:0:0:
256,192,96635,1,8,0:0:0:0:
256,192,96729,1,8,0:0:0:0:
256,192,96916,1,0,0:0:0:0:
256,192,97104,1,8,0:0:0:0:
256,192,97479,5,0,0:0:0:0:
256,192,97854,1,0,0:0:0:0:
256,192,98229,1,8,0:0:0:0:
256,192,98416,1,8,0:0:0:0:
256,192,98510,1,8,0:0:0:0:
256,192,98604,1,8,0:0:0:0:
256,192,98791,1,0,0:0:0:0:
256,192,98979,5,8,0:0:0:0:
256,192,99354,1,8,0:0:0:0:
256,192,99729,1,8,0:0:0:0:
256,192,100010,1,0,0:0:0:0:
256,192,100104,1,0,0:0:0:0:
256,192,100291,1,8,0:0:0:0:
256,192,100479,5,0,0:0:0:0:
256,192,100854,1,0,0:0:0:0:
256,192,101041,1,8,0:0:0:0:
256,192,101229,1,8,0:0:0:0:
256,192,101416,1,0,0:0:0:0:
256,192,101604,1,8,0:0:0:0:
256,192,101791,1,8,0:0:0:0:
256,192,101885,1,8,0:0:0:0:
256,192,101979,5,8,0:0:0:0:
256,192,102541,1,0,0:0:0:0:
256,192,102635,1,0,0:0:0:0:
256,192,102729,1,0,0:0:0:0:
256,192,102916,1,0,0:0:0:0:
256,192,103104,1,8,0:0:0:0:
256,192,103479,5,4,0:0:0:0:
256,192,104229,5,4,0:0:0:0:
256,192,104510,5,4,0:0:0:0:
256,192,104791,5,4,0:0:0:0:
256,192,104979,5,12,0:0:0:0:
256,192,105729,5,12,0:0:0:0:
256,192,106010,5,12,0:0:0:0:
256,192,106291,5,12,0:0:0:0:
256,192,106479,5,4,0:0:0:0:
256,192,107229,5,4,0:0:0:0:
256,192,107510,5,4,0:0:0:0:
256,192,107791,5,4,0:0:0:0:
256,192,107979,5,12,0:0:0:0:
256,192,108729,1,8,0:0:0:0:
256,192,109010,1,8,0:0:0:0:
256,192,109104,1,8,0:0:0:0:
256,192,109291,1,8,0:0:0:0:
256,192,109479,5,0,0:0:0:0:
256,192,109854,1,8,0:0:0:0:
256,192,110041,1,8,0:0:0:0:
256,192,110135,1,8,0:0:0:0:
256,192,110229,1,8,0:0:0:0:
256,192,110510,1,0,0:0:0:0:
256,192,110604,1,0,0:0:0:0:
256,192,110791,1,0,0:0:0:0:
256,192,110979,5,8,0:0:0:0:
256,192,111354,1,0,0:0:0:0:
256,192,111541,1,0,0:0:0:0:
256,192,111635,1,0,0:0:0:0:
256,192,111729,1,0,0:0:0:0:
256,192,112010,1,8,0:0:0:0:
256,192,112104,1,8,0:0:0:0:
256,192,112291,1,8,0:0:0:0:
256,192,112479,5,0,0:0:0:0:
256,192,112666,1,0,0:0:0:0:
256,192,112760,1,0,0:0:0:0:
256,192,112854,1,0,0:0:0:0:
256,192,113041,1,0,0:0:0:0:
256,192,113229,1,8,0:0:0:0:
256,192,113416,1,8,0:0:0:0:
256,192,113510,1,8,0:0:0:0:
256,192,113604,1,8,0:0:0:0:
256,192,113791,1,0,0:0:0:0:
256,192,113979,5,12,0:0:0:0:
256,192,114729,1,8,0:0:0:0:
256,192,114916,1,0,0:0:0:0:
256,192,115104,1,8,0:0:0:0:
256,192,115479,5,12,0:0:0:0:
256,192,115666,1,0,0:0:0:0:
256,192,115760,1,0,0:0:0:0:
256,192,115854,1,0,0:0:0:0:
256,192,116041,1,8,0:0:0:0:
256,192,116229,1,8,0:0:0:0:
256,192,116416,1,0,0:0:0:0:
256,192,116604,1,8,0:0:0:0:
256,192,116791,1,0,0:0:0:0:
256,192,116885,1,0,0:0:0:0:
256,192,116979,5,0,0:0:0:0:
256,192,117354,1,8,0:0:0:0:
256,192,117729,1,8,0:0:0:0:
256,192,117916,1,0,0:0:0:0:
256,192,118104,1,8,0:0:0:0:
256,192,118479,5,8,0:0:0:0:
256,192,118666,1,8,0:0:0:0:
256,192,118760,1,8,0:0:0:0:
256,192,118854,1,8,0:0:0:0:
256,192,119041,1,0,0:0:0:0:
256,192,119229,1,8,0:0:0:0:
256,192,119604,1,0,0:0:0:0:
256,192,119791,1,0,0:0:0:0:
256,192,119979,5,12,0:0:0:0:
256,192,120729,1,8,0:0:0:0:
256,192,120916,1,0,0:0:0:0:
256,192,121104,1,8,0:0:0:0:
256,192,121479,5,12,0:0:0:0:
256,192,121666,1,0,0:0:0:0:
256,192,121760,1,0,0:0:0:0:
256,192,121854,1,0,0:0:0:0:
256,192,122041,1,8,0:0:0:0:
256,192,122229,1,8,0:0:0:0:
256,192,122416,1,0,0:0:0:0:
256,192,122604,1,8,0:0:0:0:
256,192,122791,1,0,0:0:0:0:
256,192,122885,1,0,0:0:0:0:
256,192,122979,5,0,0:0:0:0:
256,192,123354,1,8,0:0:0:0:
256,192,123729,1,8,0:0:0:0:
256,192,123916,1,8,0:0:0:0:
256,192,124010,1,8,0:0:0:0:
256,192,124104,1,8,0:0:0:0:
256,192,124291,1,0,0:0:0:0:
256,192,124479,5,8,0:0:0:0:
256,192,124854,1,0,0:0:0:0:
256,192,125041,1,0,0:0:0:0:
256,192,125135,1,0,0:0:0:0:
256,192,125229,1,0,0:0:0:0:
256,192,125416,1,0,0:0:0:0:
256,192,125604,1,8,0:0:0:0:
256,192,125791,1,8,0:0:0:0:
256,192,125885,1,8,0:0:0:0:
256,192,125979,5,8,0:0:0:0:
256,192,126729,1,8,0:0:0:0:
256,192,126916,1,0,0:0:0:0:
256,192,127104,1,8,0:0:0:0:
256,192,127291,1,0,0:0:0:0:
256,192,127479,5,8,0:0:0:0:
256,192,128229,1,0,0:0:0:0:
256,192,128510,1,0,0:0:0:0:
256,192,128604,1,0,0:0:0:0:
256,192,128791,1,0,0:0:0:0:
256,192,128979,5,8,0:0:0:0:
256,192,129354,1,0,0:0:0:0:
256,192,129729,1,0,0:0:0:0:
256,192,129916,1,8,0:0:0:0:
256,192,130010,1,8,0:0:0:0:
256,192,130104,1,8,0:0:0:0:
256,192,130479,5,0,0:0:0:0:
256,192,131229,1,0,0:0:0:0:
256,192,131510,1,0,0:0:0:0:
256,192,131604,1,0,0:0:0:0:
256,192,131791,1,0,0:0:0:0:
256,192,131979,5,8,0:0:0:0:
256,192,132354,1,0,0:0:0:0:
256,192,132729,1,0,0:0:0:0:
256,192,132916,1,8,0:0:0:0:
256,192,133010,1,8,0:0:0:0:
256,192,133104,1,8,0:0:0:0:
256,192,133479,5,0,0:0:0:0:
256,192,133854,1,0,0:0:0:0:
256,192,134229,1,0,0:0:0:0:
256,192,134510,1,0,0:0:0:0:
256,192,134791,1,0,0:0:0:0:
256,192,134979,5,8,0:0:0:0:
256,192,135354,1,8,0:0:0:0:
256,192,135729,1,8,0:0:0:0:
256,192,136010,1,8,0:0:0:0:
256,192,136291,1,8,0:0:0:0:
256,192,136479,5,0,0:0:0:0:
256,192,136666,1,0,0:0:0:0:
256,192,136760,1,0,0:0:0:0:
256,192,136854,1,0,0:0:0:0:
256,192,137041,1,0,0:0:0:0:
256,192,137229,1,8,0:0:0:0:
256,192,137416,1,0,0:0:0:0:
256,192,137604,1,8,0:0:0:0:
256,192,137697,1,8,0:0:0:0:
256,192,137791,1,8,0:0:0:0:
256,192,137979,5,12,0:0:0:0:
