osu file format v14

[General]
AudioFilename: audio.mp3
AudioLeadIn: 0
PreviewTime: 157474
Countdown: 0
SampleSet: Normal
StackLeniency: 0.7
Mode: 1
LetterboxInBreaks: 0
WidescreenStoryboard: 1

[Editor]
DistanceSpacing: 1.8
BeatDivisor: 3
GridSize: 32
TimelineZoom: 3.099999

[Metadata]
Title:Cutter
TitleUnicode:Cutter
Artist:EmoCosine
ArtistUnicode:EmoCosine
Creator:Boaz
Version:Oni
Source:THE BMS OF FIGHTERS XVI -NEO DYSTOPIA-
Tags:bofxvi emoco. dubstep dnb drum n n' bass drum'n'bass future bass muse dash electronic instrumental mappers' guild mg mpg love kills u ep drumstep featured artist fa arcpotato
BeatmapID:3554420
BeatmapSetID:1734692

[Difficulty]
HPDrainRate:5.5
CircleSize:5
OverallDifficulty:6
ApproachRate:5
SliderMultiplier:1.4
SliderTickRate:1

[Events]
//Background and Video events
0,0,"bg.jpg",0,0
//Break Periods
//Storyboard Layer 0 (Background)
//Storyboard Layer 1 (Fail)
//Storyboard Layer 2 (Pass)
//Storyboard Layer 3 (Foreground)
//Storyboard Layer 4 (Overlay)
//Storyboard Sound Samples

[TimingPoints]
1474,375,4,1,0,60,1,0
1474,-125,4,1,0,60,0,0
2974,-117.656056051345,4,1,0,65,0,0
4474,-111.127162812406,4,1,0,70,0,0
5974,-105.284768978896,4,1,0,75,0,0
7474,-100.026006761758,4,1,0,80,0,0
31474,-100,4,1,0,90,0,0
49474,-90.9090909090909,4,1,0,95,0,1
59849,-100,4,1,0,95,0,1
59974,-80,4,1,0,95,0,0
61474,-125,4,1,0,90,0,0
61849,-123.894550869864,4,1,0,90,0,0
62224,-122.808633446931,4,1,0,90,0,0
62599,-121.741438229003,4,1,0,90,0,0
62974,-120.692776537324,4,1,0,90,0,0
63349,-119.661883382315,4,1,0,90,0,0
63724,-118.648592531071,4,1,0,90,0,0
64099,-117.652180153724,4,1,0,90,0,0
64474,-116.672500291681,4,1,0,90,0,0
64849,-115.708867233332,4,1,0,90,0,0
65224,-114.761153349591,4,1,0,90,0,0
65599,-113.828708283201,4,1,0,90,0,0
65974,-112.911293500487,4,1,0,90,0,0
66161,-112.458235822671,4,1,0,90,0,0
66349,-112.008673951711,4,1,0,90,0,0
66630,-111.34109232292,4,1,0,90,0,0
66724,-111.120247664808,4,1,0,90,0,0
66911,-110.681421237994,4,1,0,90,0,0
67099,-110.245925586205,4,1,0,90,0,0
67286,-109.813843572376,4,1,0,90,0,0
67474,-109.385135216435,4,1,0,90,0,0
67661,-108.959761160204,4,1,0,90,0,0
67755,-108.748371493137,4,1,0,90,0,0
67849,-108.537800459766,4,1,0,90,0,0
68036,-108.118978448644,4,1,0,90,0,0
68224,-107.70337628544,4,1,0,90,0,0
68411,-107.290956981691,4,1,0,90,0,0
68505,-107.085986834849,4,1,0,90,0,0
68599,-106.881798350386,4,1,0,90,0,0
68786,-106.475635180402,4,1,0,90,0,0
68974,-106.072547257972,4,1,0,90,0,0
69161,-105.672499788655,4,1,0,90,0,0
69255,-105.473661117346,4,1,0,90,0,0
69349,-105.275569330279,4,1,0,90,0,0
69536,-104.881499637634,4,1,0,90,0,0
69724,-104.490369122678,4,1,0,90,0,0
69911,-104.102145024698,4,1,0,90,0,0
70005,-103.909166762783,4,1,0,90,0,0
70099,-103.716795068059,4,1,0,90,0,0
70286,-103.334394233114,4,1,0,90,0,0
70474,-102.954696844747,4,1,0,90,0,0
70567,-102.954696844747,4,1,0,90,0,0
70661,-102.577779601383,4,1,0,90,0,0
70849,-102.203612080058,4,1,0,90,0,0
71036,-101.83226799809,4,1,0,90,0,0
71224,-101.463509663385,4,1,0,90,0,0
71317,-101.280078917437,4,1,0,90,0,0
71411,-101.097412411729,4,1,0,90,0,0
71505,-100.915403626294,4,1,0,90,0,0
71599,-100.733947541789,4,1,0,90,0,0
71692,-100.553243948203,4,1,0,90,0,0
71786,-100.3730867635,4,1,0,90,0,0
71880,-100.193674372562,4,1,0,90,0,0
71974,-100.014902220431,4,1,0,90,0,0
73474,-90.9090909090909,4,1,0,95,0,0
95974,-80,4,1,0,95,0,0
96067,-81.0073425055247,4,1,0,95,0,0
96161,-82.0403769919403,4,1,0,95,0,0
96255,-83.1000990553181,4,1,0,95,0,0
96349,-84.1875564056628,4,1,0,95,0,0
96442,-85.3038523219709,4,1,0,95,0,0
96536,-86.4501493858581,4,1,0,95,0,0
96630,-87.6276735203191,4,1,0,95,0,0
96724,-88.8377183631117,4,1,0,95,0,0
96817,-90.0816500075669,4,1,0,95,0,0
96911,-91.3609121473469,4,1,0,95,0,0
97005,-92.6770316658882,4,1,0,95,0,0
97099,-94.0316247160245,4,1,0,95,0,0
97192,-95.426494402759,4,1,0,95,0,0
97286,-96.8632765165641,4,1,0,95,0,0
97380,-98.3439856260431,4,1,0,95,0,0
97474,-99.8706674856061,4,1,0,95,0,0
97661,-101.754346691305,4,1,0,95,0,0
98036,-105.454530115705,4,1,0,95,0,0
98224,-107.407463100166,4,1,0,95,0,0
98599,-111.538427218945,4,1,0,95,0,0
98786,-113.725534794327,4,1,0,95,0,0
98974,-116.279069767442,4,1,0,95,0,0
99161,-118.367288962961,4,1,0,95,0,0
99349,-120.833363541674,4,1,0,95,0,0
99724,-126.08702778832,4,1,0,95,0,0
99911,-128.88890034568,4,1,0,95,0,0
100286,-134.883777393209,4,1,0,95,0,0
100474,-138.095224943312,4,1,0,95,0,0
100661,-141.463324925696,4,1,0,95,0,0
101036,-148.717902958594,4,1,0,95,0,0
101224,-152.631675346321,4,1,0,95,0,0
101599,-161.111021604988,4,1,0,95,0,0
101786,-165.714361469422,4,1,0,95,0,0
101974,-170.940170940171,4,1,0,95,0,0
102161,-175.757426630062,4,1,0,95,0,0
102349,-181.250045312511,4,1,0,95,0,0
102724,-193.333475111215,4,1,0,95,0,0
102911,-200,4,1,0,95,0,0
103099,-66.6666666666667,4,1,0,95,0,0
103474,-100,4,1,0,95,0,0
103661,-101.694949727102,4,1,0,95,0,0
104036,-105.263157894737,4,1,0,95,0,0
104224,-107.142895408177,4,1,0,95,0,0
104599,-111.111111111111,4,1,0,95,0,0
104786,-113.207589889657,4,1,0,95,0,0
104974,-115.606936416185,4,1,0,95,0,0
105161,-117.647058823529,4,1,0,95,0,0
105349,-120.000048000019,4,1,0,95,0,0
105724,-125,4,1,0,95,0,0
105911,-127.659628791331,4,1,0,95,0,0
106286,-133.333333333333,4,1,0,95,0,0
106474,-128.592554491095,4,1,0,95,0,0
106661,-124.177325220415,4,1,0,95,0,0
106755,-122.081638433253,4,1,0,95,0,0
106849,-120.05536953643,4,1,0,95,0,0
107036,-116.198136414288,4,1,0,95,0,0
107224,-112.581044279251,4,1,0,95,0,0
107411,-109.182344341461,4,1,0,95,0,0
107505,-107.558802397271,4,1,0,95,0,0
107599,-105.98294946309,4,1,0,95,0,0
107786,-102.965615662306,4,1,0,95,0,0
107974,-100,4,1,0,95,0,0
109474,-90.9090909090909,4,1,0,95,0,0
119974,-99.8706674856061,4,1,0,95,0,0
121474,-99.8706674856061,4,1,0,75,0,0
133474,-99.8706674856061,4,1,0,80,0,0
139474,-100,4,1,0,80,0,0
139849,-97.9626703448384,4,1,0,80,0,0
140224,-96.0066974272125,4,1,0,80,0,0
140505,-94.5901974286601,4,1,0,80,0,0
140599,-94.1272148133646,4,1,0,80,0,0
140786,-93.2148882819564,4,1,0,80,0,0
140974,-92.3199921712647,4,1,0,80,0,0
141349,-90.5808588152386,4,1,0,80,0,0
141724,-88.9060378757502,4,1,0,80,0,0
142005,-87.6899913274599,4,1,0,80,0,0
142099,-87.2919505473642,4,1,0,80,0,0
142286,-86.5067618010362,4,1,0,80,0,0
142474,-85.7354991263553,4,1,0,80,0,0
142599,-85.2289676215152,4,1,0,80,0,0
142724,-84.7283144233857,4,1,0,80,0,0
142849,-84.233579716554,4,1,0,80,0,0
142974,-83.7445890527398,4,1,0,80,0,0
143099,-83.2611736495038,4,1,0,80,0,0
143224,-82.7833757736106,4,1,0,80,0,0
143317,-82.4285426963366,4,1,0,80,0,0
143411,-82.0768058333627,4,1,0,80,0,0
143505,-81.7280580596124,4,1,0,80,0,0
143599,-81.3822614340043,4,1,0,80,0,0
143692,-81.0393129811203,4,1,0,80,0,0
143786,-80.6993079227353,4,1,0,80,0,0
143880,-80.3621439655664,4,1,0,80,0,0
143974,-80.0277216027632,4,1,0,80,0,0
145474,-80.0277216027632,4,1,0,95,0,0
151474,-80,4,1,0,95,0,0
151849,-81.3535274482734,4,1,0,95,0,0
152224,-82.753644056716,4,1,0,95,0,0
152505,-83.8357891630505,4,1,0,95,0,0
152786,-84.946611054952,4,1,0,95,0,0
152974,-85.7036829443672,4,1,0,95,0,0
153349,-87.2589689131197,4,1,0,95,0,0
153724,-88.8717465164497,4,1,0,95,0,0
154005,-90.1210235224884,4,1,0,95,0,0
154286,-91.4059236522882,4,1,0,95,0,0
154474,-92.2831024102501,4,1,0,95,0,0
154661,-93.1771932047737,4,1,0,95,0,0
154755,-93.6308547373467,4,1,0,95,0,0
154849,-94.0888669348199,4,1,0,95,0,0
155036,-95.0185571242064,4,1,0,95,0,0
155224,-95.966711067265,4,1,0,95,0,0
155317,-96.4480125922525,4,1,0,95,0,0
155411,-96.9340722294546,4,1,0,95,0,0
155599,-97.9210384330284,4,1,0,95,0,0
155692,-98.4221938110156,4,1,0,95,0,0
155786,-98.9284074900676,4,1,0,95,0,0
155880,-99.502487562189,4,1,0,95,0,0
155974,-100,4,1,0,95,0,0
157474,-90.9090909090909,4,1,0,95,0,1
167974,-90.90909,4,1,0,85,0,0
168160,-91.99571,4,1,0,85,0,0
168254,-92.54682,4,1,0,85,0,0
168348,-93.10125,4,1,0,85,0,0
168535,-94.21407,4,1,0,85,0,0
168723,-95.34626,4,1,0,85,0,0
168910,-96.48592,4,1,0,85,0,0
169098,-97.64541,4,1,0,85,0,0
169285,-98.81255,4,1,0,85,0,0
169473,-100,4,1,0,80,0,0
175474,-100,4,1,0,80,0,0
175849,-98.3634292639071,4,1,0,80,0,0
176224,-96.779563253187,4,1,0,80,0,0
176505,-95.624783648927,4,1,0,80,0,0
176599,-95.2459870484507,4,1,0,80,0,0
176786,-94.497236900793,4,1,0,80,0,0
176974,-93.7601671181219,4,1,0,80,0,0
177349,-92.3199921712647,4,1,0,80,0,0
177724,-90.9233906787158,4,1,0,80,0,0
178005,-89.9033987979916,4,1,0,80,0,0
178099,-89.5684948193583,4,1,0,80,0,0
178286,-88.9060378757502,4,1,0,80,0,0
178474,-88.2533081752569,4,1,0,80,0,0
178599,-87.8234537802727,4,1,0,80,0,0
178724,-87.3977664626803,4,1,0,80,0,0
178849,-86.976185920295,4,1,0,80,0,0
178974,-86.5586530088653,4,1,0,80,0,0
179099,-86.1451097144117,4,1,0,80,0,0
179224,-85.7354991263553,4,1,0,80,0,0
179349,-85.3297654114089,4,1,0,80,0,0
179474,-84.9278537882069,4,1,0,80,0,0
179599,-84.5297105026475,4,1,0,80,0,0
179692,-84.233579716554,4,1,0,80,0,0
179786,-83.9395165419605,4,1,0,80,0,0
179880,-83.6474294308462,4,1,0,80,0,0
179974,-83.3574375256845,4,1,0,80,0,0

[HitObjects]
254,208,1474,5,0,0:0:0:0:
173,214,2974,1,0,0:0:0:0:
250,200,4474,1,0,0:0:0:0:
250,200,5974,1,0,0:0:0:0:
250,200,7474,1,0,0:0:0:0:
250,200,7849,1,8,0:0:0:0:
250,200,8599,1,8,0:0:0:0:
250,200,8974,1,0,0:0:0:0:
250,200,9349,1,8,0:0:0:0:
250,200,10099,1,8,0:0:0:0:
117,164,10286,5,0,0:0:0:0:
236,215,10474,1,8,0:0:0:0:
270,203,10599,1,0,0:0:0:0:
270,203,10724,1,0,0:0:0:0:
270,203,10849,1,8,0:0:0:0:
285,171,11036,1,0,0:0:0:0:
270,203,11224,1,8,0:0:0:0:
270,203,11349,1,8,0:0:0:0:
270,203,11474,1,0,0:0:0:0:
270,203,11599,1,8,0:0:0:0:
270,203,11786,1,0,0:0:0:0:
236,215,11974,1,8,0:0:0:0:
256,192,12161,12,0,13286,0:0:0:0:
236,195,13474,5,0,0:0:0:0:
180,192,13849,1,8,0:0:0:0:
180,192,14599,1,8,0:0:0:0:
180,192,14974,1,0,0:0:0:0:
180,192,15349,1,8,0:0:0:0:
180,192,16099,1,8,0:0:0:0:
180,192,16474,1,0,0:0:0:0:
180,192,16849,1,8,0:0:0:0:
180,192,17599,1,8,0:0:0:0:
180,192,17974,1,0,0:0:0:0:
180,192,18349,1,8,0:0:0:0:
180,192,19099,1,8,0:0:0:0:
180,192,19474,1,12,0:0:0:0:
180,192,19849,1,8,0:0:0:0:
180,192,20599,1,8,0:0:0:0:
180,192,20786,1,12,0:0:0:0:
180,192,20974,1,0,0:0:0:0:
180,192,21349,1,8,0:0:0:0:
180,192,21536,1,12,0:0:0:0:
180,192,21724,1,0,0:0:0:0:
180,192,22099,1,8,0:0:0:0:
180,192,22474,1,4,0:0:0:0:
180,192,23036,1,4,0:0:0:0:
180,192,23411,1,4,0:0:0:0:
180,192,23786,1,4,0:0:0:0:
180,192,23974,1,8,0:0:0:0:
180,192,24161,1,8,0:0:0:0:
180,192,24255,1,0,0:0:0:0:
180,192,24349,1,8,0:0:0:0:
180,192,24536,1,0,0:0:0:0:
180,192,24630,1,8,0:0:0:0:
180,192,24724,1,0,0:0:0:0:
180,192,24911,1,0,0:0:0:0:
180,192,25099,1,8,0:0:0:0:
180,192,25474,5,8,0:0:0:0:
283,201,25661,1,0,0:0:0:0:
283,201,25755,1,0,0:0:0:0:
283,201,25849,1,8,0:0:0:0:
283,201,26036,1,0,0:0:0:0:
283,201,26224,1,8,0:0:0:0:
283,201,26599,5,8,0:0:0:0:
283,201,26786,1,0,0:0:0:0:
283,201,26974,1,8,0:0:0:0:
198,170,27161,1,8,0:0:0:0:
283,201,27255,1,0,0:0:0:0:
283,201,27349,1,8,0:0:0:0:
283,201,27536,1,8,0:0:0:0:
283,201,27724,1,0,0:0:0:0:
283,201,28099,5,8,0:0:0:0:
283,201,28286,1,0,0:0:0:0:
283,201,28474,1,8,0:0:0:0:
283,201,28661,1,0,0:0:0:0:
283,201,28755,1,0,0:0:0:0:
283,201,28849,1,8,0:0:0:0:
283,201,29036,1,0,0:0:0:0:
283,201,29224,1,8,0:0:0:0:
283,201,29599,5,8,0:0:0:0:
283,201,29786,1,0,0:0:0:0:
283,201,29974,1,8,0:0:0:0:
234,160,30161,1,0,0:0:0:0:
283,201,30255,1,8,0:0:0:0:
283,201,30349,1,0,0:0:0:0:
299,207,30536,1,0,0:0:0:0:
283,201,30724,1,8,0:0:0:0:
209,165,30817,1,0,0:0:0:0:
299,207,30911,1,0,0:0:0:0:
299,207,31099,1,8,0:0:0:0:
299,207,31474,5,0,0:0:0:0:
299,207,31661,1,8,0:0:0:0:
299,207,31755,1,0,0:0:0:0:
299,207,31849,1,8,0:0:0:0:
299,207,32036,1,0,0:0:0:0:
299,207,32130,1,0,0:0:0:0:
299,207,32224,1,8,0:0:0:0:
299,207,32411,1,8,0:0:0:0:
299,207,32599,1,0,0:0:0:0:
299,207,32974,1,8,0:0:0:0:
299,207,33161,1,0,0:0:0:0:
299,207,33255,1,0,0:0:0:0:
299,207,33349,1,8,0:0:0:0:
299,207,33536,1,0,0:0:0:0:
299,207,33724,1,8,0:0:0:0:
299,207,34099,1,8,0:0:0:0:
299,207,34286,1,0,0:0:0:0:
299,207,34474,1,8,0:0:0:0:
299,207,34599,1,8,0:0:0:0:
299,207,34724,1,8,0:0:0:0:
299,207,34849,1,0,0:0:0:0:
299,207,35036,1,8,0:0:0:0:
299,207,35224,1,0,0:0:0:0:
343,165,35317,1,8,0:0:0:0:
299,207,35411,1,0,0:0:0:0:
299,207,35599,1,8,0:0:0:0:
299,207,35692,1,0,0:0:0:0:
299,207,35786,1,0,0:0:0:0:
299,207,35880,1,0,0:0:0:0:
299,207,35974,1,8,0:0:0:0:
299,207,36349,1,8,0:0:0:0:
299,207,36536,1,0,0:0:0:0:
299,207,36630,1,0,0:0:0:0:
299,207,36724,1,8,0:0:0:0:
299,207,36911,1,0,0:0:0:0:
299,207,37099,1,8,0:0:0:0:
299,207,37286,1,8,0:0:0:0:
299,207,37474,1,0,0:0:0:0:
299,207,37849,5,0,0:0:0:0:
299,207,38036,1,8,0:0:0:0:
299,207,38130,1,0,0:0:0:0:
299,207,38317,1,0,0:0:0:0:
299,207,38505,1,8,0:0:0:0:
299,207,38599,1,8,0:0:0:0:
299,207,38786,1,0,0:0:0:0:
299,207,38880,1,0,0:0:0:0:
299,207,38974,1,8,0:0:0:0:
299,207,39161,1,0,0:0:0:0:
299,207,39349,1,8,0:0:0:0:
299,207,39536,1,0,0:0:0:0:
299,207,39724,1,8,0:0:0:0:
299,207,39911,1,0,0:0:0:0:
299,207,40005,1,0,0:0:0:0:
299,207,40099,1,8,0:0:0:0:
299,207,40286,1,0,0:0:0:0:
299,207,40474,1,8,0:0:0:0:
299,207,40849,5,8,0:0:0:0:
299,207,41036,1,8,0:0:0:0:
299,207,41130,1,0,0:0:0:0:
299,207,41317,1,8,0:0:0:0:
299,207,41505,1,0,0:0:0:0:
299,207,41599,1,8,0:0:0:0:
299,207,41786,1,0,0:0:0:0:
299,207,41974,1,8,0:0:0:0:
299,207,42161,1,0,0:0:0:0:
299,207,42255,1,0,0:0:0:0:
299,207,42349,1,8,0:0:0:0:
299,207,42442,1,8,0:0:0:0:
299,207,42536,1,0,0:0:0:0:
299,207,42724,1,8,0:0:0:0:
299,207,42911,1,0,0:0:0:0:
299,207,43099,1,8,0:0:0:0:
299,207,43286,1,0,0:0:0:0:
299,207,43474,1,8,0:0:0:0:
299,207,43849,5,0,0:0:0:0:
299,207,44036,1,8,0:0:0:0:
299,207,44130,1,8,0:0:0:0:
299,207,44317,1,0,0:0:0:0:
299,207,44505,1,0,0:0:0:0:
299,207,44599,1,8,0:0:0:0:
299,207,44786,1,0,0:0:0:0:
299,207,44974,1,8,0:0:0:0:
299,207,45161,1,0,0:0:0:0:
299,207,45255,1,8,0:0:0:0:
299,207,45349,1,0,0:0:0:0:
299,207,45536,1,8,0:0:0:0:
299,207,45724,1,8,0:0:0:0:
299,207,45911,1,0,0:0:0:0:
299,207,46005,1,0,0:0:0:0:
299,207,46099,1,8,0:0:0:0:
299,207,46286,1,0,0:0:0:0:
299,207,46474,1,8,0:0:0:0:
299,207,46849,5,8,0:0:0:0:
299,207,47036,1,0,0:0:0:0:
299,207,47130,1,8,0:0:0:0:
299,207,47317,1,8,0:0:0:0:
299,207,47505,1,8,0:0:0:0:
299,207,47599,1,8,0:0:0:0:
299,207,47786,1,0,0:0:0:0:
299,207,47974,1,8,0:0:0:0:
273,204,48161,1,8,0:0:0:0:
273,204,48255,1,0,0:0:0:0:
273,204,48349,1,8,0:0:0:0:
273,204,48536,1,0,0:0:0:0:
273,204,48630,1,0,0:0:0:0:
273,204,48724,1,8,0:0:0:0:
273,204,48911,1,0,0:0:0:0:
273,204,49099,1,8,0:0:0:0:
273,204,49474,5,12,0:0:0:0:
273,204,49661,1,0,0:0:0:0:
273,204,49755,1,0,0:0:0:0:
273,204,49849,1,8,0:0:0:0:
273,204,50036,1,0,0:0:0:0:
273,204,50224,1,8,0:0:0:0:
273,204,50317,1,0,0:0:0:0:
273,204,50411,1,8,0:0:0:0:
273,204,50599,1,0,0:0:0:0:
273,204,50692,1,8,0:0:0:0:
273,204,50786,1,0,0:0:0:0:
273,204,50974,1,8,0:0:0:0:
273,204,51161,1,8,0:0:0:0:
273,204,51255,1,8,0:0:0:0:
273,204,51349,1,0,0:0:0:0:
273,204,51536,1,8,0:0:0:0:
273,204,51724,1,0,0:0:0:0:
273,204,52099,5,8,0:0:0:0:
273,204,52286,1,0,0:0:0:0:
273,204,52474,1,8,0:0:0:0:
273,204,52661,1,0,0:0:0:0:
273,204,52755,1,0,0:0:0:0:
273,204,52849,1,8,0:0:0:0:
273,204,53036,1,0,0:0:0:0:
273,204,53224,1,8,0:0:0:0:
273,204,53317,1,0,0:0:0:0:
273,204,53411,1,8,0:0:0:0:
270,183,53599,1,0,0:0:0:0:
273,204,53692,1,0,0:0:0:0:
270,183,53786,1,8,0:0:0:0:
268,183,53974,1,8,0:0:0:0:
268,183,54161,1,0,0:0:0:0:
268,183,54255,1,0,0:0:0:0:
268,183,54349,1,8,0:0:0:0:
259,159,54536,1,8,0:0:0:0:
259,159,54724,1,8,0:0:0:0:
259,159,55099,5,8,0:0:0:0:
259,159,55286,1,0,0:0:0:0:
259,159,55474,1,8,0:0:0:0:
239,182,55661,1,0,0:0:0:0:
239,182,55755,1,0,0:0:0:0:
239,182,55849,1,8,0:0:0:0:
239,182,56036,1,8,0:0:0:0:
239,182,56224,1,8,0:0:0:0:
239,182,56317,1,0,0:0:0:0:
239,182,56411,1,8,0:0:0:0:
239,182,56599,1,8,0:0:0:0:
339,239,56692,1,8,0:0:0:0:
339,239,56786,1,0,0:0:0:0:
339,239,56974,1,8,0:0:0:0:
337,256,57161,1,0,0:0:0:0:
337,256,57255,1,8,0:0:0:0:
337,256,57349,1,0,0:0:0:0:
337,256,57536,1,8,0:0:0:0:
337,256,57724,1,8,0:0:0:0:
337,256,58099,5,8,0:0:0:0:
337,256,58286,1,0,0:0:0:0:
337,256,58474,5,8,0:0:0:0:
337,256,58599,1,0,0:0:0:0:
337,256,58724,1,0,0:0:0:0:
337,256,58849,1,8,0:0:0:0:
337,256,59036,1,0,0:0:0:0:
337,256,59224,1,8,0:0:0:0:
337,256,59349,1,8,0:0:0:0:
337,256,59474,1,0,0:0:0:0:
337,256,59599,1,8,0:0:0:0:
239,168,59786,1,0,0:0:0:0:
257,205,59974,1,12,0:0:0:0:
280,192,61474,5,4,0:0:0:0:
246,218,61849,1,8,0:0:0:0:
246,218,62224,1,8,0:0:0:0:
246,218,62599,1,8,0:0:0:0:
280,192,62974,1,4,0:0:0:0:
246,218,63349,1,8,0:0:0:0:
246,218,63724,1,8,0:0:0:0:
246,218,64099,1,8,0:0:0:0:
280,192,64474,1,4,0:0:0:0:
246,218,64849,1,8,0:0:0:0:
246,218,65224,1,8,0:0:0:0:
246,218,65599,1,8,0:0:0:0:
280,192,65974,1,4,0:0:0:0:
246,218,66161,1,0,0:0:0:0:
246,218,66349,1,12,0:0:0:0:
246,218,66630,5,8,0:0:0:0:
246,218,66724,1,0,0:0:0:0:
246,218,66911,1,0,0:0:0:0:
246,218,67099,1,8,0:0:0:0:
246,218,67474,5,4,0:0:0:0:
252,215,67661,1,8,0:0:0:0:
252,215,67755,1,8,0:0:0:0:
252,215,67849,1,0,0:0:0:0:
280,192,68224,1,4,0:0:0:0:
251,215,68411,1,8,0:0:0:0:
251,215,68505,1,0,0:0:0:0:
252,215,68599,1,8,0:0:0:0:
280,192,68974,1,4,0:0:0:0:
251,215,69161,1,8,0:0:0:0:
251,215,69255,1,0,0:0:0:0:
251,215,69349,1,0,0:0:0:0:
280,192,69724,1,4,0:0:0:0:
251,215,69911,1,8,0:0:0:0:
251,215,70005,1,8,0:0:0:0:
251,215,70099,1,0,0:0:0:0:
245,232,70474,1,8,0:0:0:0:
245,232,70599,1,8,0:0:0:0:
245,232,70724,1,8,0:0:0:0:
245,232,70849,1,0,0:0:0:0:
245,232,71036,1,8,0:0:0:0:
245,232,71224,1,0,0:0:0:0:
245,232,71317,1,0,0:0:0:0:
245,232,71411,1,0,0:0:0:0:
236,184,71505,1,0,0:0:0:0:
245,232,71599,1,8,0:0:0:0:
245,232,71786,1,8,0:0:0:0:
245,232,71974,1,0,0:0:0:0:
245,232,72536,1,0,0:0:0:0:
245,232,72630,1,0,0:0:0:0:
245,232,72724,1,8,0:0:0:0:
245,232,72911,1,8,0:0:0:0:
245,232,73099,1,4,0:0:0:0:
245,232,73474,5,8,0:0:0:0:
245,232,73661,1,0,0:0:0:0:
245,232,73755,1,8,0:0:0:0:
432,242,73849,1,8,0:0:0:0:
432,242,74036,1,0,0:0:0:0:
432,242,74224,1,0,0:0:0:0:
432,242,74317,1,8,0:0:0:0:
432,242,74411,1,0,0:0:0:0:
432,242,74599,1,8,0:0:0:0:
426,241,74974,1,8,0:0:0:0:
426,241,75161,1,8,0:0:0:0:
212,177,75255,1,0,0:0:0:0:
212,177,75349,1,8,0:0:0:0:
212,177,75536,1,0,0:0:0:0:
207,175,75724,1,8,0:0:0:0:
207,175,75817,1,8,0:0:0:0:
207,175,75911,1,0,0:0:0:0:
204,175,76099,1,8,0:0:0:0:
204,175,76474,1,8,0:0:0:0:
218,165,76661,1,0,0:0:0:0:
218,165,76755,1,0,0:0:0:0:
218,165,76849,1,8,0:0:0:0:
197,163,77036,1,0,0:0:0:0:
197,163,77224,1,8,0:0:0:0:
197,163,77317,1,8,0:0:0:0:
197,163,77411,1,0,0:0:0:0:
197,163,77599,5,8,0:0:0:0:
197,163,77974,1,8,0:0:0:0:
197,163,78161,1,8,0:0:0:0:
197,163,78255,1,0,0:0:0:0:
197,163,78349,1,8,0:0:0:0:
197,163,78536,1,0,0:0:0:0:
172,134,78630,1,0,0:0:0:0:
197,163,78817,5,8,0:0:0:0:
197,163,78911,1,0,0:0:0:0:
197,163,79099,1,12,0:0:0:0:
245,232,79474,5,0,0:0:0:0:
245,232,79661,1,8,0:0:0:0:
245,232,79755,1,0,0:0:0:0:
432,242,79849,1,8,0:0:0:0:
432,242,80036,1,0,0:0:0:0:
432,242,80224,1,8,0:0:0:0:
432,242,80317,1,8,0:0:0:0:
432,242,80411,1,0,0:0:0:0:
432,242,80599,5,8,0:0:0:0:
426,241,80974,1,8,0:0:0:0:
426,241,81161,1,8,0:0:0:0:
212,177,81255,1,0,0:0:0:0:
212,177,81349,1,8,0:0:0:0:
212,177,81536,1,0,0:0:0:0:
207,175,81724,1,8,0:0:0:0:
207,175,81817,1,0,0:0:0:0:
207,175,81911,1,0,0:0:0:0:
204,175,82099,5,0,0:0:0:0:
204,175,82474,1,8,0:0:0:0:
218,165,82661,1,0,0:0:0:0:
218,165,82755,1,0,0:0:0:0:
218,165,82849,1,8,0:0:0:0:
197,163,83036,1,8,0:0:0:0:
197,163,83224,1,0,0:0:0:0:
197,163,83317,1,8,0:0:0:0:
197,163,83411,1,8,0:0:0:0:
197,163,83599,5,0,0:0:0:0:
197,163,83974,5,8,0:0:0:0:
209,155,84161,1,8,0:0:0:0:
209,155,84255,1,0,0:0:0:0:
209,155,84349,1,8,0:0:0:0:
209,155,84536,1,0,0:0:0:0:
209,155,84724,1,8,0:0:0:0:
209,155,84817,1,8,0:0:0:0:
209,155,84911,1,0,0:0:0:0:
209,155,85099,1,8,0:0:0:0:
209,155,85286,1,0,0:0:0:0:
209,155,85474,1,8,0:0:0:0:
197,158,85661,1,8,0:0:0:0:
203,157,85755,1,8,0:0:0:0:
203,157,85849,1,0,0:0:0:0:
207,176,86036,1,8,0:0:0:0:
207,176,86130,1,0,0:0:0:0:
207,176,86224,1,0,0:0:0:0:
207,176,86411,1,8,0:0:0:0:
207,176,86599,1,0,0:0:0:0:
207,176,86974,5,0,0:0:0:0:
207,176,87161,1,0,0:0:0:0:
207,176,87255,1,0,0:0:0:0:
207,176,87349,1,8,0:0:0:0:
207,176,87536,1,8,0:0:0:0:
207,176,87630,1,0,0:0:0:0:
207,176,87724,1,8,0:0:0:0:
265,214,87911,1,0,0:0:0:0:
265,214,88099,1,8,0:0:0:0:
214,161,88474,5,0,0:0:0:0:
214,161,88661,1,8,0:0:0:0:
219,149,88755,1,0,0:0:0:0:
249,159,88849,1,0,0:0:0:0:
209,165,89036,1,0,0:0:0:0:
209,165,89130,1,8,0:0:0:0:
209,165,89224,1,8,0:0:0:0:
209,165,89411,1,8,0:0:0:0:
214,161,89599,1,0,0:0:0:0:
214,161,89974,5,8,0:0:0:0:
214,161,90161,1,8,0:0:0:0:
209,165,90255,1,8,0:0:0:0:
204,149,90349,1,0,0:0:0:0:
204,149,90536,1,8,0:0:0:0:
204,149,90630,1,0,0:0:0:0:
204,149,90817,1,8,0:0:0:0:
204,149,90911,1,8,0:0:0:0:
214,161,91099,1,8,0:0:0:0:
214,161,91474,5,0,0:0:0:0:
214,161,91661,1,0,0:0:0:0:
204,149,91755,1,0,0:0:0:0:
204,149,91849,1,8,0:0:0:0:
204,149,92036,1,8,0:0:0:0:
240,147,92130,1,0,0:0:0:0:
204,149,92224,1,8,0:0:0:0:
205,149,92411,1,0,0:0:0:0:
214,161,92599,1,8,0:0:0:0:
214,161,92974,5,8,0:0:0:0:
214,161,93161,1,0,0:0:0:0:
228,143,93255,1,0,0:0:0:0:
228,143,93349,1,8,0:0:0:0:
228,143,93536,1,8,0:0:0:0:
228,143,93630,1,0,0:0:0:0:
228,143,93724,1,0,0:0:0:0:
228,143,93911,1,8,0:0:0:0:
214,161,94099,1,8,0:0:0:0:
216,162,94474,5,0,0:0:0:0:
216,162,94661,1,8,0:0:0:0:
228,143,94755,1,8,0:0:0:0:
228,143,94849,1,0,0:0:0:0:
229,143,95036,1,8,0:0:0:0:
229,143,95130,1,0,0:0:0:0:
244,175,95224,1,8,0:0:0:0:
244,175,95411,1,0,0:0:0:0:
216,162,95599,1,8,0:0:0:0:
237,183,95786,1,0,0:0:0:0:
216,162,95974,5,0,0:0:0:0:
152,170,96067,1,8,0:0:0:0:
160,178,96161,1,0,0:0:0:0:
139,216,96349,1,8,0:0:0:0:
139,216,96536,1,8,0:0:0:0:
139,216,96630,1,0,0:0:0:0:
139,216,96724,1,8,0:0:0:0:
139,216,96911,1,0,0:0:0:0:
139,216,97099,1,8,0:0:0:0:
139,216,97192,1,8,0:0:0:0:
139,216,97286,1,8,0:0:0:0:
139,216,97380,1,8,0:0:0:0:
139,216,97474,1,0,0:0:0:0:
200,231,97661,1,0,0:0:0:0:
159,166,98036,1,8,0:0:0:0:
159,166,98224,1,0,0:0:0:0:
164,163,98599,1,0,0:0:0:0:
164,163,98786,1,0,0:0:0:0:
164,163,99161,1,0,0:0:0:0:
164,163,99349,1,8,0:0:0:0:
164,163,99724,1,8,0:0:0:0:
164,163,99911,1,0,0:0:0:0:
164,163,100286,1,0,0:0:0:0:
164,163,100474,1,8,0:0:0:0:
182,158,100661,1,0,0:0:0:0:
182,158,101036,1,0,0:0:0:0:
212,161,101224,1,8,0:0:0:0:
155,157,101599,1,0,0:0:0:0:
155,157,101786,1,8,0:0:0:0:
155,157,102161,1,8,0:0:0:0:
155,157,102349,1,0,0:0:0:0:
155,157,102724,1,8,0:0:0:0:
155,157,102911,1,0,0:0:0:0:
155,157,103099,5,12,0:0:0:0:
155,157,103474,5,8,0:0:0:0:
155,157,103661,1,0,0:0:0:0:
155,157,104036,1,0,0:0:0:0:
155,157,104224,1,8,0:0:0:0:
155,157,104599,1,0,0:0:0:0:
155,157,104786,1,8,0:0:0:0:
155,157,105161,1,8,0:0:0:0:
155,157,105349,1,0,0:0:0:0:
155,157,105724,1,8,0:0:0:0:
155,157,105911,1,0,0:0:0:0:
245,187,106099,1,8,0:0:0:0:
155,157,106286,5,0,0:0:0:0:
155,157,106474,1,8,0:0:0:0:
155,157,106661,1,8,0:0:0:0:
187,184,106755,1,8,0:0:0:0:
209,161,106849,1,0,0:0:0:0:
240,149,107036,1,0,0:0:0:0:
240,149,107224,1,8,0:0:0:0:
209,152,107411,1,8,0:0:0:0:
187,184,107505,1,0,0:0:0:0:
240,149,107599,1,0,0:0:0:0:
240,149,107786,1,0,0:0:0:0:
240,149,107974,1,8,0:0:0:0:
240,149,108161,1,0,0:0:0:0:
240,149,108255,1,0,0:0:0:0:
240,149,108349,1,8,0:0:0:0:
240,149,108536,1,0,0:0:0:0:
240,149,108724,1,8,0:0:0:0:
240,149,108817,1,8,0:0:0:0:
240,149,108911,1,0,0:0:0:0:
240,149,109005,1,0,0:0:0:0:
240,149,109099,1,8,0:0:0:0:
209,155,109474,5,8,0:0:0:0:
203,157,109661,1,0,0:0:0:0:
203,157,109755,1,0,0:0:0:0:
203,157,109849,1,8,0:0:0:0:
207,176,110036,1,8,0:0:0:0:
207,176,110224,1,8,0:0:0:0:
207,176,110317,1,8,0:0:0:0:
207,176,110411,1,0,0:0:0:0:
207,176,110599,1,0,0:0:0:0:
207,176,110974,5,0,0:0:0:0:
207,176,111161,1,0,0:0:0:0:
207,176,111255,1,8,0:0:0:0:
207,176,111349,1,0,0:0:0:0:
207,176,111536,1,8,0:0:0:0:
207,176,111724,1,8,0:0:0:0:
222,171,111817,1,0,0:0:0:0:
265,214,111911,1,0,0:0:0:0:
265,214,112099,1,8,0:0:0:0:
214,161,112474,5,8,0:0:0:0:
214,161,112661,1,8,0:0:0:0:
213,172,112755,1,0,0:0:0:0:
249,159,112849,1,8,0:0:0:0:
209,165,113036,1,8,0:0:0:0:
209,165,113224,1,0,0:0:0:0:
234,171,113317,1,0,0:0:0:0:
209,165,113411,1,8,0:0:0:0:
214,161,113599,1,0,0:0:0:0:
214,161,113974,1,0,0:0:0:0:
214,161,114161,1,8,0:0:0:0:
222,125,114255,1,0,0:0:0:0:
204,149,114349,1,0,0:0:0:0:
204,149,114536,1,8,0:0:0:0:
204,149,114724,1,0,0:0:0:0:
222,125,114817,1,0,0:0:0:0:
204,149,114911,1,8,0:0:0:0:
214,161,115099,1,8,0:0:0:0:
209,161,115286,1,0,0:0:0:0:
214,161,115474,1,0,0:0:0:0:
214,161,115661,1,8,0:0:0:0:
222,125,115755,1,0,0:0:0:0:
204,149,115849,1,8,0:0:0:0:
204,149,116036,1,8,0:0:0:0:
204,149,116224,1,8,0:0:0:0:
222,125,116317,1,0,0:0:0:0:
205,149,116411,1,0,0:0:0:0:
214,161,116599,1,8,0:0:0:0:
214,161,116974,1,0,0:0:0:0:
214,161,117161,1,8,0:0:0:0:
222,125,117255,1,0,0:0:0:0:
228,143,117349,1,0,0:0:0:0:
228,143,117536,1,8,0:0:0:0:
228,143,117724,1,0,0:0:0:0:
222,125,117817,1,0,0:0:0:0:
228,143,117911,1,8,0:0:0:0:
214,161,118099,1,8,0:0:0:0:
216,162,118474,5,8,0:0:0:0:
200,169,118599,1,0,0:0:0:0:
200,169,118724,1,0,0:0:0:0:
200,169,118849,1,8,0:0:0:0:
200,169,119036,1,0,0:0:0:0:
200,169,119224,1,8,0:0:0:0:
200,169,119349,1,0,0:0:0:0:
200,169,119474,1,8,0:0:0:0:
200,169,119599,1,8,0:0:0:0:
200,169,119786,1,0,0:0:0:0:
200,169,119974,1,8,0:0:0:0:
200,169,120349,1,8,0:0:0:0:
200,169,120536,1,0,0:0:0:0:
200,169,120724,1,8,0:0:0:0:
200,169,120911,1,8,0:0:0:0:
200,169,121005,1,8,0:0:0:0:
200,169,121099,1,8,0:0:0:0:
120,147,121192,1,8,0:0:0:0:
200,169,121286,1,0,0:0:0:0:
200,169,121474,1,8,0:0:0:0:
300,196,122786,1,8,0:0:0:0:
302,197,124474,1,0,0:0:0:0:
302,197,125786,1,0,0:0:0:0:
268,173,126349,1,8,0:0:0:0:
268,173,126536,1,0,0:0:0:0:
268,173,126724,1,8,0:0:0:0:
268,173,126911,1,8,0:0:0:0:
268,173,127099,1,0,0:0:0:0:
268,173,127286,1,8,0:0:0:0:
302,197,127474,1,0,0:0:0:0:
302,197,128786,1,8,0:0:0:0:
302,197,129536,1,8,0:0:0:0:
302,197,130474,1,0,0:0:0:0:
246,209,131974,1,8,0:0:0:0:
347,239,132349,1,8,0:0:0:0:
347,239,132536,1,0,0:0:0:0:
246,209,132724,1,8,0:0:0:0:
246,209,132817,1,8,0:0:0:0:
246,209,132911,1,8,0:0:0:0:
397,256,133099,1,8,0:0:0:0:
347,239,133474,1,12,0:0:0:0:
347,239,133849,1,0,0:0:0:0:
347,239,134224,1,0,0:0:0:0:
347,239,134505,1,8,0:0:0:0:
347,239,134786,1,0,0:0:0:0:
346,239,134974,1,8,0:0:0:0:
347,239,135349,1,0,0:0:0:0:
347,239,135724,1,8,0:0:0:0:
347,239,136005,1,8,0:0:0:0:
347,239,136286,1,0,0:0:0:0:
347,239,136474,1,8,0:0:0:0:
347,239,136849,1,8,0:0:0:0:
347,239,137224,1,0,0:0:0:0:
347,239,137505,1,8,0:0:0:0:
347,239,137786,1,0,0:0:0:0:
347,239,137974,1,8,0:0:0:0:
347,239,138161,1,8,0:0:0:0:
347,239,138255,1,8,0:0:0:0:
347,239,138349,1,8,0:0:0:0:
347,239,138536,1,8,0:0:0:0:
347,239,138630,1,8,0:0:0:0:
347,239,138724,1,0,0:0:0:0:
347,239,138911,1,0,0:0:0:0:
347,239,139099,1,8,0:0:0:0:
347,239,139474,5,8,0:0:0:0:
347,239,139849,1,8,0:0:0:0:
347,239,140224,1,8,0:0:0:0:
347,239,140505,1,0,0:0:0:0:
347,239,140599,1,8,0:0:0:0:
347,239,140786,1,0,0:0:0:0:
347,239,140974,1,12,0:0:0:0:
197,174,141349,1,8,0:0:0:0:
197,174,141724,1,8,0:0:0:0:
197,174,142005,5,0,0:0:0:0:
197,174,142099,1,8,0:0:0:0:
197,174,142286,1,0,0:0:0:0:
197,174,142474,1,8,0:0:0:0:
197,174,142599,1,0,0:0:0:0:
197,174,142724,1,0,0:0:0:0:
205,183,142849,1,8,0:0:0:0:
203,184,143036,1,0,0:0:0:0:
197,174,143224,1,8,0:0:0:0:
197,174,143349,1,8,0:0:0:0:
197,174,143474,1,0,0:0:0:0:
197,174,143599,1,8,0:0:0:0:
197,174,143786,1,0,0:0:0:0:
197,174,143974,1,12,0:0:0:0:
197,174,144349,1,8,0:0:0:0:
197,174,144536,1,0,0:0:0:0:
197,174,144630,1,0,0:0:0:0:
197,174,144724,1,8,0:0:0:0:
197,174,144911,1,8,0:0:0:0:
197,174,145099,1,0,0:0:0:0:
197,174,145286,1,0,0:0:0:0:
197,174,145474,1,12,0:0:0:0:
197,174,146224,1,12,0:0:0:0:
197,174,146505,1,4,0:0:0:0:
197,174,146786,1,4,0:0:0:0:
197,174,146974,1,12,0:0:0:0:
197,174,147724,1,4,0:0:0:0:
197,174,148005,1,12,0:0:0:0:
197,174,148286,1,4,0:0:0:0:
197,174,148474,1,12,0:0:0:0:
197,174,149224,1,12,0:0:0:0:
197,174,149505,1,12,0:0:0:0:
197,174,149786,1,4,0:0:0:0:
197,174,149974,1,12,0:0:0:0:
197,174,150724,1,12,0:0:0:0:
197,174,151005,1,4,0:0:0:0:
197,174,151286,5,4,0:0:0:0:
197,174,151474,1,12,0:0:0:0:
197,174,151849,1,0,0:0:0:0:
197,174,152224,1,8,0:0:0:0:
197,174,152505,1,0,0:0:0:0:
197,174,152786,1,0,0:0:0:0:
197,174,152974,1,8,0:0:0:0:
197,174,153349,1,0,0:0:0:0:
197,174,153724,1,8,0:0:0:0:
197,174,154005,1,0,0:0:0:0:
183,143,154286,1,0,0:0:0:0:
197,174,154474,1,8,0:0:0:0:
197,174,154661,1,0,0:0:0:0:
197,174,154755,1,8,0:0:0:0:
197,174,154849,1,8,0:0:0:0:
197,174,155036,1,8,0:0:0:0:
197,174,155224,1,0,0:0:0:0:
197,174,155317,1,0,0:0:0:0:
197,174,155411,1,8,0:0:0:0:
197,174,155599,1,8,0:0:0:0:
166,168,155692,1,8,0:0:0:0:
197,174,155786,1,0,0:0:0:0:
222,171,155880,1,0,0:0:0:0:
197,174,155974,1,8,0:0:0:0:
197,174,156161,1,0,0:0:0:0:
197,174,156255,1,0,0:0:0:0:
197,174,156349,1,0,0:0:0:0:
197,174,156536,1,0,0:0:0:0:
197,174,156724,1,8,0:0:0:0:
197,174,157099,1,8,0:0:0:0:
197,174,157286,1,0,0:0:0:0:
197,174,157474,1,12,0:0:0:0:
273,204,157661,1,0,0:0:0:0:
273,204,157755,1,8,0:0:0:0:
273,204,157849,1,0,0:0:0:0:
273,204,158036,1,0,0:0:0:0:
273,204,158224,1,8,0:0:0:0:
273,204,158317,1,0,0:0:0:0:
273,204,158411,1,8,0:0:0:0:
273,204,158599,1,0,0:0:0:0:
273,204,158786,1,0,0:0:0:0:
273,204,158880,1,0,0:0:0:0:
273,204,158974,1,8,0:0:0:0:
273,204,159161,1,8,0:0:0:0:
273,204,159255,1,8,0:0:0:0:
273,204,159349,1,0,0:0:0:0:
273,204,159536,1,8,0:0:0:0:
273,204,159724,1,8,0:0:0:0:
273,204,160099,1,8,0:0:0:0:
273,204,160286,1,0,0:0:0:0:
273,204,160474,1,8,0:0:0:0:
273,204,160661,1,8,0:0:0:0:
273,204,160755,1,0,0:0:0:0:
273,204,160849,1,8,0:0:0:0:
273,204,161036,1,0,0:0:0:0:
273,204,161224,1,8,0:0:0:0:
273,204,161317,1,0,0:0:0:0:
273,204,161411,1,8,0:0:0:0:
270,183,161599,1,8,0:0:0:0:
199,175,161692,1,8,0:0:0:0:
270,183,161786,1,0,0:0:0:0:
268,183,161974,1,8,0:0:0:0:
268,183,162161,1,0,0:0:0:0:
268,183,162255,1,0,0:0:0:0:
268,183,162349,1,8,0:0:0:0:
259,159,162536,1,8,0:0:0:0:
259,159,162724,1,8,0:0:0:0:
259,159,163099,1,8,0:0:0:0:
259,159,163286,1,0,0:0:0:0:
259,159,163474,1,8,0:0:0:0:
239,182,163661,1,0,0:0:0:0:
239,182,163755,1,0,0:0:0:0:
239,182,163849,1,8,0:0:0:0:
239,182,164036,1,8,0:0:0:0:
239,182,164224,1,0,0:0:0:0:
239,182,164317,1,0,0:0:0:0:
239,182,164411,1,8,0:0:0:0:
239,182,164599,1,8,0:0:0:0:
339,239,164692,1,8,0:0:0:0:
339,239,164786,1,0,0:0:0:0:
339,239,164880,1,0,0:0:0:0:
339,239,164974,1,8,0:0:0:0:
337,256,165161,1,0,0:0:0:0:
337,256,165255,1,8,0:0:0:0:
337,256,165349,1,0,0:0:0:0:
337,256,165536,1,8,0:0:0:0:
337,256,165724,1,8,0:0:0:0:
337,256,166099,1,8,0:0:0:0:
337,256,166286,1,0,0:0:0:0:
337,256,166474,5,8,0:0:0:0:
337,256,166599,1,0,0:0:0:0:
337,256,166724,1,0,0:0:0:0:
337,256,166849,1,8,0:0:0:0:
337,256,167036,1,0,0:0:0:0:
337,256,167224,1,8,0:0:0:0:
337,256,167349,1,8,0:0:0:0:
337,256,167474,1,0,0:0:0:0:
337,256,167599,1,8,0:0:0:0:
239,168,167786,1,0,0:0:0:0:
257,205,167974,1,12,0:0:0:0:
303,199,168161,1,0,0:0:0:0:
303,199,168255,1,0,0:0:0:0:
303,199,168349,1,8,0:0:0:0:
303,199,168536,1,0,0:0:0:0:
303,199,168724,1,8,0:0:0:0:
303,199,168911,1,8,0:0:0:0:
303,199,169099,1,8,0:0:0:0:
303,199,169286,1,0,0:0:0:0:
303,199,169474,1,8,0:0:0:0:
303,199,169849,1,8,0:0:0:0:
303,199,170224,1,8,0:0:0:0:
303,199,170505,1,0,0:0:0:0:
303,199,170599,1,8,0:0:0:0:
303,199,170786,1,0,0:0:0:0:
303,199,170974,1,8,0:0:0:0:
303,199,171349,1,8,0:0:0:0:
303,199,171724,1,8,0:0:0:0:
303,199,171911,1,0,0:0:0:0:
303,199,172005,1,8,0:0:0:0:
303,199,172099,1,0,0:0:0:0:
303,199,172286,1,0,0:0:0:0:
303,199,172474,1,8,0:0:0:0:
303,199,172849,1,8,0:0:0:0:
303,199,173224,1,8,0:0:0:0:
303,199,173505,1,0,0:0:0:0:
303,199,173599,1,8,0:0:0:0:
303,199,173786,1,0,0:0:0:0:
303,199,173974,1,8,0:0:0:0:
303,199,174349,1,8,0:0:0:0:
303,199,174724,1,8,0:0:0:0:
303,199,174911,1,0,0:0:0:0:
303,199,175005,1,8,0:0:0:0:
303,199,175099,1,0,0:0:0:0:
303,199,175286,1,0,0:0:0:0:
303,199,175474,5,8,0:0:0:0:
303,199,175849,1,8,0:0:0:0:
303,199,176224,1,8,0:0:0:0:
303,199,176505,1,0,0:0:0:0:
303,199,176599,1,8,0:0:0:0:
303,199,176786,1,0,0:0:0:0:
303,199,176974,1,8,0:0:0:0:
303,199,177349,1,8,0:0:0:0:
303,199,177724,1,8,0:0:0:0:
303,199,178005,1,0,0:0:0:0:
303,199,178099,1,8,0:0:0:0:
303,199,178286,1,0,0:0:0:0:
303,199,178474,1,8,0:0:0:0:
289,159,178599,1,0,0:0:0:0:
289,159,178724,1,0,0:0:0:0:
163,178,178849,1,8,0:0:0:0:
289,159,179036,1,0,0:0:0:0:
197,182,179224,1,8,0:0:0:0:
289,159,179349,1,8,0:0:0:0:
176,181,179474,1,0,0:0:0:0:
289,159,179599,1,8,0:0:0:0:
289,159,179786,1,0,0:0:0:0:
289,159,179974,1,12,0:0:0:0:
289,159,180161,1,0,0:0:0:0:
289,159,180255,1,0,0:0:0:0:
289,159,180349,1,8,0:0:0:0:
279,138,180536,1,0,0:0:0:0:
211,180,180724,1,8,0:0:0:0:
211,180,180911,1,8,0:0:0:0:
211,180,181099,1,0,0:0:0:0:
211,180,181286,1,0,0:0:0:0:
