osu file format v14

[General]
AudioFilename: audio.mp3
AudioLeadIn: 0
PreviewTime: 157474
Countdown: 0
SampleSet: Normal
StackLeniency: 0.7
Mode: 1
LetterboxInBreaks: 0
WidescreenStoryboard: 0

[Editor]
DistanceSpacing: 1.8
BeatDivisor: 4
GridSize: 32
TimelineZoom: 4.199998

[Metadata]
Title:Cutter
TitleUnicode:Cutter
Artist:EmoCosine
ArtistUnicode:EmoCosine
Creator:Boaz
Version:Agony
Source:THE BMS OF FIGHTERS XVI -NEO DYSTOPIA-
Tags:bofxvi emoco. dubstep dnb drum n n' bass drum'n'bass future bass muse dash electronic instrumental mappers' guild mg mpg love kills u ep drumstep featured artist fa arcpotato
BeatmapID:3545502
BeatmapSetID:1734692

[Difficulty]
HPDrainRate:6.6
CircleSize:5
OverallDifficulty:7.7
ApproachRate:5
SliderMultiplier:1.4
SliderTickRate:1

[Events]
//Background and Video events
0,0,"bg.jpg",0,0
//Break Periods
//Storyboard Layer 0 (Background)
//Storyboard Layer 1 (Fail)
//Storyboard Layer 2 (Pass)
//Storyboard Layer 3 (Foreground)
//Storyboard Layer 4 (Overlay)
//Storyboard Sound Samples

[TimingPoints]
1474,375,4,1,0,60,1,0
1474,-125,4,1,0,60,0,0
2974,-117.656056051345,4,1,0,65,0,0
4474,-111.127162812406,4,1,0,70,0,0
5974,-105.284768978896,4,1,0,75,0,0
7474,-100.026006761758,4,1,0,80,0,0
10473,-100,4,1,0,80,0,0
10598,-101.87692,4,1,0,80,0,0
10723,-103.78908,4,1,0,80,0,0
10848,-105.73714,4,1,0,80,0,0
10973,-107.721725,4,1,0,80,0,0
11098,-109.74359,4,1,0,80,0,0
11223,-111.8034,4,1,0,80,0,0
11348,-113.90186,4,1,0,80,0,0
11473,-116.03973,4,1,0,80,0,0
11598,-118.2177,4,1,0,80,0,0
11723,-120.43657,4,1,0,80,0,0
11848,-122.69706,4,1,0,80,0,0
11973,-125,4,1,0,80,0,0
13474,-100.026006761758,4,1,0,80,0,0
25474,-100.026006761758,4,1,0,90,0,0
31474,-100,4,1,0,90,0,0
31661,-98.970802623518,4,1,0,90,0,0
31755,-98.4641560932574,4,1,0,90,0,0
31849,-97.9626703448384,4,1,0,90,0,0
32036,-96.9747749215474,4,1,0,90,0,0
32130,-96.4883080292746,4,1,0,90,0,0
32224,-96.0066974272125,4,1,0,90,0,0
32317,-95.529779498163,4,1,0,90,0,0
32411,-95.0576667335239,4,1,0,90,0,0
32505,-94.5901974286601,4,1,0,90,0,0
32599,-94.1272148133646,4,1,0,90,0,0
32786,-93.2148882819564,4,1,0,90,0,0
32974,-92.3199921712647,4,1,0,90,0,0
33161,-91.4421153121651,4,1,0,90,0,0
33255,-91.0094495111427,4,1,0,90,0,0
33349,-90.5808588152386,4,1,0,90,0,0
33536,-89.7355940720667,4,1,0,90,0,0
33630,-89.3188898733816,4,1,0,90,0,0
33724,-88.9060378757502,4,1,0,90,0,0
33817,-88.4969065906301,4,1,0,90,0,0
33911,-88.0916011705612,4,1,0,90,0,0
34005,-87.6899913274599,4,1,0,90,0,0
34099,-87.2919505473642,4,1,0,90,0,0
34286,-86.5067618010362,4,1,0,90,0,0
34474,-85.7354991263553,4,1,0,90,0,0
34567,-85.3550385506032,4,1,0,90,0,0
34661,-84.9779397268469,4,1,0,90,0,0
34755,-84.6040867158047,4,1,0,90,0,0
34849,-84.233579716554,4,1,0,90,0,0
34942,-83.8663036933043,4,1,0,90,0,0
35036,-83.5021468401953,4,1,0,90,0,0
35130,-83.1412078588395,4,1,0,90,0,0
35224,-82.7833757736106,4,1,0,90,0,0
35317,-82.4285426963366,4,1,0,90,0,0
35411,-82.0768058333627,4,1,0,90,0,0
35505,-81.7280580596124,4,1,0,90,0,0
35599,-81.3822614340043,4,1,0,90,0,0
35692,-81.0393129811203,4,1,0,90,0,0
35786,-80.6993079227353,4,1,0,90,0,0
35880,-80.3621439655664,4,1,0,90,0,0
35974,-80.0277216027632,4,1,0,90,0,0
49474,-76.9230769230769,4,1,0,95,0,1
58474,-76.9230769230769,4,1,0,95,0,1
58599,-78.4233764400492,4,1,0,95,0,1
58724,-79.9834274338357,4,1,0,95,0,1
58849,-81.6067387580597,4,1,0,95,0,1
58974,-83.2973766324203,4,1,0,95,0,1
59099,-85.0594735839299,4,1,0,95,0,1
59224,-86.8978090455405,4,1,0,95,0,1
59349,-88.8172824220828,4,1,0,95,0,1
59474,-90.8235516368221,4,1,0,95,0,1
59599,-92.9224673516911,4,1,0,95,0,1
59724,-95.1207796099097,4,1,0,95,0,1
59849,-97.4255303602309,4,1,0,95,0,1
59974,-99.8448411169043,4,1,0,95,0,0
61474,-125,4,1,0,90,0,0
61849,-123.894550869864,4,1,0,90,0,0
62224,-122.808633446931,4,1,0,90,0,0
62599,-121.741438229003,4,1,0,90,0,0
62974,-120.692776537324,4,1,0,90,0,0
63349,-119.661883382315,4,1,0,90,0,0
63724,-118.648592531071,4,1,0,90,0,0
64099,-117.652180153724,4,1,0,90,0,0
64474,-116.672500291681,4,1,0,90,0,0
64849,-115.708867233332,4,1,0,90,0,0
65224,-114.761153349591,4,1,0,90,0,0
65599,-113.828708283201,4,1,0,90,0,0
65974,-112.911293500487,4,1,0,90,0,0
66161,-112.458235822671,4,1,0,90,0,0
66349,-112.008673951711,4,1,0,90,0,0
66630,-111.34109232292,4,1,0,90,0,0
66724,-111.120247664808,4,1,0,90,0,0
66911,-110.681421237994,4,1,0,90,0,0
67099,-110.245925586205,4,1,0,90,0,0
67286,-109.813843572376,4,1,0,90,0,0
67474,-109.385135216435,4,1,0,90,0,0
67661,-108.959761160204,4,1,0,90,0,0
67755,-108.748371493137,4,1,0,90,0,0
67849,-108.537800459766,4,1,0,90,0,0
68036,-108.118978448644,4,1,0,90,0,0
68224,-107.70337628544,4,1,0,90,0,0
68411,-107.290956981691,4,1,0,90,0,0
68505,-107.085986834849,4,1,0,90,0,0
68599,-106.881798350386,4,1,0,90,0,0
68786,-106.475635180402,4,1,0,90,0,0
68974,-106.072547257972,4,1,0,90,0,0
69161,-105.672499788655,4,1,0,90,0,0
69255,-105.473661117346,4,1,0,90,0,0
69349,-105.275569330279,4,1,0,90,0,0
69536,-104.881499637634,4,1,0,90,0,0
69724,-104.490369122678,4,1,0,90,0,0
69911,-104.102145024698,4,1,0,90,0,0
70005,-103.909166762783,4,1,0,90,0,0
70099,-103.716795068059,4,1,0,90,0,0
70286,-103.334394233114,4,1,0,90,0,0
70474,-102.954696844747,4,1,0,90,0,0
70661,-102.577779601383,4,1,0,90,0,0
70849,-102.203612080058,4,1,0,90,0,0
71036,-101.83226799809,4,1,0,90,0,0
71224,-101.463509663385,4,1,0,90,0,0
71317,-101.280078917437,4,1,0,90,0,0
71411,-101.097412411729,4,1,0,90,0,0
71505,-100.915403626294,4,1,0,90,0,0
71599,-100.733947541789,4,1,0,90,0,0
71692,-100.553243948203,4,1,0,90,0,0
71786,-100.3730867635,4,1,0,90,0,0
71880,-100.193674372562,4,1,0,90,0,0
71974,-100.014902220431,4,1,0,90,0,0
73474,-66.6666666666667,4,1,0,95,0,0
73536,-67.9156813233235,4,1,0,95,0,0
73599,-69.2123906790289,4,1,0,95,0,0
73661,-70.5596295901685,4,1,0,95,0,0
73755,-72.681707903845,4,1,0,95,0,0
73849,-74.9353869625915,4,1,0,95,0,0
74036,-79.8898159658199,4,1,0,95,0,0
74130,-82.6210708516993,4,1,0,95,0,0
74224,-85.5456873852619,4,1,0,95,0,0
74411,-92.0634832955413,4,1,0,95,0,0
74599,-66.6666666666667,4,1,0,95,0,0
74661,-67.600682766896,4,1,0,95,0,0
74724,-68.5612893361827,4,1,0,95,0,0
74786,-69.5495415294222,4,1,0,95,0,0
74880,-71.0865436016424,4,1,0,95,0,0
74974,-72.6930144920794,4,1,0,95,0,0
75036,-73.804986560112,4,1,0,95,0,0
75099,-74.9514501981342,4,1,0,95,0,0
75161,-76.1340934561224,4,1,0,95,0,0
75255,-77.9798235004675,4,1,0,95,0,0
75349,-79.9172057748173,4,1,0,95,0,0
75536,-84.0958726586658,4,1,0,95,0,0
75630,-86.3534741297944,4,1,0,95,0,0
75724,-88.735632591888,4,1,0,95,0,0
75911,-93.9172607716054,4,1,0,95,0,0
76099,-66.6666666666667,4,1,0,95,0,0
76161,-67.600682766896,4,1,0,95,0,0
76224,-68.5612893361827,4,1,0,95,0,0
76286,-69.5495415294222,4,1,0,95,0,0
76380,-71.0865436016424,4,1,0,95,0,0
76474,-72.6930144920794,4,1,0,95,0,0
76536,-73.804986560112,4,1,0,95,0,0
76599,-74.9514501981342,4,1,0,95,0,0
76661,-76.1340934561224,4,1,0,95,0,0
76755,-77.9798235004675,4,1,0,95,0,0
76849,-79.9172057748173,4,1,0,95,0,0
77036,-84.0958726586658,4,1,0,95,0,0
77130,-86.3534741297944,4,1,0,95,0,0
77224,-88.735632591888,4,1,0,95,0,0
77411,-93.9172607716054,4,1,0,95,0,0
77599,-66.6666666666667,4,1,0,95,0,0
77661,-67.9156813233235,4,1,0,95,0,0
77724,-69.2123906790289,4,1,0,95,0,0
77786,-70.5596295901685,4,1,0,95,0,0
77880,-72.681707903845,4,1,0,95,0,0
77974,-74.9353869625915,4,1,0,95,0,0
78036,-76.5171241497991,4,1,0,95,0,0
78099,-78.1671369722741,4,1,0,95,0,0
78161,-79.8898159658199,4,1,0,95,0,0
78255,-82.6210708516993,4,1,0,95,0,0
78349,-85.5456873852619,4,1,0,95,0,0
78536,-92.0634832955413,4,1,0,95,0,0
78629,-66.666664,4,1,0,95,0,0
78691,-68.27441,4,1,0,95,0,0
78754,-69.94781,4,1,0,95,0,0
78816,-71.634674,4,1,0,95,0,0
78910,-74.2701,4,1,0,95,0,0
79004,-77.0025,4,1,0,95,0,0
79098,-79.8354,4,1,0,95,0,0
79474,-66.6666666666667,4,1,0,95,0,0
79536,-67.9156813233235,4,1,0,95,0,0
79599,-69.2123906790289,4,1,0,95,0,0
79661,-70.5596295901685,4,1,0,95,0,0
79755,-72.681707903845,4,1,0,95,0,0
79849,-74.9353869625915,4,1,0,95,0,0
80036,-79.8898159658199,4,1,0,95,0,0
80130,-82.6210708516993,4,1,0,95,0,0
80224,-85.5456873852619,4,1,0,95,0,0
80411,-92.0634832955413,4,1,0,95,0,0
80599,-66.6666666666667,4,1,0,95,0,0
80661,-67.600682766896,4,1,0,95,0,0
80724,-68.5612893361827,4,1,0,95,0,0
80786,-69.5495415294222,4,1,0,95,0,0
80880,-71.0865436016424,4,1,0,95,0,0
80974,-72.6930144920794,4,1,0,95,0,0
81036,-73.804986560112,4,1,0,95,0,0
81099,-74.9514501981342,4,1,0,95,0,0
81161,-76.1340934561224,4,1,0,95,0,0
81255,-77.9798235004675,4,1,0,95,0,0
81349,-79.9172057748173,4,1,0,95,0,0
81536,-84.0958726586658,4,1,0,95,0,0
81630,-86.3534741297944,4,1,0,95,0,0
81724,-88.735632591888,4,1,0,95,0,0
81911,-93.9172607716054,4,1,0,95,0,0
82099,-66.6666666666667,4,1,0,95,0,0
82161,-67.600682766896,4,1,0,95,0,0
82224,-68.5612893361827,4,1,0,95,0,0
82286,-69.5495415294222,4,1,0,95,0,0
82380,-71.0865436016424,4,1,0,95,0,0
82474,-72.6930144920794,4,1,0,95,0,0
82536,-73.804986560112,4,1,0,95,0,0
82599,-74.9514501981342,4,1,0,95,0,0
82661,-76.1340934561224,4,1,0,95,0,0
82755,-77.9798235004675,4,1,0,95,0,0
82849,-79.9172057748173,4,1,0,95,0,0
83036,-84.0958726586658,4,1,0,95,0,0
83130,-86.3534741297944,4,1,0,95,0,0
83224,-88.735632591888,4,1,0,95,0,0
83411,-93.9172607716054,4,1,0,95,0,0
83599,-66.6666666666667,4,1,0,95,0,0
83661,-67.1641740922258,4,1,0,95,0,0
83724,-67.6691627565169,4,1,0,95,0,0
83786,-68.1818026859539,4,1,0,95,0,0
83880,-68.9655172413793,4,1,0,95,0,0
83974,-69.7674580854554,4,1,0,95,0,0
84161,-71.4285714285714,4,1,0,95,0,0
84255,-72.2891740455841,4,1,0,95,0,0
84349,-73.1707138608015,4,1,0,95,0,0
84536,-75.0000187500047,4,1,0,95,0,0
84724,-76.9230769230769,4,1,0,95,0,0
84817,-77.9220981615839,4,1,0,95,0,0
84911,-78.9473476454348,4,1,0,95,0,0
85005,-80,4,1,0,95,0,0
85099,-81.0811029948927,4,1,0,95,0,0
85286,-83.3333333333333,4,1,0,95,0,0
85474,-80,4,1,0,95,0,0
95974,-80,4,1,0,95,0,0
96066,-81.00734,4,1,0,95,0,0
96113,-81.54382,4,1,0,95,0,0
96160,-82.08386,4,1,0,95,0,0
96207,-82.62748,4,1,0,95,0,0
96254,-83.1747,4,1,0,95,0,0
96301,-83.72553,4,1,0,95,0,0
96348,-84.28002,4,1,0,95,0,0
96394,-84.82628,4,1,0,95,0,0
96441,-85.38805,4,1,0,95,0,0
96488,-85.95355,4,1,0,95,0,0
96535,-86.5228,4,1,0,95,0,0
96582,-87.0958,4,1,0,95,0,0
96629,-87.67261,4,1,0,95,0,0
96676,-88.25325,4,1,0,95,0,0
96723,-88.837715,4,1,0,95,0,0
96817,-90.0816500075669,4,1,0,95,0,0
96911,-91.3609121473469,4,1,0,95,0,0
97005,-92.6770316658882,4,1,0,95,0,0
97099,-94.0316247160245,4,1,0,95,0,0
97192,-95.426494402759,4,1,0,95,0,0
97286,-96.8632765165641,4,1,0,95,0,0
97380,-98.3439856260431,4,1,0,95,0,0
97474,-99.8706674856061,4,1,0,95,0,0
97661,-101.754346691305,4,1,0,95,0,0
98036,-105.454530115705,4,1,0,95,0,0
98224,-107.407463100166,4,1,0,95,0,0
98599,-111.538427218945,4,1,0,95,0,0
98786,-113.725534794327,4,1,0,95,0,0
98974,-116.279069767442,4,1,0,95,0,0
99161,-118.367288962961,4,1,0,95,0,0
99349,-120.833363541674,4,1,0,95,0,0
99724,-126.08702778832,4,1,0,95,0,0
99911,-128.88890034568,4,1,0,95,0,0
100286,-134.883777393209,4,1,0,95,0,0
100474,-138.095224943312,4,1,0,95,0,0
100661,-141.463324925696,4,1,0,95,0,0
101036,-148.717902958594,4,1,0,95,0,0
101224,-152.631675346321,4,1,0,95,0,0
101599,-161.111021604988,4,1,0,95,0,0
101786,-165.714361469422,4,1,0,95,0,0
101974,-170.940170940171,4,1,0,95,0,0
102161,-175.757426630062,4,1,0,95,0,0
102349,-181.250045312511,4,1,0,95,0,0
102724,-193.333475111215,4,1,0,95,0,0
102911,-200,4,1,0,95,0,0
103099,-66.6666666666667,4,1,0,95,0,0
103474,-100,4,1,0,95,0,0
103661,-101.694949727102,4,1,0,95,0,0
104036,-105.263157894737,4,1,0,95,0,0
104224,-107.142895408177,4,1,0,95,0,0
104599,-111.111111111111,4,1,0,95,0,0
104786,-113.207589889657,4,1,0,95,0,0
104974,-115.606936416185,4,1,0,95,0,0
105161,-117.647058823529,4,1,0,95,0,0
105349,-120.000048000019,4,1,0,95,0,0
105724,-125,4,1,0,95,0,0
105911,-127.659628791331,4,1,0,95,0,0
106286,-133.333333333333,4,1,0,95,0,0
106474,-128.592554491095,4,1,0,95,0,0
106661,-124.177325220415,4,1,0,95,0,0
106755,-122.081638433253,4,1,0,95,0,0
106849,-120.05536953643,4,1,0,95,0,0
107036,-116.198136414288,4,1,0,95,0,0
107224,-112.581044279251,4,1,0,95,0,0
107411,-109.182344341461,4,1,0,95,0,0
107505,-107.558802397271,4,1,0,95,0,0
107599,-105.98294946309,4,1,0,95,0,0
107786,-102.965615662306,4,1,0,95,0,0
107974,-100,4,1,0,95,0,0
108161,-96.9849324208991,4,1,0,95,0,0
108255,-95.5445658072751,4,1,0,95,0,0
108349,-94.1463561594312,4,1,0,95,0,0
108536,-91.4692151209589,4,1,0,95,0,0
108724,-88.9401183970856,4,1,0,95,0,0
108817,-87.7273014380259,4,1,0,95,0,0
108911,-86.5471162500865,4,1,0,95,0,0
109005,-85.3982633409167,4,1,0,95,0,0
109099,-84.2795113136816,4,1,0,95,0,0
109286,-82.1276312666462,4,1,0,95,0,0
109474,-80.082965952727,4,1,0,95,0,0
118474,-80,4,1,0,95,0,0
118536,-80.6451612903226,4,1,0,95,0,0
118599,-81.3487624819508,4,1,0,95,0,0
118661,-81.9672131147541,4,1,0,95,0,0
118724,-82.7438523386309,4,1,0,95,0,0
118849,-84.1875564056628,4,1,0,95,0,0
118974,-85.6826076302076,4,1,0,95,0,0
119099,-87.2316427550195,4,1,0,95,0,0
119224,-88.8377183631117,4,1,0,95,0,0
119349,-90.5041260831081,4,1,0,95,0,0
119474,-92.2341603970496,4,1,0,95,0,0
119599,-94.0316247160245,4,1,0,95,0,0
119724,-95.9006316015597,4,1,0,95,0,0
119849,-97.8453476004896,4,1,0,95,0,0
119974,-99.8706674856061,4,1,0,95,0,0
121474,-99.8706674856061,4,1,0,75,0,0
133474,-99.8706674856061,4,1,0,80,0,0
139474,-100,4,1,0,90,0,0
139849,-97.9626703448384,4,1,0,90,0,0
140224,-96.0066974272125,4,1,0,90,0,0
140505,-94.5901974286601,4,1,0,90,0,0
140599,-94.1272148133646,4,1,0,90,0,0
140786,-93.2148882819564,4,1,0,90,0,0
140974,-92.3199921712647,4,1,0,90,0,0
141349,-90.5808588152386,4,1,0,90,0,0
141724,-88.9060378757502,4,1,0,90,0,0
142005,-87.6899913274599,4,1,0,90,0,0
142099,-87.2919505473642,4,1,0,90,0,0
142286,-86.5067618010362,4,1,0,90,0,0
142474,-85.7354991263553,4,1,0,90,0,0
142599,-85.2289676215152,4,1,0,90,0,0
142724,-84.7283144233857,4,1,0,90,0,0
142849,-84.233579716554,4,1,0,90,0,0
142974,-83.7445890527398,4,1,0,90,0,0
143099,-83.2611736495038,4,1,0,90,0,0
143224,-82.7833757736106,4,1,0,90,0,0
143317,-82.4285426963366,4,1,0,90,0,0
143411,-82.0768058333627,4,1,0,90,0,0
143505,-81.7280580596124,4,1,0,90,0,0
143599,-81.3822614340043,4,1,0,90,0,0
143692,-81.0393129811203,4,1,0,90,0,0
143786,-80.6993079227353,4,1,0,90,0,0
143880,-80.3621439655664,4,1,0,90,0,0
143974,-80.0277216027632,4,1,0,90,0,0
145474,-80.0277216027632,4,1,0,95,0,0
151474,-80,4,1,0,95,0,0
151661,-79.8671011436969,4,1,0,95,0,0
151849,-79.7347066839213,4,1,0,95,0,0
152036,-79.6026870683047,4,1,0,95,0,0
152224,-79.4711039092631,4,1,0,95,0,0
152411,-79.3399550459815,4,1,0,95,0,0
152505,-79.3399550459815,4,1,0,95,0,0
152599,-79.2093010729692,4,1,0,95,0,0
152786,-79.0790141693778,4,1,0,95,0,0
152974,-78.9491551650906,4,1,0,95,0,0
153161,-78.8197219555488,4,1,0,95,0,0
153349,-78.6907743723034,4,1,0,95,0,0
153536,-78.5621862913699,4,1,0,95,0,0
153724,-78.4340177747171,4,1,0,95,0,0
153911,-78.3063280909857,4,1,0,95,0,0
154005,-78.3063280909857,4,1,0,95,0,0
154099,-78.1789923666032,4,1,0,95,0,0
154286,-78.0520700970031,4,1,0,95,0,0
154474,-77.9255592717389,4,1,0,95,0,0
154567,-77.8625181516995,4,1,0,95,0,0
154661,-77.799518420981,4,1,0,95,0,0
154755,-77.7366205558946,4,1,0,95,0,0
154849,-77.6738243095768,4,1,0,95,0,0
154942,-77.6111294359611,4,1,0,95,0,0
155036,-77.5485356897748,4,1,0,95,0,0
155130,-77.4860428265359,4,1,0,95,0,0
155224,-77.4237105468127,4,1,0,95,0,0
155317,-77.3614186227501,4,1,0,95,0,0
155411,-77.299226853133,4,1,0,95,0,0
155505,-77.2371349966093,4,1,0,95,0,0
155599,-77.1751428126018,4,1,0,95,0,0
155692,-77.113250061305,4,1,0,95,0,0
155786,-77.0514565036823,4,1,0,95,0,0
155880,-76.9898211757424,4,1,0,95,0,0
155974,-76.9282251966093,4,1,0,95,0,0
157474,-76.9282251966093,4,1,0,95,0,1
166474,-76.9230769230769,4,1,0,95,0,1
166599,-77.667972524178,4,1,0,95,0,1
166724,-78.4273742907224,4,1,0,95,0,1
166849,-79.2018355817414,4,1,0,95,0,1
166974,-79.99168086519,4,1,0,95,0,1
167099,-80.7975036803263,4,1,0,95,0,1
167224,-81.6196605438318,4,1,0,95,0,1
167349,-82.4587891586482,4,1,0,95,0,1
167474,-83.3152816889674,4,1,0,95,0,1
167599,-84.1898244810539,4,1,0,95,0,1
167724,-85.0828494246272,4,1,0,95,0,1
167849,-85.9950965595942,4,1,0,95,0,1
167974,-86.9270421335373,4,1,0,95,0,0
168161,-88.3635772403701,4,1,0,95,0,0
168255,-89.0997186230886,4,1,0,95,0,0
168349,-89.8483090997469,4,1,0,95,0,0
168536,-91.3837881504469,4,1,0,95,0,0
168724,-92.9727478281566,4,1,0,95,0,0
168817,-93.7880427748506,4,1,0,95,0,0
168911,-94.6178526856804,4,1,0,95,0,0
169099,-96.3222248122198,4,1,0,95,0,0
169286,-98.0891257414312,4,1,0,95,0,0
169474,-99.9221606368639,4,1,0,80,0,0
175474,-100,4,1,0,80,0,0
175849,-98.3634292639071,4,1,0,80,0,0
176224,-96.779563253187,4,1,0,80,0,0
176505,-95.624783648927,4,1,0,80,0,0
176599,-95.2459870484507,4,1,0,80,0,0
176786,-94.497236900793,4,1,0,80,0,0
176974,-93.7601671181219,4,1,0,80,0,0
177349,-92.3199921712647,4,1,0,80,0,0
177724,-90.9233906787158,4,1,0,80,0,0
178005,-89.9033987979916,4,1,0,80,0,0
178099,-89.5684948193583,4,1,0,80,0,0
178286,-88.9060378757502,4,1,0,80,0,0
178474,-88.2533081752569,4,1,0,80,0,0
178599,-87.8234537802727,4,1,0,80,0,0
178724,-87.3977664626803,4,1,0,80,0,0
178849,-86.976185920295,4,1,0,80,0,0
178974,-86.5586530088653,4,1,0,80,0,0
179099,-86.1451097144117,4,1,0,80,0,0
179224,-85.7354991263553,4,1,0,80,0,0
179349,-85.3297654114089,4,1,0,80,0,0
179474,-84.9278537882069,4,1,0,80,0,0
179599,-84.5297105026475,4,1,0,80,0,0
179692,-84.233579716554,4,1,0,80,0,0
179786,-83.9395165419605,4,1,0,80,0,0
179880,-83.6474294308462,4,1,0,80,0,0
179974,-83.3574375256845,4,1,0,80,0,0

[HitObjects]
254,208,1474,5,0,0:0:0:0:
173,214,2974,1,0,0:0:0:0:
250,200,4474,1,0,0:0:0:0:
250,200,5974,1,0,0:0:0:0:
250,200,7474,1,0,0:0:0:0:
250,200,7849,1,8,0:0:0:0:
250,200,8599,1,8,0:0:0:0:
250,200,8974,1,0,0:0:0:0:
250,200,9349,1,8,0:0:0:0:
250,200,10099,1,8,0:0:0:0:
117,164,10286,5,0,0:0:0:0:
236,215,10474,1,8,0:0:0:0:
270,203,10599,1,0,0:0:0:0:
270,203,10724,1,0,0:0:0:0:
270,203,10849,1,8,0:0:0:0:
270,203,10974,1,0,0:0:0:0:
270,203,11099,1,0,0:0:0:0:
270,203,11224,1,8,0:0:0:0:
270,203,11349,1,0,0:0:0:0:
270,203,11474,1,8,0:0:0:0:
270,203,11599,1,8,0:0:0:0:
270,203,11724,1,0,0:0:0:0:
270,203,11849,1,0,0:0:0:0:
236,215,11974,1,8,0:0:0:0:
256,192,12161,12,0,13286,0:0:0:0:
236,195,13474,5,0,0:0:0:0:
180,192,13849,1,8,0:0:0:0:
180,192,14599,1,8,0:0:0:0:
180,192,14974,1,0,0:0:0:0:
180,192,15349,1,8,0:0:0:0:
180,192,16099,1,8,0:0:0:0:
180,192,16474,1,0,0:0:0:0:
180,192,16849,1,8,0:0:0:0:
180,192,17599,1,8,0:0:0:0:
180,192,17974,1,0,0:0:0:0:
180,192,18349,1,8,0:0:0:0:
180,192,19099,1,8,0:0:0:0:
180,192,19474,1,12,0:0:0:0:
180,192,19849,1,8,0:0:0:0:
180,192,20599,1,8,0:0:0:0:
180,192,20786,1,12,0:0:0:0:
180,192,20974,1,0,0:0:0:0:
180,192,21349,1,8,0:0:0:0:
180,192,21536,1,12,0:0:0:0:
180,192,21724,1,0,0:0:0:0:
180,192,22099,1,8,0:0:0:0:
180,192,22474,1,4,0:0:0:0:
180,192,23036,1,4,0:0:0:0:
180,192,23411,1,4,0:0:0:0:
180,192,23786,1,4,0:0:0:0:
180,192,23974,1,8,0:0:0:0:
180,192,24161,1,8,0:0:0:0:
180,192,24255,1,0,0:0:0:0:
180,192,24349,1,8,0:0:0:0:
180,192,24536,1,0,0:0:0:0:
180,192,24630,1,8,0:0:0:0:
180,192,24724,1,0,0:0:0:0:
180,192,24911,1,0,0:0:0:0:
180,192,25099,1,8,0:0:0:0:
180,192,25474,1,8,0:0:0:0:
283,201,25661,1,0,0:0:0:0:
283,201,25755,1,0,0:0:0:0:
283,201,25849,1,8,0:0:0:0:
283,201,26036,1,0,0:0:0:0:
283,201,26130,1,0,0:0:0:0:
283,201,26224,1,8,0:0:0:0:
283,201,26317,1,8,0:0:0:0:
283,201,26411,1,0,0:0:0:0:
283,201,26599,1,8,0:0:0:0:
283,201,26786,1,0,0:0:0:0:
283,201,26974,1,8,0:0:0:0:
198,170,27161,1,0,0:0:0:0:
283,201,27255,1,0,0:0:0:0:
283,201,27349,1,8,0:0:0:0:
283,201,27536,1,0,0:0:0:0:
283,201,27630,1,8,0:0:0:0:
283,201,27724,1,0,0:0:0:0:
283,201,27817,1,0,0:0:0:0:
283,201,27911,1,8,0:0:0:0:
283,201,28099,1,8,0:0:0:0:
283,201,28286,1,0,0:0:0:0:
283,201,28380,1,0,0:0:0:0:
283,201,28474,1,8,0:0:0:0:
283,201,28661,1,0,0:0:0:0:
283,201,28755,1,8,0:0:0:0:
283,201,28849,1,8,0:0:0:0:
283,201,29036,1,0,0:0:0:0:
283,201,29130,1,8,0:0:0:0:
283,201,29224,1,8,0:0:0:0:
283,201,29317,1,0,0:0:0:0:
283,201,29411,1,8,0:0:0:0:
283,201,29599,1,8,0:0:0:0:
283,201,29786,1,0,0:0:0:0:
283,201,29974,1,8,0:0:0:0:
234,160,30161,1,0,0:0:0:0:
283,201,30255,1,0,0:0:0:0:
283,201,30349,1,8,0:0:0:0:
299,207,30536,1,0,0:0:0:0:
283,201,30724,1,8,0:0:0:0:
299,207,30786,1,0,0:0:0:0:
299,207,30849,1,0,0:0:0:0:
299,207,30911,1,8,0:0:0:0:
299,207,31005,1,0,0:0:0:0:
299,207,31099,1,8,0:0:0:0:
299,207,31286,1,8,0:0:0:0:
299,207,31380,1,8,0:0:0:0:
299,207,31474,5,0,0:0:0:0:
299,207,31661,1,8,0:0:0:0:
299,207,31755,1,0,0:0:0:0:
299,207,31849,1,8,0:0:0:0:
299,207,32036,1,0,0:0:0:0:
299,207,32130,1,0,0:0:0:0:
299,207,32224,1,8,0:0:0:0:
299,207,32317,1,0,0:0:0:0:
299,207,32411,1,8,0:0:0:0:
299,207,32505,1,8,0:0:0:0:
299,207,32599,1,0,0:0:0:0:
299,207,32786,1,0,0:0:0:0:
299,207,32974,1,8,0:0:0:0:
299,207,33161,1,0,0:0:0:0:
299,207,33255,1,0,0:0:0:0:
299,207,33349,1,8,0:0:0:0:
299,207,33536,1,0,0:0:0:0:
299,207,33630,1,0,0:0:0:0:
299,207,33724,1,8,0:0:0:0:
299,207,33817,1,0,0:0:0:0:
299,207,33911,1,0,0:0:0:0:
299,207,34005,1,0,0:0:0:0:
299,207,34099,1,8,0:0:0:0:
299,207,34286,1,0,0:0:0:0:
299,207,34474,1,8,0:0:0:0:
299,207,34599,1,0,0:0:0:0:
299,207,34724,1,8,0:0:0:0:
299,207,34849,1,8,0:0:0:0:
299,207,34974,1,0,0:0:0:0:
299,207,35099,1,0,0:0:0:0:
299,207,35224,1,8,0:0:0:0:
299,207,35349,1,8,0:0:0:0:
299,207,35474,1,0,0:0:0:0:
299,207,35599,1,8,0:0:0:0:
299,207,35692,1,8,0:0:0:0:
299,207,35786,1,0,0:0:0:0:
299,207,35880,1,0,0:0:0:0:
299,207,35974,1,8,0:0:0:0:
299,207,36349,1,8,0:0:0:0:
299,207,36536,1,0,0:0:0:0:
299,207,36630,1,0,0:0:0:0:
299,207,36724,1,8,0:0:0:0:
299,207,36911,1,0,0:0:0:0:
299,207,37099,1,8,0:0:0:0:
299,207,37286,1,8,0:0:0:0:
299,207,37474,1,0,0:0:0:0:
299,207,37849,1,0,0:0:0:0:
299,207,38036,1,8,0:0:0:0:
299,207,38130,1,0,0:0:0:0:
299,207,38317,1,0,0:0:0:0:
299,207,38505,1,8,0:0:0:0:
299,207,38599,1,8,0:0:0:0:
299,207,38786,1,0,0:0:0:0:
299,207,38880,1,0,0:0:0:0:
299,207,38974,1,8,0:0:0:0:
299,207,39161,1,0,0:0:0:0:
299,207,39349,1,8,0:0:0:0:
299,207,39536,1,0,0:0:0:0:
299,207,39724,1,8,0:0:0:0:
299,207,39911,1,0,0:0:0:0:
299,207,40005,1,0,0:0:0:0:
299,207,40099,1,8,0:0:0:0:
299,207,40286,1,0,0:0:0:0:
299,207,40474,1,8,0:0:0:0:
299,207,40849,1,8,0:0:0:0:
299,207,41036,1,8,0:0:0:0:
299,207,41130,1,0,0:0:0:0:
299,207,41317,1,8,0:0:0:0:
299,207,41505,1,0,0:0:0:0:
299,207,41599,1,8,0:0:0:0:
299,207,41786,1,0,0:0:0:0:
299,207,41974,1,8,0:0:0:0:
299,207,42161,1,0,0:0:0:0:
299,207,42255,1,0,0:0:0:0:
299,207,42349,1,8,0:0:0:0:
299,207,42442,1,8,0:0:0:0:
299,207,42536,1,0,0:0:0:0:
299,207,42724,1,8,0:0:0:0:
299,207,42911,1,0,0:0:0:0:
299,207,43005,1,0,0:0:0:0:
299,207,43099,1,8,0:0:0:0:
299,207,43286,1,0,0:0:0:0:
299,207,43474,1,8,0:0:0:0:
299,207,43849,1,0,0:0:0:0:
299,207,44036,1,8,0:0:0:0:
299,207,44130,1,8,0:0:0:0:
299,207,44317,1,0,0:0:0:0:
299,207,44505,1,0,0:0:0:0:
299,207,44599,1,8,0:0:0:0:
299,207,44786,1,0,0:0:0:0:
299,207,44974,1,8,0:0:0:0:
299,207,45161,1,0,0:0:0:0:
299,207,45255,1,8,0:0:0:0:
299,207,45349,1,0,0:0:0:0:
299,207,45442,1,0,0:0:0:0:
299,207,45536,1,8,0:0:0:0:
299,207,45724,1,8,0:0:0:0:
299,207,45911,1,0,0:0:0:0:
299,207,46005,1,0,0:0:0:0:
299,207,46099,1,8,0:0:0:0:
299,207,46286,1,0,0:0:0:0:
299,207,46474,1,8,0:0:0:0:
299,207,46849,1,8,0:0:0:0:
299,207,47036,1,0,0:0:0:0:
299,207,47130,1,8,0:0:0:0:
299,207,47317,1,8,0:0:0:0:
299,207,47505,1,8,0:0:0:0:
299,207,47599,1,8,0:0:0:0:
299,207,47786,1,0,0:0:0:0:
299,207,47974,1,8,0:0:0:0:
273,204,48161,1,8,0:0:0:0:
273,204,48255,1,0,0:0:0:0:
273,204,48349,1,8,0:0:0:0:
273,204,48442,1,8,0:0:0:0:
273,204,48536,1,0,0:0:0:0:
273,204,48630,1,0,0:0:0:0:
273,204,48724,1,8,0:0:0:0:
281,185,48770,1,8,0:0:0:0:
281,185,48817,1,0,0:0:0:0:
273,204,48911,1,8,0:0:0:0:
281,185,48958,1,8,0:0:0:0:
281,185,49005,1,0,0:0:0:0:
273,204,49099,1,8,0:0:0:0:
273,204,49286,1,0,0:0:0:0:
273,204,49474,1,12,0:0:0:0:
273,204,49661,1,0,0:0:0:0:
273,204,49755,1,0,0:0:0:0:
273,204,49849,1,8,0:0:0:0:
273,204,50036,1,0,0:0:0:0:
273,204,50224,1,8,0:0:0:0:
273,204,50317,1,0,0:0:0:0:
273,204,50411,1,8,0:0:0:0:
273,204,50599,1,0,0:0:0:0:
273,204,50692,1,8,0:0:0:0:
273,204,50786,1,0,0:0:0:0:
273,204,50880,1,0,0:0:0:0:
273,204,50974,1,8,0:0:0:0:
273,204,51161,1,8,0:0:0:0:
273,204,51255,1,8,0:0:0:0:
273,204,51349,1,0,0:0:0:0:
273,204,51536,1,8,0:0:0:0:
273,204,51724,1,0,0:0:0:0:
273,204,51911,1,8,0:0:0:0:
190,132,52005,1,0,0:0:0:0:
273,204,52099,1,8,0:0:0:0:
273,204,52286,1,0,0:0:0:0:
273,204,52474,1,8,0:0:0:0:
273,204,52661,1,0,0:0:0:0:
273,204,52755,1,0,0:0:0:0:
273,204,52849,1,8,0:0:0:0:
273,204,53036,1,0,0:0:0:0:
273,204,53224,1,8,0:0:0:0:
273,204,53317,1,0,0:0:0:0:
273,204,53411,1,8,0:0:0:0:
270,183,53505,1,8,0:0:0:0:
270,183,53599,1,0,0:0:0:0:
273,204,53692,1,0,0:0:0:0:
270,183,53786,1,8,0:0:0:0:
268,183,53880,1,0,0:0:0:0:
268,183,53974,1,8,0:0:0:0:
268,183,54161,1,0,0:0:0:0:
268,183,54255,1,0,0:0:0:0:
268,183,54349,1,8,0:0:0:0:
259,159,54536,1,8,0:0:0:0:
259,159,54724,1,8,0:0:0:0:
259,159,54911,1,0,0:0:0:0:
190,132,55005,1,0,0:0:0:0:
259,159,55099,1,8,0:0:0:0:
259,159,55286,1,0,0:0:0:0:
259,159,55474,1,8,0:0:0:0:
239,182,55661,1,0,0:0:0:0:
239,182,55755,1,0,0:0:0:0:
239,182,55849,1,8,0:0:0:0:
239,182,56036,1,8,0:0:0:0:
239,182,56224,1,0,0:0:0:0:
239,182,56317,1,0,0:0:0:0:
239,182,56411,1,8,0:0:0:0:
239,182,56505,1,0,0:0:0:0:
239,182,56599,1,8,0:0:0:0:
339,239,56692,1,8,0:0:0:0:
339,239,56786,1,0,0:0:0:0:
339,239,56880,1,0,0:0:0:0:
339,239,56974,1,8,0:0:0:0:
337,256,57161,1,0,0:0:0:0:
337,256,57255,1,8,0:0:0:0:
337,256,57349,1,0,0:0:0:0:
337,256,57536,1,8,0:0:0:0:
337,256,57724,1,8,0:0:0:0:
337,256,57817,1,0,0:0:0:0:
337,256,57911,1,8,0:0:0:0:
337,256,58005,1,0,0:0:0:0:
337,256,58099,1,8,0:0:0:0:
337,256,58286,1,0,0:0:0:0:
337,256,58474,5,8,0:0:0:0:
337,256,58599,1,0,0:0:0:0:
337,256,58724,1,0,0:0:0:0:
337,256,58849,1,8,0:0:0:0:
337,256,58974,1,0,0:0:0:0:
337,256,59099,1,0,0:0:0:0:
337,256,59224,1,8,0:0:0:0:
337,256,59349,1,8,0:0:0:0:
337,256,59474,1,0,0:0:0:0:
337,256,59599,1,8,0:0:0:0:
337,256,59724,1,0,0:0:0:0:
239,168,59849,1,0,0:0:0:0:
257,205,59974,1,12,0:0:0:0:
280,192,61474,5,4,0:0:0:0:
246,218,61849,1,8,0:0:0:0:
246,218,62224,1,8,0:0:0:0:
246,218,62599,1,8,0:0:0:0:
280,192,62974,1,4,0:0:0:0:
246,218,63349,1,8,0:0:0:0:
246,218,63724,1,8,0:0:0:0:
246,218,64099,1,8,0:0:0:0:
280,192,64474,1,4,0:0:0:0:
246,218,64849,1,8,0:0:0:0:
246,218,65224,1,8,0:0:0:0:
246,218,65599,1,8,0:0:0:0:
280,192,65974,1,4,0:0:0:0:
246,218,66161,1,0,0:0:0:0:
246,218,66349,1,12,0:0:0:0:
246,218,66630,1,8,0:0:0:0:
246,218,66724,1,0,0:0:0:0:
246,218,66911,1,0,0:0:0:0:
246,218,67099,1,8,0:0:0:0:
246,218,67286,1,8,0:0:0:0:
246,218,67474,1,4,0:0:0:0:
252,215,67661,1,8,0:0:0:0:
252,215,67755,1,8,0:0:0:0:
252,215,67849,1,0,0:0:0:0:
252,215,68036,1,8,0:0:0:0:
280,192,68224,1,4,0:0:0:0:
251,215,68411,1,8,0:0:0:0:
251,215,68505,1,0,0:0:0:0:
252,215,68599,1,8,0:0:0:0:
252,215,68786,1,8,0:0:0:0:
280,192,68974,1,4,0:0:0:0:
251,215,69161,1,8,0:0:0:0:
251,215,69255,1,0,0:0:0:0:
251,215,69349,1,0,0:0:0:0:
251,215,69536,1,8,0:0:0:0:
280,192,69724,1,4,0:0:0:0:
251,215,69911,1,8,0:0:0:0:
251,215,70005,1,8,0:0:0:0:
251,215,70099,1,0,0:0:0:0:
251,215,70286,1,8,0:0:0:0:
245,232,70474,5,0,0:0:0:0:
245,232,70599,1,8,0:0:0:0:
354,167,70724,1,0,0:0:0:0:
245,232,70849,1,0,0:0:0:0:
245,232,70974,1,8,0:0:0:0:
327,166,71099,1,8,0:0:0:0:
245,232,71224,1,0,0:0:0:0:
245,232,71317,1,0,0:0:0:0:
245,232,71411,1,0,0:0:0:0:
245,232,71505,1,0,0:0:0:0:
245,232,71599,1,8,0:0:0:0:
245,232,71692,1,8,0:0:0:0:
245,232,71786,1,8,0:0:0:0:
245,232,71880,1,8,0:0:0:0:
245,232,71974,1,0,0:0:0:0:
245,232,72536,1,0,0:0:0:0:
245,232,72630,1,0,0:0:0:0:
245,232,72724,1,8,0:0:0:0:
245,232,72911,1,8,0:0:0:0:
245,232,73099,1,4,0:0:0:0:
245,232,73474,5,8,0:0:0:0:
245,232,73536,1,8,0:0:0:0:
245,232,73599,1,8,0:0:0:0:
245,232,73661,1,0,0:0:0:0:
432,242,73755,1,0,0:0:0:0:
432,242,73849,1,8,0:0:0:0:
432,242,74036,1,0,0:0:0:0:
432,242,74130,1,8,0:0:0:0:
432,242,74224,1,0,0:0:0:0:
432,242,74411,1,0,0:0:0:0:
432,242,74599,1,8,0:0:0:0:
426,241,74661,1,8,0:0:0:0:
426,241,74724,1,8,0:0:0:0:
432,242,74786,1,0,0:0:0:0:
212,177,74880,1,0,0:0:0:0:
426,241,74974,1,8,0:0:0:0:
426,241,75036,1,0,0:0:0:0:
432,242,75099,1,0,0:0:0:0:
426,241,75161,1,8,0:0:0:0:
212,177,75255,1,0,0:0:0:0:
212,177,75349,1,8,0:0:0:0:
212,177,75536,1,0,0:0:0:0:
207,175,75630,1,0,0:0:0:0:
207,175,75724,1,8,0:0:0:0:
207,175,75911,1,0,0:0:0:0:
204,175,76099,1,8,0:0:0:0:
204,175,76161,1,8,0:0:0:0:
204,175,76224,1,8,0:0:0:0:
204,175,76286,1,0,0:0:0:0:
204,175,76380,1,0,0:0:0:0:
204,175,76474,1,8,0:0:0:0:
218,165,76536,1,8,0:0:0:0:
218,165,76599,1,0,0:0:0:0:
218,165,76661,1,0,0:0:0:0:
218,165,76755,1,0,0:0:0:0:
218,165,76849,1,8,0:0:0:0:
197,163,77036,1,0,0:0:0:0:
197,163,77130,1,0,0:0:0:0:
197,163,77224,1,0,0:0:0:0:
197,163,77411,1,0,0:0:0:0:
197,163,77599,5,8,0:0:0:0:
197,163,77661,1,8,0:0:0:0:
197,163,77724,1,8,0:0:0:0:
197,163,77786,1,0,0:0:0:0:
197,163,77880,1,0,0:0:0:0:
197,163,77974,1,8,0:0:0:0:
197,163,78036,1,0,0:0:0:0:
197,163,78099,1,0,0:0:0:0:
197,163,78161,1,8,0:0:0:0:
197,163,78255,1,0,0:0:0:0:
197,163,78349,1,8,0:0:0:0:
197,163,78536,1,8,0:0:0:0:
197,163,78630,1,0,0:0:0:0:
197,163,78692,5,0,0:0:0:0:
197,163,78755,1,0,0:0:0:0:
197,163,78817,1,8,0:0:0:0:
197,163,78911,1,8,0:0:0:0:
197,163,79005,1,0,0:0:0:0:
197,163,79099,1,12,0:0:0:0:
245,232,79474,5,0,0:0:0:0:
245,232,79536,1,0,0:0:0:0:
245,232,79599,1,0,0:0:0:0:
245,232,79661,1,8,0:0:0:0:
432,242,79755,1,0,0:0:0:0:
432,242,79849,1,8,0:0:0:0:
432,242,80036,1,0,0:0:0:0:
432,242,80130,1,8,0:0:0:0:
432,242,80224,1,0,0:0:0:0:
432,242,80411,1,0,0:0:0:0:
432,242,80599,5,8,0:0:0:0:
426,241,80661,1,8,0:0:0:0:
426,241,80724,1,8,0:0:0:0:
432,242,80786,1,0,0:0:0:0:
212,177,80880,1,0,0:0:0:0:
426,241,80974,1,8,0:0:0:0:
426,241,81036,1,0,0:0:0:0:
432,242,81099,1,0,0:0:0:0:
426,241,81161,1,8,0:0:0:0:
212,177,81255,1,0,0:0:0:0:
212,177,81349,1,8,0:0:0:0:
212,177,81536,1,0,0:0:0:0:
207,175,81630,1,0,0:0:0:0:
207,175,81724,1,8,0:0:0:0:
207,175,81911,1,0,0:0:0:0:
204,175,82099,5,0,0:0:0:0:
204,175,82161,1,8,0:0:0:0:
204,175,82224,1,8,0:0:0:0:
204,175,82286,1,0,0:0:0:0:
204,175,82380,1,0,0:0:0:0:
204,175,82474,1,8,0:0:0:0:
218,165,82536,1,8,0:0:0:0:
218,165,82599,1,8,0:0:0:0:
218,165,82661,1,0,0:0:0:0:
218,165,82755,1,0,0:0:0:0:
218,165,82849,1,8,0:0:0:0:
197,163,83036,1,8,0:0:0:0:
197,163,83130,1,8,0:0:0:0:
197,163,83224,1,0,0:0:0:0:
197,163,83411,1,0,0:0:0:0:
197,163,83599,5,0,0:0:0:0:
197,163,83661,1,0,0:0:0:0:
197,163,83724,1,0,0:0:0:0:
197,163,83786,1,8,0:0:0:0:
197,163,83880,1,0,0:0:0:0:
197,163,83974,1,8,0:0:0:0:
209,155,84161,1,8,0:0:0:0:
209,155,84255,1,0,0:0:0:0:
209,155,84349,1,8,0:0:0:0:
209,155,84536,1,0,0:0:0:0:
209,155,84724,1,8,0:0:0:0:
209,155,84817,1,8,0:0:0:0:
209,155,84911,1,0,0:0:0:0:
269,85,85005,1,0,0:0:0:0:
209,155,85099,1,8,0:0:0:0:
209,155,85286,1,8,0:0:0:0:
209,155,85474,1,8,0:0:0:0:
199,160,85536,1,0,0:0:0:0:
209,155,85599,1,0,0:0:0:0:
203,157,85661,1,8,0:0:0:0:
203,157,85708,1,0,0:0:0:0:
203,157,85755,1,0,0:0:0:0:
190,175,85802,1,0,0:0:0:0:
203,157,85849,1,8,0:0:0:0:
207,176,86036,1,8,0:0:0:0:
207,176,86130,1,8,0:0:0:0:
207,176,86224,1,0,0:0:0:0:
207,176,86270,1,0,0:0:0:0:
207,176,86317,1,8,0:0:0:0:
189,175,86364,1,8,0:0:0:0:
207,176,86411,1,0,0:0:0:0:
207,176,86505,1,8,0:0:0:0:
207,176,86599,1,0,0:0:0:0:
332,180,86661,1,0,0:0:0:0:
332,180,86724,1,0,0:0:0:0:
207,176,86786,1,8,0:0:0:0:
207,176,86880,1,8,0:0:0:0:
207,176,86974,1,0,0:0:0:0:
332,180,87036,1,0,0:0:0:0:
207,176,87099,1,8,0:0:0:0:
207,176,87161,1,0,0:0:0:0:
207,176,87208,1,0,0:0:0:0:
207,176,87255,1,8,0:0:0:0:
189,175,87302,1,0,0:0:0:0:
207,176,87349,1,8,0:0:0:0:
207,176,87536,1,8,0:0:0:0:
207,176,87630,1,0,0:0:0:0:
207,176,87724,1,8,0:0:0:0:
207,176,87770,1,8,0:0:0:0:
265,214,87817,1,0,0:0:0:0:
189,172,87864,1,0,0:0:0:0:
265,214,87911,1,8,0:0:0:0:
121,165,88005,1,0,0:0:0:0:
265,214,88099,1,8,0:0:0:0:
214,160,88161,1,8,0:0:0:0:
214,160,88224,1,8,0:0:0:0:
214,161,88286,1,0,0:0:0:0:
209,165,88380,1,8,0:0:0:0:
214,161,88474,1,0,0:0:0:0:
214,161,88536,1,0,0:0:0:0:
214,161,88599,1,0,0:0:0:0:
214,161,88661,1,8,0:0:0:0:
249,159,88708,1,8,0:0:0:0:
249,159,88755,1,0,0:0:0:0:
249,159,88802,1,8,0:0:0:0:
249,159,88849,1,0,0:0:0:0:
209,165,89036,1,8,0:0:0:0:
209,165,89130,1,0,0:0:0:0:
209,165,89224,1,8,0:0:0:0:
209,165,89270,1,8,0:0:0:0:
209,165,89317,1,0,0:0:0:0:
209,165,89364,1,0,0:0:0:0:
209,165,89411,1,8,0:0:0:0:
209,165,89505,1,8,0:0:0:0:
214,161,89599,1,0,0:0:0:0:
214,161,89661,1,0,0:0:0:0:
214,161,89724,1,0,0:0:0:0:
214,161,89786,1,8,0:0:0:0:
209,165,89880,1,0,0:0:0:0:
214,161,89974,1,8,0:0:0:0:
214,161,90036,1,0,0:0:0:0:
214,161,90099,1,0,0:0:0:0:
214,161,90161,1,8,0:0:0:0:
204,149,90208,1,8,0:0:0:0:
209,165,90255,1,0,0:0:0:0:
204,149,90302,1,0,0:0:0:0:
204,149,90349,1,8,0:0:0:0:
204,149,90536,1,8,0:0:0:0:
204,149,90630,1,8,0:0:0:0:
204,149,90724,1,0,0:0:0:0:
204,149,90770,1,0,0:0:0:0:
204,149,90817,1,8,0:0:0:0:
204,149,90864,1,8,0:0:0:0:
204,149,90911,1,0,0:0:0:0:
204,149,91005,1,0,0:0:0:0:
214,161,91099,1,8,0:0:0:0:
301,186,91192,1,0,0:0:0:0:
204,149,91286,1,8,0:0:0:0:
204,149,91380,1,8,0:0:0:0:
214,161,91474,1,0,0:0:0:0:
214,161,91536,1,0,0:0:0:0:
214,161,91599,1,0,0:0:0:0:
214,161,91661,1,8,0:0:0:0:
204,149,91708,1,8,0:0:0:0:
204,149,91755,1,0,0:0:0:0:
204,149,91802,1,0,0:0:0:0:
204,149,91849,1,8,0:0:0:0:
204,149,92036,1,8,0:0:0:0:
204,149,92130,1,0,0:0:0:0:
204,149,92224,1,8,0:0:0:0:
204,149,92270,1,0,0:0:0:0:
204,149,92317,1,8,0:0:0:0:
205,149,92364,1,8,0:0:0:0:
205,149,92411,1,0,0:0:0:0:
228,143,92505,1,0,0:0:0:0:
214,161,92599,1,8,0:0:0:0:
214,161,92661,1,0,0:0:0:0:
214,161,92724,1,0,0:0:0:0:
214,161,92786,1,8,0:0:0:0:
228,143,92880,1,0,0:0:0:0:
214,161,92974,1,8,0:0:0:0:
214,161,93036,1,0,0:0:0:0:
214,161,93099,1,0,0:0:0:0:
214,161,93161,1,8,0:0:0:0:
228,143,93208,1,8,0:0:0:0:
228,143,93255,1,0,0:0:0:0:
228,143,93302,1,0,0:0:0:0:
228,143,93349,1,8,0:0:0:0:
228,143,93536,1,8,0:0:0:0:
228,143,93630,1,8,0:0:0:0:
228,143,93724,1,0,0:0:0:0:
228,143,93770,1,0,0:0:0:0:
228,143,93817,1,8,0:0:0:0:
228,143,93864,1,8,0:0:0:0:
228,143,93911,1,0,0:0:0:0:
228,143,94005,1,0,0:0:0:0:
214,161,94099,1,8,0:0:0:0:
214,161,94161,1,8,0:0:0:0:
214,161,94224,1,0,0:0:0:0:
214,161,94286,1,0,0:0:0:0:
228,143,94380,1,8,0:0:0:0:
216,162,94474,1,0,0:0:0:0:
216,162,94536,1,0,0:0:0:0:
216,162,94599,1,0,0:0:0:0:
216,162,94661,1,8,0:0:0:0:
228,143,94708,1,8,0:0:0:0:
228,143,94755,1,0,0:0:0:0:
228,143,94802,1,0,0:0:0:0:
228,143,94849,1,8,0:0:0:0:
229,143,95036,1,8,0:0:0:0:
229,143,95130,1,0,0:0:0:0:
244,175,95224,1,8,0:0:0:0:
244,175,95270,1,8,0:0:0:0:
244,175,95317,1,0,0:0:0:0:
244,175,95364,1,0,0:0:0:0:
244,175,95411,1,8,0:0:0:0:
244,175,95505,1,0,0:0:0:0:
216,162,95599,1,8,0:0:0:0:
216,162,95661,1,8,0:0:0:0:
216,162,95724,1,0,0:0:0:0:
216,162,95786,1,0,0:0:0:0:
244,175,95880,1,8,0:0:0:0:
216,162,95974,1,0,0:0:0:0:
152,170,96067,1,8,0:0:0:0:
182,193,96114,1,0,0:0:0:0:
160,178,96161,1,8,0:0:0:0:
253,210,96208,1,8,0:0:0:0:
139,216,96255,1,0,0:0:0:0:
253,210,96302,1,0,0:0:0:0:
139,216,96349,1,8,0:0:0:0:
223,206,96395,1,0,0:0:0:0:
139,216,96442,1,8,0:0:0:0:
223,206,96489,1,8,0:0:0:0:
139,216,96536,1,0,0:0:0:0:
223,206,96583,1,0,0:0:0:0:
139,216,96630,1,8,0:0:0:0:
223,206,96677,1,0,0:0:0:0:
139,216,96724,1,8,0:0:0:0:
188,184,96817,1,8,0:0:0:0:
139,216,96911,1,0,0:0:0:0:
139,216,97005,1,0,0:0:0:0:
139,216,97099,1,8,0:0:0:0:
139,216,97192,1,0,0:0:0:0:
139,216,97286,1,8,0:0:0:0:
139,216,97380,1,8,0:0:0:0:
139,216,97474,5,0,0:0:0:0:
200,231,97661,1,0,0:0:0:0:
159,166,98036,1,8,0:0:0:0:
159,166,98224,1,0,0:0:0:0:
164,163,98599,1,0,0:0:0:0:
164,163,98786,1,0,0:0:0:0:
164,163,99161,1,0,0:0:0:0:
164,163,99349,1,8,0:0:0:0:
164,163,99724,1,8,0:0:0:0:
164,163,99911,1,0,0:0:0:0:
164,163,100286,1,0,0:0:0:0:
164,163,100474,1,8,0:0:0:0:
182,158,100661,1,0,0:0:0:0:
182,158,101036,1,0,0:0:0:0:
212,161,101224,1,0,0:0:0:0:
155,157,101599,1,0,0:0:0:0:
155,157,101786,1,8,0:0:0:0:
155,157,102161,1,8,0:0:0:0:
155,157,102349,1,0,0:0:0:0:
155,157,102724,1,0,0:0:0:0:
155,157,102911,1,0,0:0:0:0:
155,157,103099,5,12,0:0:0:0:
155,157,103474,5,8,0:0:0:0:
155,157,103661,1,0,0:0:0:0:
155,157,104036,1,0,0:0:0:0:
155,157,104224,1,0,0:0:0:0:
155,157,104599,1,0,0:0:0:0:
155,157,104786,1,8,0:0:0:0:
155,157,105161,1,8,0:0:0:0:
155,157,105349,1,0,0:0:0:0:
155,157,105724,1,0,0:0:0:0:
155,157,105911,1,0,0:0:0:0:
155,157,106286,1,0,0:0:0:0:
155,157,106474,5,8,0:0:0:0:
155,157,106661,1,8,0:0:0:0:
187,184,106755,1,8,0:0:0:0:
209,161,106849,1,0,0:0:0:0:
240,149,107036,1,0,0:0:0:0:
240,149,107224,1,8,0:0:0:0:
209,152,107411,1,8,0:0:0:0:
187,184,107505,1,0,0:0:0:0:
240,149,107599,1,0,0:0:0:0:
240,149,107786,1,0,0:0:0:0:
240,149,107974,5,8,0:0:0:0:
240,149,108161,1,0,0:0:0:0:
240,149,108255,1,0,0:0:0:0:
240,149,108349,1,8,0:0:0:0:
240,149,108536,1,0,0:0:0:0:
240,149,108724,1,8,0:0:0:0:
240,149,108817,1,8,0:0:0:0:
240,149,108911,1,0,0:0:0:0:
240,149,109005,1,0,0:0:0:0:
240,149,109099,1,8,0:0:0:0:
240,149,109286,1,8,0:0:0:0:
209,155,109474,1,8,0:0:0:0:
199,160,109536,1,8,0:0:0:0:
209,155,109599,1,8,0:0:0:0:
203,157,109661,1,0,0:0:0:0:
203,157,109708,1,0,0:0:0:0:
203,157,109755,1,8,0:0:0:0:
190,175,109802,1,0,0:0:0:0:
203,157,109849,1,8,0:0:0:0:
207,176,110036,1,8,0:0:0:0:
207,176,110130,1,0,0:0:0:0:
207,176,110224,1,8,0:0:0:0:
207,176,110270,1,0,0:0:0:0:
207,176,110317,1,8,0:0:0:0:
189,175,110364,1,8,0:0:0:0:
207,176,110411,1,0,0:0:0:0:
207,176,110505,1,8,0:0:0:0:
207,176,110599,1,0,0:0:0:0:
332,180,110661,1,0,0:0:0:0:
332,180,110724,1,0,0:0:0:0:
207,176,110786,1,8,0:0:0:0:
207,176,110880,1,8,0:0:0:0:
207,176,110974,1,0,0:0:0:0:
332,180,111036,1,0,0:0:0:0:
207,176,111099,1,8,0:0:0:0:
207,176,111161,1,0,0:0:0:0:
207,176,111208,1,0,0:0:0:0:
207,176,111255,1,8,0:0:0:0:
189,175,111302,1,8,0:0:0:0:
207,176,111349,1,0,0:0:0:0:
207,176,111536,1,8,0:0:0:0:
207,176,111630,1,0,0:0:0:0:
207,176,111724,1,8,0:0:0:0:
207,176,111770,1,8,0:0:0:0:
265,214,111817,1,0,0:0:0:0:
189,172,111864,1,0,0:0:0:0:
265,214,111911,1,8,0:0:0:0:
121,165,112005,1,0,0:0:0:0:
265,214,112099,1,8,0:0:0:0:
214,160,112161,1,8,0:0:0:0:
214,160,112224,1,8,0:0:0:0:
214,161,112286,1,0,0:0:0:0:
209,165,112380,1,0,0:0:0:0:
214,161,112474,1,8,0:0:0:0:
214,161,112536,1,0,0:0:0:0:
214,161,112599,1,0,0:0:0:0:
214,161,112661,1,8,0:0:0:0:
249,159,112708,1,8,0:0:0:0:
249,159,112755,1,0,0:0:0:0:
249,159,112802,1,0,0:0:0:0:
249,159,112849,1,8,0:0:0:0:
209,165,113036,1,8,0:0:0:0:
209,165,113130,1,8,0:0:0:0:
209,165,113224,1,0,0:0:0:0:
209,165,113270,1,0,0:0:0:0:
209,165,113317,1,8,0:0:0:0:
209,165,113364,1,8,0:0:0:0:
209,165,113411,1,0,0:0:0:0:
209,165,113505,1,8,0:0:0:0:
214,161,113599,1,0,0:0:0:0:
214,161,113661,1,8,0:0:0:0:
214,161,113724,1,8,0:0:0:0:
214,161,113786,1,0,0:0:0:0:
209,165,113880,1,8,0:0:0:0:
214,161,113974,1,0,0:0:0:0:
214,161,114036,1,0,0:0:0:0:
214,161,114099,1,0,0:0:0:0:
214,161,114161,1,8,0:0:0:0:
204,149,114208,1,8,0:0:0:0:
209,165,114255,1,0,0:0:0:0:
204,149,114302,1,8,0:0:0:0:
204,149,114349,1,0,0:0:0:0:
204,149,114536,1,8,0:0:0:0:
204,149,114630,1,8,0:0:0:0:
204,149,114724,1,0,0:0:0:0:
204,149,114770,1,0,0:0:0:0:
204,149,114817,1,8,0:0:0:0:
204,149,114864,1,8,0:0:0:0:
204,149,114911,1,0,0:0:0:0:
204,149,115005,1,0,0:0:0:0:
214,161,115099,1,8,0:0:0:0:
318,256,115192,1,0,0:0:0:0:
204,149,115286,1,8,0:0:0:0:
204,149,115380,1,8,0:0:0:0:
214,161,115474,1,0,0:0:0:0:
214,161,115536,1,0,0:0:0:0:
214,161,115599,1,0,0:0:0:0:
214,161,115661,1,8,0:0:0:0:
204,149,115708,1,8,0:0:0:0:
204,149,115755,1,0,0:0:0:0:
204,149,115802,1,0,0:0:0:0:
204,149,115849,1,8,0:0:0:0:
204,149,116036,1,8,0:0:0:0:
204,149,116130,1,0,0:0:0:0:
204,149,116224,1,8,0:0:0:0:
204,149,116270,1,0,0:0:0:0:
204,149,116317,1,8,0:0:0:0:
205,149,116364,1,8,0:0:0:0:
205,149,116411,1,0,0:0:0:0:
228,143,116505,1,0,0:0:0:0:
214,161,116599,1,8,0:0:0:0:
214,161,116661,1,8,0:0:0:0:
214,161,116724,1,0,0:0:0:0:
214,161,116786,1,0,0:0:0:0:
228,143,116880,1,8,0:0:0:0:
214,161,116974,1,0,0:0:0:0:
214,161,117036,1,0,0:0:0:0:
214,161,117099,1,0,0:0:0:0:
214,161,117161,1,8,0:0:0:0:
228,143,117208,1,8,0:0:0:0:
228,143,117255,1,0,0:0:0:0:
228,143,117302,1,0,0:0:0:0:
228,143,117349,1,8,0:0:0:0:
228,143,117536,1,8,0:0:0:0:
228,143,117630,1,8,0:0:0:0:
228,143,117724,1,0,0:0:0:0:
228,143,117770,1,0,0:0:0:0:
228,143,117817,1,8,0:0:0:0:
228,143,117864,1,8,0:0:0:0:
228,143,117911,1,0,0:0:0:0:
228,143,118005,1,0,0:0:0:0:
214,161,118099,1,8,0:0:0:0:
214,161,118161,1,8,0:0:0:0:
214,161,118224,1,0,0:0:0:0:
214,161,118286,1,0,0:0:0:0:
228,143,118380,1,8,0:0:0:0:
216,162,118474,5,0,0:0:0:0:
200,169,118599,1,0,0:0:0:0:
200,169,118724,1,8,0:0:0:0:
200,169,118849,1,8,0:0:0:0:
200,169,118974,1,0,0:0:0:0:
200,169,119099,1,0,0:0:0:0:
200,169,119224,1,8,0:0:0:0:
200,169,119349,1,0,0:0:0:0:
200,169,119474,1,8,0:0:0:0:
200,169,119599,1,8,0:0:0:0:
200,169,119724,1,0,0:0:0:0:
200,169,119849,1,0,0:0:0:0:
200,169,119974,1,8,0:0:0:0:
200,169,120161,1,0,0:0:0:0:
200,169,120255,1,0,0:0:0:0:
200,169,120349,1,8,0:0:0:0:
200,169,120536,1,0,0:0:0:0:
200,169,120724,1,8,0:0:0:0:
200,169,120817,1,8,0:0:0:0:
200,169,120911,1,8,0:0:0:0:
200,169,121005,1,8,0:0:0:0:
200,169,121099,1,0,0:0:0:0:
200,169,121192,1,0,0:0:0:0:
200,169,121286,1,0,0:0:0:0:
200,169,121380,1,0,0:0:0:0:
200,169,121474,1,8,0:0:0:0:
300,196,122786,1,8,0:0:0:0:
302,197,124474,1,0,0:0:0:0:
302,197,125786,1,0,0:0:0:0:
268,173,126349,1,8,0:0:0:0:
268,173,126536,1,0,0:0:0:0:
268,173,126724,1,8,0:0:0:0:
268,173,126911,1,8,0:0:0:0:
268,173,127099,1,0,0:0:0:0:
268,173,127286,1,8,0:0:0:0:
302,197,127474,1,0,0:0:0:0:
302,197,128786,1,8,0:0:0:0:
302,197,129536,1,8,0:0:0:0:
302,197,130474,1,0,0:0:0:0:
246,209,131974,1,8,0:0:0:0:
347,239,132349,1,8,0:0:0:0:
347,239,132536,1,0,0:0:0:0:
246,209,132724,1,8,0:0:0:0:
246,209,132817,1,8,0:0:0:0:
246,209,132911,1,8,0:0:0:0:
397,256,133099,1,8,0:0:0:0:
347,239,133474,1,12,0:0:0:0:
347,239,133849,1,0,0:0:0:0:
347,239,134224,1,0,0:0:0:0:
347,239,134505,1,8,0:0:0:0:
347,239,134786,1,0,0:0:0:0:
346,239,134974,1,8,0:0:0:0:
347,239,135349,1,0,0:0:0:0:
347,239,135724,1,8,0:0:0:0:
347,239,136005,1,8,0:0:0:0:
347,239,136286,1,0,0:0:0:0:
347,239,136474,1,8,0:0:0:0:
347,239,136849,1,8,0:0:0:0:
347,239,137224,1,0,0:0:0:0:
347,239,137505,1,8,0:0:0:0:
347,239,137786,1,0,0:0:0:0:
347,239,137974,1,8,0:0:0:0:
347,239,138161,1,8,0:0:0:0:
347,239,138255,1,8,0:0:0:0:
347,239,138349,1,8,0:0:0:0:
347,239,138536,1,8,0:0:0:0:
347,239,138630,1,8,0:0:0:0:
347,239,138724,1,0,0:0:0:0:
347,239,138911,1,0,0:0:0:0:
347,239,139099,1,8,0:0:0:0:
347,239,139474,5,8,0:0:0:0:
347,239,139849,1,8,0:0:0:0:
347,239,140224,1,8,0:0:0:0:
347,239,140505,1,0,0:0:0:0:
347,239,140599,1,8,0:0:0:0:
347,239,140786,1,0,0:0:0:0:
347,239,140974,1,12,0:0:0:0:
197,174,141349,1,8,0:0:0:0:
197,174,141724,1,8,0:0:0:0:
197,174,142005,1,0,0:0:0:0:
197,174,142099,1,8,0:0:0:0:
197,174,142286,1,0,0:0:0:0:
197,174,142474,1,8,0:0:0:0:
197,174,142599,1,8,0:0:0:0:
197,174,142724,1,0,0:0:0:0:
205,183,142849,1,8,0:0:0:0:
205,183,142974,1,0,0:0:0:0:
203,184,143099,1,0,0:0:0:0:
197,174,143224,1,8,0:0:0:0:
197,174,143317,1,8,0:0:0:0:
197,174,143411,1,8,0:0:0:0:
197,174,143505,1,8,0:0:0:0:
197,174,143599,1,0,0:0:0:0:
197,174,143692,1,0,0:0:0:0:
197,174,143786,1,0,0:0:0:0:
197,174,143880,1,0,0:0:0:0:
197,174,143974,1,12,0:0:0:0:
197,174,144349,1,8,0:0:0:0:
197,174,144536,1,0,0:0:0:0:
197,174,144630,1,0,0:0:0:0:
197,174,144724,1,8,0:0:0:0:
197,174,144911,1,8,0:0:0:0:
197,174,145099,1,0,0:0:0:0:
197,174,145286,1,0,0:0:0:0:
197,174,145474,1,12,0:0:0:0:
197,174,146224,1,12,0:0:0:0:
197,174,146505,1,4,0:0:0:0:
197,174,146786,1,4,0:0:0:0:
197,174,146974,1,12,0:0:0:0:
197,174,147724,1,4,0:0:0:0:
197,174,148005,1,12,0:0:0:0:
197,174,148286,1,4,0:0:0:0:
197,174,148474,1,12,0:0:0:0:
197,174,149224,1,12,0:0:0:0:
197,174,149505,1,12,0:0:0:0:
197,174,149786,1,4,0:0:0:0:
197,174,149974,1,12,0:0:0:0:
197,174,150724,1,12,0:0:0:0:
197,174,151005,1,4,0:0:0:0:
197,174,151286,1,4,0:0:0:0:
197,174,151474,5,12,0:0:0:0:
197,174,151661,1,0,0:0:0:0:
197,174,151849,1,0,0:0:0:0:
197,174,152036,1,0,0:0:0:0:
197,174,152224,1,8,0:0:0:0:
197,174,152411,1,0,0:0:0:0:
262,145,152505,1,0,0:0:0:0:
197,174,152599,1,0,0:0:0:0:
197,174,152786,1,0,0:0:0:0:
197,174,152974,1,8,0:0:0:0:
197,174,153161,1,0,0:0:0:0:
197,174,153349,1,0,0:0:0:0:
197,174,153536,1,0,0:0:0:0:
197,174,153724,1,8,0:0:0:0:
197,174,153911,1,0,0:0:0:0:
400,232,154005,1,0,0:0:0:0:
197,174,154099,1,0,0:0:0:0:
197,174,154286,1,0,0:0:0:0:
197,174,154474,1,8,0:0:0:0:
197,174,154567,1,8,0:0:0:0:
197,174,154661,1,0,0:0:0:0:
197,174,154755,1,0,0:0:0:0:
197,174,154849,1,8,0:0:0:0:
197,174,154942,1,0,0:0:0:0:
197,174,155036,1,8,0:0:0:0:
197,174,155130,1,8,0:0:0:0:
197,174,155224,1,0,0:0:0:0:
197,174,155317,1,0,0:0:0:0:
197,174,155411,1,8,0:0:0:0:
197,174,155505,1,8,0:0:0:0:
197,174,155599,1,8,0:0:0:0:
197,174,155692,1,0,0:0:0:0:
197,174,155786,1,0,0:0:0:0:
197,174,155880,1,0,0:0:0:0:
197,174,155974,1,8,0:0:0:0:
197,174,156161,1,0,0:0:0:0:
197,174,156255,1,0,0:0:0:0:
197,174,156349,1,0,0:0:0:0:
197,174,156536,1,0,0:0:0:0:
197,174,156724,1,8,0:0:0:0:
197,174,156911,1,0,0:0:0:0:
197,174,157005,1,0,0:0:0:0:
197,174,157099,1,8,0:0:0:0:
197,174,157286,1,0,0:0:0:0:
197,174,157474,1,12,0:0:0:0:
273,204,157661,1,0,0:0:0:0:
273,204,157755,1,8,0:0:0:0:
273,204,157849,1,0,0:0:0:0:
273,204,158036,1,0,0:0:0:0:
273,204,158224,1,8,0:0:0:0:
273,204,158317,1,0,0:0:0:0:
273,204,158411,1,8,0:0:0:0:
273,204,158599,1,0,0:0:0:0:
273,204,158692,1,8,0:0:0:0:
273,204,158786,1,0,0:0:0:0:
273,204,158880,1,0,0:0:0:0:
273,204,158974,1,8,0:0:0:0:
273,204,159161,1,8,0:0:0:0:
273,204,159255,1,8,0:0:0:0:
273,204,159349,1,0,0:0:0:0:
273,204,159536,1,8,0:0:0:0:
273,204,159724,1,8,0:0:0:0:
273,204,159911,1,0,0:0:0:0:
190,132,160005,1,0,0:0:0:0:
273,204,160099,1,8,0:0:0:0:
273,204,160286,1,0,0:0:0:0:
273,204,160474,1,8,0:0:0:0:
273,204,160661,1,8,0:0:0:0:
273,204,160755,1,0,0:0:0:0:
273,204,160849,1,8,0:0:0:0:
273,204,161036,1,0,0:0:0:0:
273,204,161224,1,8,0:0:0:0:
273,204,161317,1,0,0:0:0:0:
273,204,161411,1,8,0:0:0:0:
270,183,161505,1,8,0:0:0:0:
270,183,161599,1,0,0:0:0:0:
273,204,161692,1,0,0:0:0:0:
270,183,161786,1,8,0:0:0:0:
268,183,161880,1,0,0:0:0:0:
268,183,161974,1,8,0:0:0:0:
268,183,162161,1,0,0:0:0:0:
268,183,162224,1,0,0:0:0:0:
290,184,162286,1,0,0:0:0:0:
268,183,162349,1,8,0:0:0:0:
259,159,162536,1,8,0:0:0:0:
259,159,162724,1,8,0:0:0:0:
259,159,162911,1,0,0:0:0:0:
190,132,163005,1,8,0:0:0:0:
259,159,163099,1,8,0:0:0:0:
259,159,163286,1,0,0:0:0:0:
259,159,163474,1,8,0:0:0:0:
239,182,163661,1,0,0:0:0:0:
239,182,163755,1,0,0:0:0:0:
239,182,163849,1,8,0:0:0:0:
239,182,164036,1,8,0:0:0:0:
239,182,164224,1,0,0:0:0:0:
239,182,164317,1,0,0:0:0:0:
239,182,164411,1,8,0:0:0:0:
239,182,164505,1,0,0:0:0:0:
239,182,164599,1,8,0:0:0:0:
339,239,164692,1,8,0:0:0:0:
339,239,164786,1,0,0:0:0:0:
339,239,164880,1,0,0:0:0:0:
339,239,164974,1,8,0:0:0:0:
337,256,165161,1,0,0:0:0:0:
337,256,165255,1,8,0:0:0:0:
337,256,165349,1,0,0:0:0:0:
337,256,165536,1,8,0:0:0:0:
337,256,165724,1,8,0:0:0:0:
337,256,165817,1,8,0:0:0:0:
337,256,165911,1,0,0:0:0:0:
337,256,166005,1,0,0:0:0:0:
337,256,166099,1,8,0:0:0:0:
337,256,166286,1,0,0:0:0:0:
337,256,166474,5,8,0:0:0:0:
337,256,166599,1,8,0:0:0:0:
337,256,166724,1,0,0:0:0:0:
337,256,166849,1,8,0:0:0:0:
337,256,166974,1,0,0:0:0:0:
337,256,167099,1,0,0:0:0:0:
337,256,167224,1,8,0:0:0:0:
337,256,167349,1,8,0:0:0:0:
337,256,167474,1,0,0:0:0:0:
337,256,167599,1,8,0:0:0:0:
337,256,167692,1,0,0:0:0:0:
239,168,167786,1,0,0:0:0:0:
303,199,167880,1,0,0:0:0:0:
257,205,167974,1,12,0:0:0:0:
303,199,168161,1,0,0:0:0:0:
303,199,168255,1,0,0:0:0:0:
303,199,168349,1,8,0:0:0:0:
303,199,168536,1,8,0:0:0:0:
234,151,168630,1,8,0:0:0:0:
303,199,168724,1,0,0:0:0:0:
234,151,168770,1,0,0:0:0:0:
303,199,168817,1,8,0:0:0:0:
303,199,168911,1,0,0:0:0:0:
234,151,168958,1,0,0:0:0:0:
234,151,169005,1,8,0:0:0:0:
303,199,169099,1,8,0:0:0:0:
278,174,169145,1,8,0:0:0:0:
278,174,169192,1,0,0:0:0:0:
303,199,169286,1,8,0:0:0:0:
278,174,169333,1,8,0:0:0:0:
278,174,169380,1,0,0:0:0:0:
303,199,169474,1,8,0:0:0:0:
303,199,169849,1,8,0:0:0:0:
303,199,170224,1,8,0:0:0:0:
303,199,170505,1,0,0:0:0:0:
303,199,170599,1,8,0:0:0:0:
303,199,170786,1,0,0:0:0:0:
303,199,170974,1,8,0:0:0:0:
303,199,171349,1,8,0:0:0:0:
303,199,171724,1,8,0:0:0:0:
303,199,171911,1,0,0:0:0:0:
303,199,172005,1,8,0:0:0:0:
303,199,172099,1,0,0:0:0:0:
303,199,172286,1,0,0:0:0:0:
303,199,172474,1,8,0:0:0:0:
303,199,172849,1,8,0:0:0:0:
303,199,173224,1,8,0:0:0:0:
303,199,173505,1,0,0:0:0:0:
303,199,173599,1,8,0:0:0:0:
303,199,173786,1,0,0:0:0:0:
303,199,173974,1,8,0:0:0:0:
303,199,174349,1,8,0:0:0:0:
303,199,174724,1,8,0:0:0:0:
303,199,174911,1,0,0:0:0:0:
303,199,175005,1,8,0:0:0:0:
303,199,175099,1,0,0:0:0:0:
303,199,175286,1,0,0:0:0:0:
303,199,175474,5,8,0:0:0:0:
303,199,175849,1,8,0:0:0:0:
303,199,176224,1,8,0:0:0:0:
303,199,176505,1,0,0:0:0:0:
303,199,176599,1,8,0:0:0:0:
303,199,176786,1,0,0:0:0:0:
303,199,176974,1,8,0:0:0:0:
303,199,177349,1,8,0:0:0:0:
303,199,177724,1,8,0:0:0:0:
303,199,178005,1,0,0:0:0:0:
303,199,178099,1,8,0:0:0:0:
303,199,178286,1,0,0:0:0:0:
303,199,178474,1,8,0:0:0:0:
289,159,178599,1,8,0:0:0:0:
289,159,178724,1,0,0:0:0:0:
163,178,178849,1,0,0:0:0:0:
289,159,178974,1,8,0:0:0:0:
289,159,179099,1,0,0:0:0:0:
197,182,179224,1,8,0:0:0:0:
289,159,179349,1,8,0:0:0:0:
176,181,179474,1,0,0:0:0:0:
289,159,179599,1,8,0:0:0:0:
289,159,179692,1,0,0:0:0:0:
289,159,179786,1,0,0:0:0:0:
289,159,179880,1,0,0:0:0:0:
289,159,179974,1,12,0:0:0:0:
289,159,180161,1,0,0:0:0:0:
289,159,180255,1,0,0:0:0:0:
289,159,180349,1,8,0:0:0:0:
279,138,180536,1,0,0:0:0:0:
211,180,180724,1,8,0:0:0:0:
211,180,180911,1,8,0:0:0:0:
211,180,181099,1,0,0:0:0:0:
211,180,181286,1,0,0:0:0:0:
