osu file format v14

[General]
AudioFilename: audio.mp3
AudioLeadIn: 0
PreviewTime: 169292
Countdown: 0
SampleSet: Normal
StackLeniency: 0.7
Mode: 1
LetterboxInBreaks: 0
WidescreenStoryboard: 1

[Editor]
DistanceSpacing: 1.8
BeatDivisor: 4
GridSize: 32
TimelineZoom: 2.6

[Metadata]
Title:Black sour Ruby
TitleUnicode:Black sour Ruby
Artist:EmoCosine
ArtistUnicode:EmoCosine
Creator:ler1211
Version:Muzukashii
Source:
Tags:emoco. fa featured artist electronic instrumental My Future, Your Memory happy hardcore
BeatmapID:3506666
BeatmapSetID:1715813

[Difficulty]
HPDrainRate:6
CircleSize:5
OverallDifficulty:5
ApproachRate:5
SliderMultiplier:1.4
SliderTickRate:1

[Events]
//Background and Video events
0,0,"remilia.jpg",0,0
//Break Periods
//Storyboard Layer 0 (Background)
//Storyboard Layer 1 (Fail)
//Storyboard Layer 2 (Pass)
//Storyboard Layer 3 (Foreground)
//Storyboard Layer 4 (Overlay)
//Storyboard Sound Samples

[TimingPoints]
4721,342.857142857143,4,1,0,85,1,0
4721,-111.111111111111,4,1,0,85,0,0
14318,-111.111111111111,4,1,0,85,0,0
14404,-110.736277971741,4,1,0,85,0,0
14489,-110.362709331311,4,1,0,85,0,0
14575,-109.990400924039,4,1,0,85,0,0
14661,-109.619348498528,4,1,0,85,0,0
14747,-109.249547817727,4,1,0,85,0,0
14832,-108.880994658877,4,1,0,85,0,0
14918,-108.513684813465,4,1,0,85,0,0
15004,-108.147614087175,4,1,0,85,0,0
15089,-107.782778299842,4,1,0,85,0,0
15175,-107.4191732854,4,1,0,85,0,0
15261,-107.056794891839,4,1,0,85,0,0
15347,-106.695638981157,4,1,0,85,0,0
15432,-106.335701429309,4,1,0,85,0,0
15518,-105.976978126164,4,1,0,85,0,0
15604,-105.619464975455,4,1,0,85,0,0
15689,-105.263157894737,4,1,0,85,0,0
25289,-105.263157894737,4,1,0,85,0,0
25375,-104.926242346296,4,1,0,85,0,0
25460,-104.590405162679,4,1,0,85,0,0
25546,-104.255642892368,4,1,0,85,0,0
25632,-103.921952094888,4,1,0,85,0,0
25718,-103.589329340779,4,1,0,85,0,0
25803,-103.257771211558,4,1,0,85,0,0
25889,-102.927274299682,4,1,0,85,0,0
25975,-102.597835208515,4,1,0,85,0,0
26060,-102.269450552293,4,1,0,85,0,0
26146,-101.942116956088,4,1,0,85,0,0
26232,-101.615831055775,4,1,0,85,0,0
26318,-101.290589497996,4,1,0,85,0,0
26403,-100.966388940126,4,1,0,85,0,0
26489,-100.643226050239,4,1,0,85,0,0
26575,-100.321097507074,4,1,0,85,0,0
26660,-100,4,1,0,85,0,0
43118,-100,4,1,0,85,0,0
43204,-99.7155279582202,4,1,0,85,0,0
43289,-99.431865159866,4,1,0,85,0,0
43375,-99.149009302866,4,1,0,85,0,0
43461,-98.8669580916978,4,1,0,85,0,0
43547,-98.5857092373688,4,1,0,85,0,0
43632,-98.3052604573982,4,1,0,85,0,0
43718,-98.0256094757981,4,1,0,85,0,0
43804,-97.7467540230552,4,1,0,85,0,0
43889,-97.4686918361124,4,1,0,85,0,0
43975,-97.1914206583502,4,1,0,85,0,0
44061,-96.9149382395686,4,1,0,85,0,0
44147,-96.639242335969,4,1,0,85,0,0
44232,-96.3643307101353,4,1,0,85,0,0
44318,-96.0902011310168,4,1,0,85,0,0
44404,-95.8168513739091,4,1,0,85,0,0
44489,-95.5442792204367,4,1,0,85,0,0
44575,-95.2724824585346,4,1,0,85,0,0
44661,-95.0014588824305,4,1,0,85,0,0
44747,-94.7312062926271,4,1,0,85,0,0
44832,-94.4617224958838,4,1,0,85,0,0
44918,-94.1930053051995,4,1,0,85,0,0
45004,-93.9250525397941,4,1,0,85,0,0
45089,-93.6578620250914,4,1,0,85,0,0
45175,-93.3914315927013,4,1,0,85,0,0
45261,-93.1257590804022,4,1,0,85,0,0
45347,-92.8608423321233,4,1,0,85,0,0
45432,-92.5966791979272,4,1,0,85,0,0
45518,-92.3332675339926,4,1,0,85,0,0
45604,-92.0706052025967,4,1,0,85,0,0
45689,-91.8086900720979,4,1,0,85,0,0
45775,-91.5475200169186,4,1,0,85,0,0
45861,-91.2870929175277,4,1,0,85,0,0
45947,-91.0274066604238,4,1,0,85,0,0
46032,-90.7684591381177,4,1,0,85,0,0
46118,-90.5102482491155,4,1,0,85,0,0
46204,-90.2527718979013,4,1,0,85,0,0
46289,-89.9960279949205,4,1,0,85,0,0
46375,-89.7400144565627,4,1,0,85,0,0
46461,-89.4847292051447,4,1,0,85,0,0
46547,-89.2301701688937,4,1,0,85,0,0
46632,-88.9763352819307,4,1,0,85,0,0
46718,-88.7232224842534,4,1,0,85,0,0
46804,-88.4708297217196,4,1,0,85,0,0
46889,-88.2191549460307,4,1,0,85,0,0
46975,-87.9681961147149,4,1,0,85,0,0
47061,-87.7179511911106,4,1,0,85,0,0
47147,-87.4684181443498,4,1,0,85,0,0
47232,-87.2195949493422,4,1,0,85,0,0
47318,-86.9714795867577,4,1,0,85,0,0
47404,-86.7240700430112,4,1,0,85,0,0
47489,-86.4773643102453,4,1,0,85,0,0
47575,-86.2313603863146,4,1,0,85,0,0
47661,-85.9860562747692,4,1,0,85,0,0
47747,-85.7414499848385,4,1,0,85,0,0
47832,-85.4975395314151,4,1,0,85,0,0
47918,-85.2543229350386,4,1,0,85,0,0
48004,-85.0117982218798,4,1,0,85,0,0
48089,-84.7699634237243,4,1,0,85,0,0
48175,-84.5288165779569,4,1,0,85,0,0
48261,-84.2883557275453,4,1,0,85,0,0
48606,-90.9090909090909,4,1,0,85,0,1
59578,-90.9090909090909,4,1,0,85,0,0
60263,-90.9090909090909,4,1,0,85,0,1
70549,-83.3333333333333,4,1,0,85,0,0
70721,-100,4,1,0,85,0,0
71835,-83.3333333333333,4,1,0,85,0,0
72007,-100,4,1,0,85,0,0
73206,-83.3333333333333,4,1,0,85,0,0
73378,-100,4,1,0,85,0,0
74578,-83.3333333333333,4,1,0,85,0,0
74750,-100,4,1,0,85,0,0
76032,-100,4,1,0,85,0,0
76118,-99.7155279582202,4,1,0,85,0,0
76203,-99.431865159866,4,1,0,85,0,0
76289,-99.149009302866,4,1,0,85,0,0
76375,-98.8669580916978,4,1,0,85,0,0
76461,-98.5857092373688,4,1,0,85,0,0
76546,-98.3052604573982,4,1,0,85,0,0
76632,-98.0256094757981,4,1,0,85,0,0
76718,-97.7467540230552,4,1,0,85,0,0
76803,-97.4686918361124,4,1,0,85,0,0
76889,-97.1914206583502,4,1,0,85,0,0
76975,-96.9149382395686,4,1,0,85,0,0
77061,-96.639242335969,4,1,0,85,0,0
77146,-96.3643307101353,4,1,0,85,0,0
77232,-96.0902011310168,4,1,0,85,0,0
77318,-95.8168513739091,4,1,0,85,0,0
77403,-95.5442792204367,4,1,0,85,0,0
77489,-95.2724824585346,4,1,0,85,0,0
77575,-95.0014588824305,4,1,0,85,0,0
77661,-94.7312062926271,4,1,0,85,0,0
77746,-94.4617224958838,4,1,0,85,0,0
77832,-94.1930053051995,4,1,0,85,0,0
77918,-93.9250525397941,4,1,0,85,0,0
78003,-93.6578620250914,4,1,0,85,0,0
78089,-93.3914315927013,4,1,0,85,0,0
78175,-93.1257590804022,4,1,0,85,0,0
78261,-92.8608423321233,4,1,0,85,0,0
78346,-92.5966791979272,4,1,0,85,0,0
78432,-92.3332675339926,4,1,0,85,0,0
78518,-92.0706052025967,4,1,0,85,0,0
78603,-91.8086900720979,4,1,0,85,0,0
78689,-91.5475200169186,4,1,0,85,0,0
78775,-91.2870929175277,4,1,0,85,0,0
78861,-91.0274066604238,4,1,0,85,0,0
78946,-90.7684591381177,4,1,0,85,0,0
79032,-90.5102482491155,4,1,0,85,0,0
79118,-90.2527718979013,4,1,0,85,0,0
79203,-89.9960279949205,4,1,0,85,0,0
79289,-89.7400144565627,4,1,0,85,0,0
79375,-89.4847292051447,4,1,0,85,0,0
79461,-89.2301701688937,4,1,0,85,0,0
79546,-88.9763352819307,4,1,0,85,0,0
79632,-88.7232224842534,4,1,0,85,0,0
79718,-88.4708297217196,4,1,0,85,0,0
79803,-88.2191549460307,4,1,0,85,0,0
79889,-87.9681961147149,4,1,0,85,0,0
79975,-87.7179511911106,4,1,0,85,0,0
80061,-87.4684181443498,4,1,0,85,0,0
80146,-87.2195949493422,4,1,0,85,0,0
80232,-86.9714795867577,4,1,0,85,0,0
80318,-86.7240700430112,4,1,0,85,0,0
80403,-86.4773643102453,4,1,0,85,0,0
80489,-86.2313603863146,4,1,0,85,0,0
80575,-85.9860562747692,4,1,0,85,0,0
80661,-85.7414499848385,4,1,0,85,0,0
80746,-85.4975395314151,4,1,0,85,0,0
80832,-85.2543229350386,4,1,0,85,0,0
80918,-85.0117982218798,4,1,0,85,0,0
81003,-84.7699634237243,4,1,0,85,0,0
81089,-84.5288165779569,4,1,0,85,0,0
81175,-84.2883557275453,4,1,0,85,0,0
81261,-84.0485789210245,4,1,0,85,0,0
81346,-83.809484212481,4,1,0,85,0,0
81432,-83.5710696615367,4,1,0,85,0,0
81521,-83.3333333333334,4,1,0,85,0,1
81863,-90.9090909090909,4,1,0,85,0,0
84263,-90.9090909090909,4,1,0,85,0,1
84606,-90.9090909090909,4,1,0,85,0,0
87006,-90.9090909090909,4,1,0,85,0,1
87349,-90.9090909090909,4,1,0,85,0,0
89749,-90.9090909090909,4,1,0,85,0,1
89832,-90.4160499308417,4,1,0,85,0,1
89917,-89.9256829360612,4,1,0,85,0,1
90003,-89.4379754225314,4,1,0,85,0,1
90092,-88.952912966687,4,1,0,85,0,0
90175,-88.4704812231877,4,1,0,85,0,0
90260,-87.9906659244947,4,1,0,85,0,0
90346,-87.5134528804484,4,1,0,85,0,0
90432,-87.0388279778489,4,1,0,85,0,0
90517,-86.5667771800384,4,1,0,85,0,0
90603,-86.0972865264865,4,1,0,85,0,0
90689,-85.6303421323767,4,1,0,85,0,0
90775,-85.1659301881964,4,1,0,85,0,0
90860,-84.704036959328,4,1,0,85,0,0
90946,-84.2446487856431,4,1,0,85,0,0
91032,-83.7877520810983,4,1,0,85,0,0
91117,-83.3333333333333,4,1,0,85,0,0
92492,-83.3333333333333,4,1,0,85,0,1
92835,-90.9090909090909,4,1,0,85,0,0
95235,-90.9090909090909,4,1,0,85,0,1
95578,-90.9090909090909,4,1,0,85,0,0
97978,-90.9090909090909,4,1,0,85,0,1
98321,-90.9090909090909,4,1,0,85,0,0
100718,-90.9090909090909,4,1,0,85,0,0
100721,-90.9090909090909,4,1,0,85,0,1
100732,-90.8679016743018,4,1,0,85,0,1
100747,-90.8267311015964,4,1,0,85,0,1
100761,-90.7855791825192,4,1,0,85,0,1
100775,-90.7444459086186,4,1,0,85,0,1
100789,-90.7033312714469,4,1,0,85,0,1
100804,-90.6622352625601,4,1,0,85,0,1
100818,-90.621157873518,4,1,0,85,0,1
100832,-90.5800990958843,4,1,0,85,0,1
100847,-90.5390589212266,4,1,0,85,0,1
100861,-90.4980373411162,4,1,0,85,0,1
100875,-90.4570343471282,4,1,0,85,0,1
100889,-90.4160499308417,4,1,0,85,0,1
100904,-90.3750840838393,4,1,0,85,0,1
100918,-90.3341367977078,4,1,0,85,0,1
100932,-90.2932080640374,4,1,0,85,0,1
100947,-90.2522978744225,4,1,0,85,0,1
100961,-90.211406220461,4,1,0,85,0,1
100975,-90.1705330937548,4,1,0,85,0,1
100989,-90.1296784859096,4,1,0,85,0,1
101004,-90.0888423885347,4,1,0,85,0,1
101018,-90.0480247932435,4,1,0,85,0,1
101032,-90.0072256916529,4,1,0,85,0,1
101047,-89.9664450753839,4,1,0,85,0,1
101061,-89.9256829360611,4,1,0,85,0,1
101063,-89.9256829360611,4,1,0,85,0,0
101075,-89.8849392653128,4,1,0,85,0,0
101089,-89.8442140547713,4,1,0,85,0,0
101104,-89.8035072960728,4,1,0,85,0,0
101118,-89.7628189808568,4,1,0,85,0,0
101132,-89.7221491007671,4,1,0,85,0,0
101147,-89.6814976474511,4,1,0,85,0,0
101161,-89.6408646125598,4,1,0,85,0,0
101175,-89.6002499877483,4,1,0,85,0,0
101189,-89.5596537646753,4,1,0,85,0,0
101204,-89.5190759350033,4,1,0,85,0,0
101218,-89.4785164903986,4,1,0,85,0,0
101232,-89.4379754225313,4,1,0,85,0,0
101247,-89.3974527230751,4,1,0,85,0,0
101261,-89.3569483837078,4,1,0,85,0,0
101275,-89.3164623961106,4,1,0,85,0,0
101289,-89.2759947519688,4,1,0,85,0,0
101304,-89.2355454429712,4,1,0,85,0,0
101318,-89.1951144608106,4,1,0,85,0,0
101332,-89.1547017971833,4,1,0,85,0,0
101347,-89.1143074437897,4,1,0,85,0,0
101361,-89.0739313923336,4,1,0,85,0,0
101375,-89.0335736345228,4,1,0,85,0,0
101389,-88.9932341620688,4,1,0,85,0,0
101404,-88.9529129666868,4,1,0,85,0,0
101418,-88.9126100400958,4,1,0,85,0,0
101432,-88.8723253740186,4,1,0,85,0,0
101447,-88.8320589601817,4,1,0,85,0,0
101461,-88.7918107903153,4,1,0,85,0,0
101475,-88.7515808561534,4,1,0,85,0,0
101489,-88.7113691494337,4,1,0,85,0,0
101504,-88.6711756618977,4,1,0,85,0,0
101518,-88.6310003852907,4,1,0,85,0,0
101532,-88.5908433113616,4,1,0,85,0,0
101547,-88.5507044318631,4,1,0,85,0,0
101561,-88.5105837385517,4,1,0,85,0,0
101575,-88.4704812231875,4,1,0,85,0,0
101589,-88.4303968775344,4,1,0,85,0,0
101604,-88.3903306933601,4,1,0,85,0,0
101618,-88.3502826624359,4,1,0,85,0,0
101632,-88.310252776537,4,1,0,85,0,0
101647,-88.2702410274421,4,1,0,85,0,0
101661,-88.2302474069338,4,1,0,85,0,0
101675,-88.1902719067984,4,1,0,85,0,0
101689,-88.1503145188259,4,1,0,85,0,0
101704,-88.1103752348099,4,1,0,85,0,0
101718,-88.070454046548,4,1,0,85,0,0
101732,-88.0305509458412,4,1,0,85,0,0
101747,-87.9906659244944,4,1,0,85,0,0
101761,-87.9507989743163,4,1,0,85,0,0
101775,-87.910950087119,4,1,0,85,0,0
101789,-87.8711192547186,4,1,0,85,0,0
101804,-87.8313064689348,4,1,0,85,0,0
101818,-87.791511721591,4,1,0,85,0,0
101832,-87.7517350045143,4,1,0,85,0,0
101847,-87.7119763095355,4,1,0,85,0,0
101861,-87.6722356284891,4,1,0,85,0,0
101875,-87.6325129532135,4,1,0,85,0,0
101889,-87.5928082755504,4,1,0,85,0,0
101904,-87.5531215873455,4,1,0,85,0,0
101918,-87.5134528804481,4,1,0,85,0,0
101932,-87.4738021467112,4,1,0,85,0,0
101947,-87.4341693779915,4,1,0,85,0,0
101961,-87.3945545661494,4,1,0,85,0,0
101975,-87.3549577030489,4,1,0,85,0,0
101989,-87.3153787805579,4,1,0,85,0,0
102004,-87.2758177905477,4,1,0,85,0,0
102018,-87.2362747248934,4,1,0,85,0,0
102032,-87.1967495754739,4,1,0,85,0,0
102047,-87.1572423341717,4,1,0,85,0,0
102061,-87.1177529928729,4,1,0,85,0,0
102075,-87.0782815434673,4,1,0,85,0,0
102089,-87.0388279778485,4,1,0,85,0,0
102104,-86.9993922879137,4,1,0,85,0,0
102118,-86.9599744655637,4,1,0,85,0,0
102132,-86.920574502703,4,1,0,85,0,0
102147,-86.8811923912398,4,1,0,85,0,0
102161,-86.841828123086,4,1,0,85,0,0
102175,-86.8024816901572,4,1,0,85,0,0
102189,-86.7631530843724,4,1,0,85,0,0
102204,-86.7238422976546,4,1,0,85,0,0
102218,-86.6845493219303,4,1,0,85,0,0
102232,-86.6452741491296,4,1,0,85,0,0
102247,-86.6060167711864,4,1,0,85,0,0
102261,-86.5667771800381,4,1,0,85,0,0
102275,-86.5275553676258,4,1,0,85,0,0
102289,-86.4883513258944,4,1,0,85,0,0
102304,-86.4491650467922,4,1,0,85,0,0
102318,-86.4099965222715,4,1,0,85,0,0
102332,-86.3708457442877,4,1,0,85,0,0
102347,-86.3317127048005,4,1,0,85,0,0
102361,-86.2925973957727,4,1,0,85,0,0
102375,-86.253499809171,4,1,0,85,0,0
102389,-86.2144199369658,4,1,0,85,0,0
102404,-86.1753577711309,4,1,0,85,0,0
102418,-86.1363133036439,4,1,0,85,0,0
102432,-86.0972865264861,4,1,0,85,0,0
102447,-86.0582774316422,4,1,0,85,0,0
102461,-86.0192860111007,4,1,0,85,0,0
102475,-85.9803122568538,4,1,0,85,0,0
102489,-85.9413561608971,4,1,0,85,0,0
102504,-85.90241771523,4,1,0,85,0,0
102518,-85.8634969118555,4,1,0,85,0,0
102532,-85.8245937427803,4,1,0,85,0,0
102547,-85.7857082000144,4,1,0,85,0,0
102561,-85.7468402755718,4,1,0,85,0,0
102575,-85.7079899614699,4,1,0,85,0,0
102589,-85.6691572497298,4,1,0,85,0,0
102604,-85.6303421323762,4,1,0,85,0,0
102618,-85.5915446014374,4,1,0,85,0,0
102632,-85.5527646489454,4,1,0,85,0,0
102647,-85.5140022669355,4,1,0,85,0,0
102661,-85.4752574474471,4,1,0,85,0,0
102675,-85.4365301825228,4,1,0,85,0,0
102689,-85.397820464209,4,1,0,85,0,0
102704,-85.3591282845557,4,1,0,85,0,0
102718,-85.3204536356163,4,1,0,85,0,0
102732,-85.2817965094481,4,1,0,85,0,0
102747,-85.2431568981117,4,1,0,85,0,0
102761,-85.2045347936717,4,1,0,85,0,0
102775,-85.1659301881958,4,1,0,85,0,0
102789,-85.1273430737557,4,1,0,85,0,0
102804,-85.0887734424265,4,1,0,85,0,0
102818,-85.0502212862869,4,1,0,85,0,0
102832,-85.0116865974192,4,1,0,85,0,0
102847,-84.9731693679093,4,1,0,85,0,0
102861,-84.9346695898468,4,1,0,85,0,0
102875,-84.8961872553246,4,1,0,85,0,0
102889,-84.8577223564394,4,1,0,85,0,0
102904,-84.8192748852915,4,1,0,85,0,0
102918,-84.7808448339847,4,1,0,85,0,0
102932,-84.7424321946264,4,1,0,85,0,0
102947,-84.7040369593274,4,1,0,85,0,0
102961,-84.6656591202025,4,1,0,85,0,0
102975,-84.6272986693697,4,1,0,85,0,0
102989,-84.5889555989506,4,1,0,85,0,0
103004,-84.5506299010705,4,1,0,85,0,0
103018,-84.5123215678583,4,1,0,85,0,0
103032,-84.4740305914464,4,1,0,85,0,0
103047,-84.4357569639707,4,1,0,85,0,0
103061,-84.3975006775706,4,1,0,85,0,0
103075,-84.3592617243894,4,1,0,85,0,0
103089,-84.3210400965735,4,1,0,85,0,0
103104,-84.2828357862733,4,1,0,85,0,0
103118,-84.2446487856425,4,1,0,85,0,0
103132,-84.2064790868384,4,1,0,85,0,0
103147,-84.1683266820218,4,1,0,85,0,0
103161,-84.1301915633571,4,1,0,85,0,0
103175,-84.0920737230124,4,1,0,85,0,0
103189,-84.0539731531591,4,1,0,85,0,0
103204,-84.0158898459723,4,1,0,85,0,0
103218,-83.9778237936306,4,1,0,85,0,0
103232,-83.9397749883162,4,1,0,85,0,0
103247,-83.9017434222147,4,1,0,85,0,0
103261,-83.8637290875153,4,1,0,85,0,0
103275,-83.8257319764109,4,1,0,85,0,0
103289,-83.7877520810976,4,1,0,85,0,0
103304,-83.7497893937755,4,1,0,85,0,0
103318,-83.7118439066479,4,1,0,85,0,0
103332,-83.6739156119215,4,1,0,85,0,0
103347,-83.6360045018071,4,1,0,85,0,0
103361,-83.5981105685183,4,1,0,85,0,0
103375,-83.5602338042729,4,1,0,85,0,0
103389,-83.5223742012917,4,1,0,85,0,0
103404,-83.4845317517993,4,1,0,85,0,0
103418,-83.4467064480239,4,1,0,85,0,0
103432,-83.408898282197,4,1,0,85,0,0
103447,-83.3711072465537,4,1,0,85,0,0
103461,-83.3333333333326,4,1,0,85,0,0
103463,-83.3333333333333,4,1,0,85,0,1
103806,-117.647058823529,4,1,0,85,0,0
106206,-117.647058823529,4,1,0,85,0,1
106549,-117.647058823529,4,1,0,85,0,0
108521,-100,4,1,0,85,0,0
108949,-117.647058823529,4,1,0,85,0,1
109292,-117.647058823529,4,1,0,85,0,0
111349,-100,4,1,0,85,0,0
111689,-117.647058823529,4,1,0,85,0,0
111692,-117.647058823529,4,1,0,85,0,1
111718,-117.448061957724,4,1,0,85,0,1
111746,-117.249401689817,4,1,0,85,0,1
111775,-117.05107745046,4,1,0,85,0,1
111803,-116.85308867127,4,1,0,85,0,1
111832,-116.655434784826,4,1,0,85,0,1
111860,-116.458115224665,4,1,0,85,0,1
111889,-116.261129425283,4,1,0,85,0,1
111918,-116.064476822133,4,1,0,85,0,1
111946,-115.868156851622,4,1,0,85,0,1
111975,-115.672168951112,4,1,0,85,0,1
112003,-115.476512558914,4,1,0,85,0,1
112035,-115.281187114291,4,1,0,85,0,0
112060,-115.086192057454,4,1,0,85,0,0
112089,-114.89152682956,4,1,0,85,0,0
112118,-114.697190872714,4,1,0,85,0,0
112146,-114.503183629961,4,1,0,85,0,0
112175,-114.309504545291,4,1,0,85,0,0
112203,-114.116153063634,4,1,0,85,0,0
112232,-113.923128630856,4,1,0,85,0,0
112260,-113.730430693764,4,1,0,85,0,0
112289,-113.538058700099,4,1,0,85,0,0
112318,-113.346012098536,4,1,0,85,0,0
112346,-113.154290338684,4,1,0,85,0,0
112375,-112.962892871081,4,1,0,85,0,0
112403,-112.771819147195,4,1,0,85,0,0
112432,-112.581068619423,4,1,0,85,0,0
112460,-112.390640741087,4,1,0,85,0,0
112489,-112.200534966434,4,1,0,85,0,0
112518,-112.010750750635,4,1,0,85,0,0
112546,-111.82128754978,4,1,0,85,0,0
112575,-111.632144820882,4,1,0,85,0,0
112603,-111.443322021872,4,1,0,85,0,0
112632,-111.254818611595,4,1,0,85,0,0
112660,-111.066634049815,4,1,0,85,0,0
112689,-110.878767797208,4,1,0,85,0,0
112718,-110.691219315362,4,1,0,85,0,0
112746,-110.503988066777,4,1,0,85,0,0
112775,-110.317073514861,4,1,0,85,0,0
112803,-110.13047512393,4,1,0,85,0,0
112832,-109.944192359207,4,1,0,85,0,0
112860,-109.758224686817,4,1,0,85,0,0
112889,-109.57257157379,4,1,0,85,0,0
112918,-109.387232488059,4,1,0,85,0,0
112946,-109.202206898453,4,1,0,85,0,0
112975,-109.017494274703,4,1,0,85,0,0
113003,-108.833094087435,4,1,0,85,0,0
113032,-108.649005808171,4,1,0,85,0,0
113060,-108.465228909328,4,1,0,85,0,0
113089,-108.281762864213,4,1,0,85,0,0
113118,-108.098607147025,4,1,0,85,0,0
113146,-107.915761232854,4,1,0,85,0,0
113175,-107.733224597676,4,1,0,85,0,0
113203,-107.550996718353,4,1,0,85,0,0
113232,-107.369077072633,4,1,0,85,0,0
113260,-107.187465139148,4,1,0,85,0,0
113289,-107.006160397409,4,1,0,85,0,0
113318,-106.825162327812,4,1,0,85,0,0
113346,-106.644470411627,4,1,0,85,0,0
113375,-106.464084131004,4,1,0,85,0,0
113403,-106.28400296897,4,1,0,85,0,0
113432,-106.104226409424,4,1,0,85,0,0
113460,-105.924753937139,4,1,0,85,0,0
113489,-105.745585037759,4,1,0,85,0,0
113518,-105.5667191978,4,1,0,85,0,0
113546,-105.388155904644,4,1,0,85,0,0
113575,-105.209894646541,4,1,0,85,0,0
113603,-105.031934912607,4,1,0,85,0,0
113632,-104.854276192822,4,1,0,85,0,0
113660,-104.676917978029,4,1,0,85,0,0
113689,-104.499859759931,4,1,0,85,0,0
113718,-104.323101031092,4,1,0,85,0,0
113746,-104.146641284934,4,1,0,85,0,0
113775,-103.970480015736,4,1,0,85,0,0
113803,-103.794616718631,4,1,0,85,0,0
113832,-103.619050889608,4,1,0,85,0,0
113860,-103.443782025508,4,1,0,85,0,0
113889,-103.268809624023,4,1,0,85,0,0
113918,-103.094133183693,4,1,0,85,0,0
113946,-102.919752203908,4,1,0,85,0,0
113975,-102.745666184905,4,1,0,85,0,0
114003,-102.571874627765,4,1,0,85,0,0
114032,-102.398377034415,4,1,0,85,0,0
114060,-102.225172907621,4,1,0,85,0,0
114089,-102.052261750994,4,1,0,85,0,0
114118,-101.879643068982,4,1,0,85,0,0
114146,-101.707316366871,4,1,0,85,0,0
114175,-101.535281150786,4,1,0,85,0,0
114203,-101.363536927687,4,1,0,85,0,0
114232,-101.192083205365,4,1,0,85,0,0
114260,-101.020919492446,4,1,0,85,0,0
114289,-100.850045298389,4,1,0,85,0,0
114318,-100.679460133478,4,1,0,85,0,0
114346,-100.509163508829,4,1,0,85,0,0
114375,-100.339154936384,4,1,0,85,0,0
114403,-100.169433928911,4,1,0,85,0,0
114432,-99.9999999999996,4,1,0,85,0,0
114435,-100,4,1,0,85,0,1
114778,-117.647058823529,4,1,0,85,0,0
117178,-117.647058823529,4,1,0,85,0,1
117521,-117.647058823529,4,1,0,85,0,0
119578,-100,4,1,0,85,0,0
119900,-117.647058823529,4,1,0,85,0,0
119921,-117.647058823529,4,1,0,85,0,1
120263,-117.647058823529,4,1,0,85,0,0
122321,-100,4,1,0,85,0,0
122663,-117.647058823529,4,1,0,85,0,1
122689,-117.448061957724,4,1,0,85,0,1
122717,-117.249401689817,4,1,0,85,0,1
122746,-117.05107745046,4,1,0,85,0,1
122774,-116.85308867127,4,1,0,85,0,1
122803,-116.655434784826,4,1,0,85,0,1
122831,-116.458115224665,4,1,0,85,0,1
122860,-116.261129425283,4,1,0,85,0,1
122889,-116.064476822133,4,1,0,85,0,1
122917,-115.868156851622,4,1,0,85,0,1
122946,-115.672168951112,4,1,0,85,0,1
122974,-115.476512558914,4,1,0,85,0,1
123006,-115.281187114291,4,1,0,85,0,0
123031,-115.086192057454,4,1,0,85,0,0
123060,-114.89152682956,4,1,0,85,0,0
123089,-114.697190872714,4,1,0,85,0,0
123117,-114.503183629961,4,1,0,85,0,0
123146,-114.309504545291,4,1,0,85,0,0
123174,-114.116153063634,4,1,0,85,0,0
123203,-113.923128630856,4,1,0,85,0,0
123231,-113.730430693764,4,1,0,85,0,0
123260,-113.538058700099,4,1,0,85,0,0
123289,-113.346012098536,4,1,0,85,0,0
123317,-113.154290338684,4,1,0,85,0,0
123346,-112.962892871081,4,1,0,85,0,0
123374,-112.771819147195,4,1,0,85,0,0
123403,-112.581068619423,4,1,0,85,0,0
123431,-112.390640741087,4,1,0,85,0,0
123460,-112.200534966434,4,1,0,85,0,0
123489,-112.010750750635,4,1,0,85,0,0
123517,-111.82128754978,4,1,0,85,0,0
123546,-111.632144820882,4,1,0,85,0,0
123574,-111.443322021872,4,1,0,85,0,0
123603,-111.254818611595,4,1,0,85,0,0
123631,-111.066634049815,4,1,0,85,0,0
123660,-110.878767797208,4,1,0,85,0,0
123689,-110.691219315362,4,1,0,85,0,0
123717,-110.503988066777,4,1,0,85,0,0
123746,-110.317073514861,4,1,0,85,0,0
123774,-110.13047512393,4,1,0,85,0,0
123803,-109.944192359207,4,1,0,85,0,0
123831,-109.758224686817,4,1,0,85,0,0
123860,-109.57257157379,4,1,0,85,0,0
123889,-109.387232488059,4,1,0,85,0,0
123917,-109.202206898453,4,1,0,85,0,0
123946,-109.017494274703,4,1,0,85,0,0
123974,-108.833094087435,4,1,0,85,0,0
124003,-108.649005808171,4,1,0,85,0,0
124031,-108.465228909328,4,1,0,85,0,0
124060,-108.281762864213,4,1,0,85,0,0
124089,-108.098607147025,4,1,0,85,0,0
124117,-107.915761232854,4,1,0,85,0,0
124146,-107.733224597676,4,1,0,85,0,0
124174,-107.550996718353,4,1,0,85,0,0
124203,-107.369077072633,4,1,0,85,0,0
124231,-107.187465139148,4,1,0,85,0,0
124260,-107.006160397409,4,1,0,85,0,0
124289,-106.825162327812,4,1,0,85,0,0
124317,-106.644470411627,4,1,0,85,0,0
124346,-106.464084131004,4,1,0,85,0,0
124374,-106.28400296897,4,1,0,85,0,0
124403,-106.104226409424,4,1,0,85,0,0
124431,-105.924753937139,4,1,0,85,0,0
124460,-105.745585037759,4,1,0,85,0,0
124489,-105.5667191978,4,1,0,85,0,0
124517,-105.388155904644,4,1,0,85,0,0
124546,-105.209894646541,4,1,0,85,0,0
124574,-105.031934912607,4,1,0,85,0,0
124603,-104.854276192822,4,1,0,85,0,0
124631,-104.676917978029,4,1,0,85,0,0
124660,-104.499859759931,4,1,0,85,0,0
124689,-104.323101031092,4,1,0,85,0,0
124717,-104.146641284934,4,1,0,85,0,0
124746,-103.970480015736,4,1,0,85,0,0
124774,-103.794616718631,4,1,0,85,0,0
124803,-103.619050889608,4,1,0,85,0,0
124831,-103.443782025508,4,1,0,85,0,0
124860,-103.268809624023,4,1,0,85,0,0
124889,-103.094133183693,4,1,0,85,0,0
124917,-102.919752203908,4,1,0,85,0,0
124946,-102.745666184905,4,1,0,85,0,0
124974,-102.571874627765,4,1,0,85,0,0
125003,-102.398377034415,4,1,0,85,0,0
125031,-102.225172907621,4,1,0,85,0,0
125060,-102.052261750994,4,1,0,85,0,0
125089,-101.879643068982,4,1,0,85,0,0
125117,-101.707316366871,4,1,0,85,0,0
125146,-101.535281150786,4,1,0,85,0,0
125174,-101.363536927687,4,1,0,85,0,0
125203,-101.192083205365,4,1,0,85,0,0
125231,-101.020919492446,4,1,0,85,0,0
125260,-100.850045298389,4,1,0,85,0,0
125289,-100.679460133478,4,1,0,85,0,0
125317,-100.509163508829,4,1,0,85,0,0
125346,-100.339154936384,4,1,0,85,0,0
125374,-100.169433928911,4,1,0,85,0,0
125403,-99.9999999999996,4,1,0,85,0,0
125406,-100,4,1,0,85,0,0
125749,-111.111111111111,4,1,0,85,0,0
136378,-105.263157894737,4,1,0,85,0,0
144603,-105.263157894737,4,1,0,85,0,0
144689,-104.78201261545,4,1,0,85,0,0
144774,-104.30306659357,4,1,0,85,0,0
144860,-103.826309776557,4,1,0,85,0,0
144946,-103.351732157816,4,1,0,85,0,0
145032,-102.879323776494,4,1,0,85,0,0
145117,-102.409074717266,4,1,0,85,0,0
145203,-101.940975110131,4,1,0,85,0,0
145289,-101.475015130199,4,1,0,85,0,0
145374,-101.011184997492,4,1,0,85,0,0
145460,-100.549474976732,4,1,0,85,0,0
145546,-100.089875377144,4,1,0,85,0,0
145632,-99.6323765522431,4,1,0,85,0,0
145717,-99.1769688996413,4,1,0,85,0,0
145803,-98.7236428608405,4,1,0,85,0,0
145889,-98.2723889210334,4,1,0,85,0,0
145974,-97.8231976089038,4,1,0,85,0,0
146060,-97.3760594964279,4,1,0,85,0,0
146146,-96.930965198676,4,1,0,85,0,0
146232,-96.487905373616,4,1,0,85,0,0
146317,-96.0468707219171,4,1,0,85,0,0
146403,-95.6078519867545,4,1,0,85,0,0
146489,-95.1708399536154,4,1,0,85,0,0
146574,-94.7358254501052,4,1,0,85,0,0
146660,-94.3027993457555,4,1,0,85,0,0
146746,-93.8717525518321,4,1,0,85,0,0
146832,-93.442676021144,4,1,0,85,0,0
146917,-93.0155607478544,4,1,0,85,0,0
147003,-92.5903977672905,4,1,0,85,0,0
147089,-92.1671781557564,4,1,0,85,0,0
147174,-91.7458930303451,4,1,0,85,0,0
147260,-91.3265335487524,4,1,0,85,0,0
147346,-90.9090909090912,4,1,0,85,0,0
147349,-100,4,1,0,85,0,0
163803,-100,4,1,0,85,0,0
163889,-99.7155279582202,4,1,0,85,0,0
163974,-99.431865159866,4,1,0,85,0,0
164060,-99.149009302866,4,1,0,85,0,0
164146,-98.8669580916978,4,1,0,85,0,0
164232,-98.5857092373688,4,1,0,85,0,0
164317,-98.3052604573982,4,1,0,85,0,0
164403,-98.0256094757981,4,1,0,85,0,0
164489,-97.7467540230552,4,1,0,85,0,0
164574,-97.4686918361124,4,1,0,85,0,0
164660,-97.1914206583502,4,1,0,85,0,0
164746,-96.9149382395686,4,1,0,85,0,0
164832,-96.639242335969,4,1,0,85,0,0
164917,-96.3643307101353,4,1,0,85,0,0
165003,-96.0902011310168,4,1,0,85,0,0
165089,-95.8168513739091,4,1,0,85,0,0
165174,-95.5442792204367,4,1,0,85,0,0
165260,-95.2724824585346,4,1,0,85,0,0
165346,-95.0014588824305,4,1,0,85,0,0
165432,-94.7312062926271,4,1,0,85,0,0
165517,-94.4617224958838,4,1,0,85,0,0
165603,-94.1930053051995,4,1,0,85,0,0
165689,-93.9250525397941,4,1,0,85,0,0
165774,-93.6578620250914,4,1,0,85,0,0
165860,-93.3914315927013,4,1,0,85,0,0
165946,-93.1257590804022,4,1,0,85,0,0
166032,-92.8608423321233,4,1,0,85,0,0
166117,-92.5966791979272,4,1,0,85,0,0
166203,-92.3332675339926,4,1,0,85,0,0
166289,-92.0706052025967,4,1,0,85,0,0
166374,-91.8086900720979,4,1,0,85,0,0
166460,-91.5475200169186,4,1,0,85,0,0
166546,-91.2870929175277,4,1,0,85,0,0
166632,-91.0274066604238,4,1,0,85,0,0
166717,-90.7684591381177,4,1,0,85,0,0
166803,-90.5102482491155,4,1,0,85,0,0
166889,-90.2527718979013,4,1,0,85,0,0
166974,-89.9960279949205,4,1,0,85,0,0
167060,-89.7400144565627,4,1,0,85,0,0
167146,-89.4847292051447,4,1,0,85,0,0
167232,-89.2301701688937,4,1,0,85,0,0
167317,-88.9763352819307,4,1,0,85,0,0
167403,-88.7232224842534,4,1,0,85,0,0
167489,-88.4708297217196,4,1,0,85,0,0
167574,-88.2191549460307,4,1,0,85,0,0
167660,-87.9681961147149,4,1,0,85,0,0
167746,-87.7179511911106,4,1,0,85,0,0
167832,-87.4684181443498,4,1,0,85,0,0
167917,-87.2195949493422,4,1,0,85,0,0
168003,-86.9714795867577,4,1,0,85,0,0
168089,-86.7240700430112,4,1,0,85,0,0
168174,-86.4773643102453,4,1,0,85,0,0
168260,-86.2313603863146,4,1,0,85,0,0
168346,-85.9860562747692,4,1,0,85,0,0
168432,-85.7414499848385,4,1,0,85,0,0
168517,-85.4975395314151,4,1,0,85,0,0
168603,-85.2543229350386,4,1,0,85,0,0
168689,-85.0117982218798,4,1,0,85,0,0
168774,-84.7699634237243,4,1,0,85,0,0
168860,-84.5288165779569,4,1,0,85,0,0
168946,-84.2883557275453,4,1,0,85,0,0
169032,-84.0485789210245,4,1,0,85,0,0
169117,-83.809484212481,4,1,0,85,0,0
169203,-83.5710696615367,4,1,0,85,0,0
169292,-83.3333333333333,4,1,0,85,0,1
169463,-90.9090909090909,4,1,0,85,0,1
188489,-90.9090909090909,4,1,0,85,0,1
188575,-90.6622352625601,4,1,0,85,0,1
188660,-90.4160499308417,4,1,0,85,0,1
188746,-90.1705330937549,4,1,0,85,0,1
188832,-89.9256829360611,4,1,0,85,0,1
188918,-89.6814976474512,4,1,0,85,0,1
189003,-89.4379754225314,4,1,0,85,0,1
189089,-89.1951144608107,4,1,0,85,0,1
189175,-88.9529129666869,4,1,0,85,0,1
189260,-88.7113691494338,4,1,0,85,0,1
189346,-88.4704812231876,4,1,0,85,0,1
189432,-88.230247406934,4,1,0,85,0,1
189518,-87.9906659244946,4,1,0,85,0,1
189603,-87.7517350045145,4,1,0,85,0,1
189689,-87.5134528804483,4,1,0,85,0,1
189775,-87.2758177905479,4,1,0,85,0,1
189860,-87.0388279778488,4,1,0,85,0,1
189946,-86.8024816901575,4,1,0,85,0,1
190032,-86.5667771800383,4,1,0,85,0,1
190118,-86.3317127048008,4,1,0,85,0,1
190203,-86.0972865264864,4,1,0,85,0,1
190289,-85.8634969118559,4,1,0,85,0,1
190375,-85.6303421323766,4,1,0,85,0,1
190460,-85.3978204642094,4,1,0,85,0,1
190546,-85.1659301881962,4,1,0,85,0,1
190632,-84.9346695898472,4,1,0,85,0,1
190718,-84.7040369593279,4,1,0,85,0,1
190803,-84.4740305914468,4,1,0,85,0,1
190889,-84.244648785643,4,1,0,85,0,1
190975,-84.0158898459728,4,1,0,85,0,1
191060,-83.7877520810981,4,1,0,85,0,1
191146,-83.5602338042733,4,1,0,85,0,1
191232,-83.3333333333331,4,1,0,85,0,1
191235,-83.3333333333333,4,1,0,85,0,0
191578,-90.9090909090909,4,1,0,85,0,1
191921,-90.9090909090909,4,1,0,85,0,0
193978,-90.9090909090909,4,1,0,85,0,1
194321,-90.9090909090909,4,1,0,85,0,0
196721,-90.9090909090909,4,1,0,85,0,1
197063,-90.9090909090909,4,1,0,85,0,0
199463,-90.9090909090909,4,1,0,85,0,1
199474,-90.8679016743018,4,1,0,85,0,1
199489,-90.8267311015964,4,1,0,85,0,1
199503,-90.7855791825192,4,1,0,85,0,1
199517,-90.7444459086186,4,1,0,85,0,1
199531,-90.7033312714469,4,1,0,85,0,1
199546,-90.6622352625601,4,1,0,85,0,1
199560,-90.621157873518,4,1,0,85,0,1
199574,-90.5800990958843,4,1,0,85,0,1
199589,-90.5390589212266,4,1,0,85,0,1
199603,-90.4980373411162,4,1,0,85,0,1
199617,-90.4570343471282,4,1,0,85,0,1
199631,-90.4160499308417,4,1,0,85,0,1
199646,-90.3750840838393,4,1,0,85,0,1
199660,-90.3341367977078,4,1,0,85,0,1
199674,-90.2932080640374,4,1,0,85,0,1
199689,-90.2522978744225,4,1,0,85,0,1
199703,-90.211406220461,4,1,0,85,0,1
199717,-90.1705330937548,4,1,0,85,0,1
199731,-90.1296784859096,4,1,0,85,0,1
199746,-90.0888423885347,4,1,0,85,0,1
199760,-90.0480247932435,4,1,0,85,0,1
199774,-90.0072256916529,4,1,0,85,0,1
199806,-89.9256829360611,4,1,0,85,0,0
199817,-89.8849392653128,4,1,0,85,0,0
199831,-89.8442140547713,4,1,0,85,0,0
199846,-89.8035072960728,4,1,0,85,0,0
199860,-89.7628189808568,4,1,0,85,0,0
199874,-89.7221491007671,4,1,0,85,0,0
199889,-89.6814976474511,4,1,0,85,0,0
199903,-89.6408646125598,4,1,0,85,0,0
199917,-89.6002499877483,4,1,0,85,0,0
199931,-89.5596537646753,4,1,0,85,0,0
199946,-89.5190759350033,4,1,0,85,0,0
199960,-89.4785164903986,4,1,0,85,0,0
199974,-89.4379754225313,4,1,0,85,0,0
199989,-89.3974527230751,4,1,0,85,0,0
200003,-89.3569483837078,4,1,0,85,0,0
200017,-89.3164623961106,4,1,0,85,0,0
200031,-89.2759947519688,4,1,0,85,0,0
200046,-89.2355454429712,4,1,0,85,0,0
200060,-89.1951144608106,4,1,0,85,0,0
200074,-89.1547017971833,4,1,0,85,0,0
200089,-89.1143074437897,4,1,0,85,0,0
200103,-89.0739313923336,4,1,0,85,0,0
200117,-89.0335736345228,4,1,0,85,0,0
200131,-88.9932341620688,4,1,0,85,0,0
200146,-88.9529129666868,4,1,0,85,0,0
200160,-88.9126100400958,4,1,0,85,0,0
200174,-88.8723253740186,4,1,0,85,0,0
200189,-88.8320589601817,4,1,0,85,0,0
200203,-88.7918107903153,4,1,0,85,0,0
200217,-88.7515808561534,4,1,0,85,0,0
200231,-88.7113691494337,4,1,0,85,0,0
200246,-88.6711756618977,4,1,0,85,0,0
200260,-88.6310003852907,4,1,0,85,0,0
200274,-88.5908433113616,4,1,0,85,0,0
200289,-88.5507044318631,4,1,0,85,0,0
200303,-88.5105837385517,4,1,0,85,0,0
200317,-88.4704812231875,4,1,0,85,0,0
200331,-88.4303968775344,4,1,0,85,0,0
200346,-88.3903306933601,4,1,0,85,0,0
200360,-88.3502826624359,4,1,0,85,0,0
200374,-88.310252776537,4,1,0,85,0,0
200389,-88.2702410274421,4,1,0,85,0,0
200403,-88.2302474069338,4,1,0,85,0,0
200417,-88.1902719067984,4,1,0,85,0,0
200431,-88.1503145188259,4,1,0,85,0,0
200446,-88.1103752348099,4,1,0,85,0,0
200460,-88.070454046548,4,1,0,85,0,0
200474,-88.0305509458412,4,1,0,85,0,0
200489,-87.9906659244944,4,1,0,85,0,0
200503,-87.9507989743163,4,1,0,85,0,0
200517,-87.910950087119,4,1,0,85,0,0
200531,-87.8711192547186,4,1,0,85,0,0
200546,-87.8313064689348,4,1,0,85,0,0
200560,-87.791511721591,4,1,0,85,0,0
200574,-87.7517350045143,4,1,0,85,0,0
200589,-87.7119763095355,4,1,0,85,0,0
200603,-87.6722356284891,4,1,0,85,0,0
200617,-87.6325129532135,4,1,0,85,0,0
200631,-87.5928082755504,4,1,0,85,0,0
200646,-87.5531215873455,4,1,0,85,0,0
200660,-87.5134528804481,4,1,0,85,0,0
200674,-87.4738021467112,4,1,0,85,0,0
200689,-87.4341693779915,4,1,0,85,0,0
200703,-87.3945545661494,4,1,0,85,0,0
200717,-87.3549577030489,4,1,0,85,0,0
200731,-87.3153787805579,4,1,0,85,0,0
200746,-87.2758177905477,4,1,0,85,0,0
200760,-87.2362747248934,4,1,0,85,0,0
200774,-87.1967495754739,4,1,0,85,0,0
200789,-87.1572423341717,4,1,0,85,0,0
200803,-87.1177529928729,4,1,0,85,0,0
200817,-87.0782815434673,4,1,0,85,0,0
200831,-87.0388279778485,4,1,0,85,0,0
200846,-86.9993922879137,4,1,0,85,0,0
200860,-86.9599744655637,4,1,0,85,0,0
200874,-86.920574502703,4,1,0,85,0,0
200889,-86.8811923912398,4,1,0,85,0,0
200903,-86.841828123086,4,1,0,85,0,0
200917,-86.8024816901572,4,1,0,85,0,0
200931,-86.7631530843724,4,1,0,85,0,0
200946,-86.7238422976546,4,1,0,85,0,0
200960,-86.6845493219303,4,1,0,85,0,0
200974,-86.6452741491296,4,1,0,85,0,0
200989,-86.6060167711864,4,1,0,85,0,0
201003,-86.5667771800381,4,1,0,85,0,0
201017,-86.5275553676258,4,1,0,85,0,0
201031,-86.4883513258944,4,1,0,85,0,0
201046,-86.4491650467922,4,1,0,85,0,0
201060,-86.4099965222715,4,1,0,85,0,0
201074,-86.3708457442877,4,1,0,85,0,0
201089,-86.3317127048005,4,1,0,85,0,0
201103,-86.2925973957727,4,1,0,85,0,0
201117,-86.253499809171,4,1,0,85,0,0
201131,-86.2144199369658,4,1,0,85,0,0
201146,-86.1753577711309,4,1,0,85,0,0
201160,-86.1363133036439,4,1,0,85,0,0
201174,-86.0972865264861,4,1,0,85,0,0
201189,-86.0582774316422,4,1,0,85,0,0
201203,-86.0192860111007,4,1,0,85,0,0
201217,-85.9803122568538,4,1,0,85,0,0
201231,-85.9413561608971,4,1,0,85,0,0
201246,-85.90241771523,4,1,0,85,0,0
201260,-85.8634969118555,4,1,0,85,0,0
201274,-85.8245937427803,4,1,0,85,0,0
201289,-85.7857082000144,4,1,0,85,0,0
201303,-85.7468402755718,4,1,0,85,0,0
201317,-85.7079899614699,4,1,0,85,0,0
201331,-85.6691572497298,4,1,0,85,0,0
201346,-85.6303421323762,4,1,0,85,0,0
201360,-85.5915446014374,4,1,0,85,0,0
201374,-85.5527646489454,4,1,0,85,0,0
201389,-85.5140022669355,4,1,0,85,0,0
201403,-85.4752574474471,4,1,0,85,0,0
201417,-85.4365301825228,4,1,0,85,0,0
201431,-85.397820464209,4,1,0,85,0,0
201446,-85.3591282845557,4,1,0,85,0,0
201460,-85.3204536356163,4,1,0,85,0,0
201474,-85.2817965094481,4,1,0,85,0,0
201489,-85.2431568981117,4,1,0,85,0,0
201503,-85.2045347936717,4,1,0,85,0,0
201517,-85.1659301881958,4,1,0,85,0,0
201531,-85.1273430737557,4,1,0,85,0,0
201546,-85.0887734424265,4,1,0,85,0,0
201560,-85.0502212862869,4,1,0,85,0,0
201574,-85.0116865974192,4,1,0,85,0,0
201589,-84.9731693679093,4,1,0,85,0,0
201603,-84.9346695898468,4,1,0,85,0,0
201617,-84.8961872553246,4,1,0,85,0,0
201631,-84.8577223564394,4,1,0,85,0,0
201646,-84.8192748852915,4,1,0,85,0,0
201660,-84.7808448339847,4,1,0,85,0,0
201674,-84.7424321946264,4,1,0,85,0,0
201689,-84.7040369593274,4,1,0,85,0,0
201703,-84.6656591202025,4,1,0,85,0,0
201717,-84.6272986693697,4,1,0,85,0,0
201731,-84.5889555989506,4,1,0,85,0,0
201746,-84.5506299010705,4,1,0,85,0,0
201760,-84.5123215678583,4,1,0,85,0,0
201774,-84.4740305914464,4,1,0,85,0,0
201789,-84.4357569639707,4,1,0,85,0,0
201803,-84.3975006775706,4,1,0,85,0,0
201817,-84.3592617243894,4,1,0,85,0,0
201831,-84.3210400965735,4,1,0,85,0,0
201846,-84.2828357862733,4,1,0,85,0,0
201860,-84.2446487856425,4,1,0,85,0,0
201874,-84.2064790868384,4,1,0,85,0,0
201889,-84.1683266820218,4,1,0,85,0,0
201903,-84.1301915633571,4,1,0,85,0,0
201917,-84.0920737230124,4,1,0,85,0,0
201931,-84.0539731531591,4,1,0,85,0,0
201946,-84.0158898459723,4,1,0,85,0,0
201960,-83.9778237936306,4,1,0,85,0,0
201974,-83.9397749883162,4,1,0,85,0,0
201989,-83.9017434222147,4,1,0,85,0,0
202003,-83.8637290875153,4,1,0,85,0,0
202017,-83.8257319764109,4,1,0,85,0,0
202031,-83.7877520810976,4,1,0,85,0,0
202046,-83.7497893937755,4,1,0,85,0,0
202060,-83.7118439066479,4,1,0,85,0,0
202074,-83.6739156119215,4,1,0,85,0,0
202089,-83.6360045018071,4,1,0,85,0,0
202103,-83.5981105685183,4,1,0,85,0,0
202117,-83.5602338042729,4,1,0,85,0,0
202131,-83.5223742012917,4,1,0,85,0,0
202146,-83.4845317517993,4,1,0,85,0,0
202160,-83.4467064480239,4,1,0,85,0,0
202174,-83.408898282197,4,1,0,85,0,0
202189,-83.3711072465537,4,1,0,85,0,0
202203,-83.3333333333326,4,1,0,85,0,0
202206,-83.3333333333333,4,1,0,85,0,1
202549,-117.647058823529,4,1,0,85,0,0
204949,-117.647058823529,4,1,0,85,0,1
205292,-117.647058823529,4,1,0,85,0,0
207349,-100,4,1,0,85,0,0
207692,-117.647058823529,4,1,0,85,0,1
208035,-117.647058823529,4,1,0,85,0,0
210092,-100,4,1,0,85,0,0
210435,-117.647058823529,4,1,0,85,0,1
210461,-117.448061957724,4,1,0,85,0,1
210489,-117.249401689817,4,1,0,85,0,1
210518,-117.05107745046,4,1,0,85,0,1
210546,-116.85308867127,4,1,0,85,0,1
210575,-116.655434784826,4,1,0,85,0,1
210603,-116.458115224665,4,1,0,85,0,1
210632,-116.261129425283,4,1,0,85,0,1
210661,-116.064476822133,4,1,0,85,0,1
210689,-115.868156851622,4,1,0,85,0,1
210718,-115.672168951112,4,1,0,85,0,1
210746,-115.476512558914,4,1,0,85,0,1
210778,-115.281187114291,4,1,0,85,0,0
210803,-115.086192057454,4,1,0,85,0,0
210832,-114.89152682956,4,1,0,85,0,0
210861,-114.697190872714,4,1,0,85,0,0
210889,-114.503183629961,4,1,0,85,0,0
210918,-114.309504545291,4,1,0,85,0,0
210946,-114.116153063634,4,1,0,85,0,0
210975,-113.923128630856,4,1,0,85,0,0
211003,-113.730430693764,4,1,0,85,0,0
211032,-113.538058700099,4,1,0,85,0,0
211061,-113.346012098536,4,1,0,85,0,0
211089,-113.154290338684,4,1,0,85,0,0
211118,-112.962892871081,4,1,0,85,0,0
211146,-112.771819147195,4,1,0,85,0,0
211175,-112.581068619423,4,1,0,85,0,0
211203,-112.390640741087,4,1,0,85,0,0
211232,-112.200534966434,4,1,0,85,0,0
211261,-112.010750750635,4,1,0,85,0,0
211289,-111.82128754978,4,1,0,85,0,0
211318,-111.632144820882,4,1,0,85,0,0
211346,-111.443322021872,4,1,0,85,0,0
211375,-111.254818611595,4,1,0,85,0,0
211403,-111.066634049815,4,1,0,85,0,0
211432,-110.878767797208,4,1,0,85,0,0
211461,-110.691219315362,4,1,0,85,0,0
211489,-110.503988066777,4,1,0,85,0,0
211518,-110.317073514861,4,1,0,85,0,0
211546,-110.13047512393,4,1,0,85,0,0
211575,-109.944192359207,4,1,0,85,0,0
211603,-109.758224686817,4,1,0,85,0,0
211632,-109.57257157379,4,1,0,85,0,0
211661,-109.387232488059,4,1,0,85,0,0
211689,-109.202206898453,4,1,0,85,0,0
211718,-109.017494274703,4,1,0,85,0,0
211746,-108.833094087435,4,1,0,85,0,0
211775,-108.649005808171,4,1,0,85,0,0
211803,-108.465228909328,4,1,0,85,0,0
211832,-108.281762864213,4,1,0,85,0,0
211861,-108.098607147025,4,1,0,85,0,0
211889,-107.915761232854,4,1,0,85,0,0
211918,-107.733224597676,4,1,0,85,0,0
211946,-107.550996718353,4,1,0,85,0,0
211975,-107.369077072633,4,1,0,85,0,0
212003,-107.187465139148,4,1,0,85,0,0
212032,-107.006160397409,4,1,0,85,0,0
212061,-106.825162327812,4,1,0,85,0,0
212089,-106.644470411627,4,1,0,85,0,0
212118,-106.464084131004,4,1,0,85,0,0
212146,-106.28400296897,4,1,0,85,0,0
212175,-106.104226409424,4,1,0,85,0,0
212203,-105.924753937139,4,1,0,85,0,0
212232,-105.745585037759,4,1,0,85,0,0
212261,-105.5667191978,4,1,0,85,0,0
212289,-105.388155904644,4,1,0,85,0,0
212318,-105.209894646541,4,1,0,85,0,0
212346,-105.031934912607,4,1,0,85,0,0
212375,-104.854276192822,4,1,0,85,0,0
212403,-104.676917978029,4,1,0,85,0,0
212432,-104.499859759931,4,1,0,85,0,0
212461,-104.323101031092,4,1,0,85,0,0
212489,-104.146641284934,4,1,0,85,0,0
212518,-103.970480015736,4,1,0,85,0,0
212546,-103.794616718631,4,1,0,85,0,0
212575,-103.619050889608,4,1,0,85,0,0
212603,-103.443782025508,4,1,0,85,0,0
212632,-103.268809624023,4,1,0,85,0,0
212661,-103.094133183693,4,1,0,85,0,0
212689,-102.919752203908,4,1,0,85,0,0
212718,-102.745666184905,4,1,0,85,0,0
212746,-102.571874627765,4,1,0,85,0,0
212775,-102.398377034415,4,1,0,85,0,0
212803,-102.225172907621,4,1,0,85,0,0
212832,-102.052261750994,4,1,0,85,0,0
212861,-101.879643068982,4,1,0,85,0,0
212889,-101.707316366871,4,1,0,85,0,0
212918,-101.535281150786,4,1,0,85,0,0
212946,-101.363536927687,4,1,0,85,0,0
212975,-101.192083205365,4,1,0,85,0,0
213003,-101.020919492446,4,1,0,85,0,0
213032,-100.850045298389,4,1,0,85,0,0
213061,-100.679460133478,4,1,0,85,0,0
213089,-100.509163508829,4,1,0,85,0,0
213118,-100.339154936384,4,1,0,85,0,0
213146,-100.169433928911,4,1,0,85,0,0
213175,-99.9999999999996,4,1,0,85,0,0
213178,-100,4,1,0,85,0,0
232375,-100,4,1,0,85,0,0
232461,-99.5641963223525,4,1,0,85,0,0
232546,-99.1302918931595,4,1,0,85,0,0
232632,-98.6982784354265,4,1,0,85,0,0
232718,-98.2681477082301,4,1,0,85,0,0
232804,-97.8398915065616,4,1,0,85,0,0
232889,-97.4135016611697,4,1,0,85,0,0
232975,-96.9889700384051,4,1,0,85,0,0
233061,-96.5662885400653,4,1,0,85,0,0
233146,-96.14544910324,4,1,0,85,0,0
233232,-95.7264437001574,4,1,0,85,0,0
233318,-95.309264338031,4,1,0,85,0,0
233404,-94.8939030589071,4,1,0,85,0,0
233489,-94.4803519395131,4,1,0,85,0,0
233575,-94.0686030911065,4,1,0,85,0,0
233661,-93.6586486593238,4,1,0,85,0,0
233746,-93.2504808240315,4,1,0,85,0,0
233832,-92.8440917991764,4,1,0,85,0,0
233918,-92.4394738326372,4,1,0,85,0,0
234004,-92.0366192060766,4,1,0,85,0,0
234089,-91.6355202347941,4,1,0,85,0,0
234175,-91.2361692675795,4,1,0,85,0,0
234261,-90.8385586865667,4,1,0,85,0,0
234346,-90.4426809070886,4,1,0,85,0,0
234432,-90.0485283775326,4,1,0,85,0,0
234518,-89.6560935791958,4,1,0,85,0,0
234604,-89.2653690261426,4,1,0,85,0,0
234689,-88.8763472650611,4,1,0,85,0,0
234775,-88.4890208751212,4,1,0,85,0,0
234861,-88.1033824678332,4,1,0,85,0,0
234946,-87.7194246869065,4,1,0,85,0,0
235032,-87.3371402081098,4,1,0,85,0,0
235118,-86.9565217391307,4,1,0,85,0,0
235463,-100,4,1,0,85,0,0
246089,-100,4,1,0,85,0,0
246260,-101.610752112793,4,1,0,85,0,0
246432,-103.247449449275,4,1,0,85,0,0
246603,-104.910509922684,4,1,0,85,0,0
246775,-106.600358177805,4,1,0,85,0,0
246946,-108.317425699399,4,1,0,85,0,0
247118,-110.062150922375,4,1,0,85,0,0
247289,-111.834979343743,4,1,0,85,0,0
247460,-113.636363636364,4,1,0,85,0,0
255689,-113.636363636364,4,1,0,85,0,0
255860,-111.834979343743,4,1,0,85,0,0
256032,-110.062150922375,4,1,0,85,0,0
256203,-108.317425699399,4,1,0,85,0,0
256375,-106.600358177805,4,1,0,85,0,0
256546,-104.910509922684,4,1,0,85,0,0
256718,-103.247449449275,4,1,0,85,0,0
256889,-101.610752112793,4,1,0,85,0,0
257063,-100,4,1,0,85,0,0

[HitObjects]
255,192,4721,5,0,0:0:0:0:
255,192,5235,1,8,0:0:0:0:
255,192,5578,1,0,0:0:0:0:
255,192,5749,1,8,0:0:0:0:
255,192,6092,1,8,0:0:0:0:
255,192,6263,1,0,0:0:0:0:
255,192,6606,1,0,0:0:0:0:
255,192,6778,1,8,0:0:0:0:
255,192,7121,1,0,0:0:0:0:
255,192,7463,1,8,0:0:0:0:
255,192,7806,1,0,0:0:0:0:
255,192,8149,1,8,0:0:0:0:
255,192,8406,1,8,0:0:0:0:
255,192,8663,1,8,0:0:0:0:
255,192,8835,1,0,0:0:0:0:
255,192,9178,1,8,0:0:0:0:
255,192,9349,1,0,0:0:0:0:
255,192,9692,1,8,0:0:0:0:
255,192,9863,1,0,0:0:0:0:
255,192,10206,1,0,0:0:0:0:
255,192,10378,1,8,0:0:0:0:
255,192,10721,1,8,0:0:0:0:
255,192,11235,1,8,0:0:0:0:
255,192,11578,1,0,0:0:0:0:
255,192,11921,1,0,0:0:0:0:
255,192,12263,1,8,0:0:0:0:
255,192,12521,1,8,0:0:0:0:
255,192,12778,1,8,0:0:0:0:
255,192,12949,1,0,0:0:0:0:
255,192,13292,1,8,0:0:0:0:
255,192,13463,1,0,0:0:0:0:
255,192,13635,1,8,0:0:0:0:
255,192,13892,1,8,0:0:0:0:
255,192,14149,1,8,0:0:0:0:
255,192,14321,1,0,0:0:0:0:
255,192,14578,1,0,0:0:0:0:
255,192,14835,1,0,0:0:0:0:
255,192,15006,1,8,0:0:0:0:
255,192,15092,1,8,0:0:0:0:
255,192,15178,1,8,0:0:0:0:
255,192,15349,1,0,0:0:0:0:
255,192,15521,1,0,0:0:0:0:
255,192,15692,1,8,0:0:0:0:
255,192,16206,1,8,0:0:0:0:
255,192,16378,1,0,0:0:0:0:
255,192,16549,1,0,0:0:0:0:
255,192,16720,1,8,0:0:0:0:
255,192,17063,1,8,0:0:0:0:
255,192,17234,1,0,0:0:0:0:
255,192,17577,1,0,0:0:0:0:
255,192,17749,1,8,0:0:0:0:
255,192,18092,1,0,0:0:0:0:
255,192,18263,1,0,0:0:0:0:
255,192,18434,1,8,0:0:0:0:
255,192,18777,1,8,0:0:0:0:
255,192,18949,1,0,0:0:0:0:
255,192,19120,1,8,0:0:0:0:
255,192,19377,1,8,0:0:0:0:
255,192,19634,1,8,0:0:0:0:
255,192,19806,1,0,0:0:0:0:
255,192,20149,1,8,0:0:0:0:
255,192,20492,1,0,0:0:0:0:
255,192,20663,1,8,0:0:0:0:
255,192,20834,1,0,0:0:0:0:
255,192,21177,1,0,0:0:0:0:
255,192,21692,1,8,0:0:0:0:
255,192,22034,1,0,0:0:0:0:
255,192,22206,1,8,0:0:0:0:
255,192,22377,1,0,0:0:0:0:
255,192,22549,1,8,0:0:0:0:
255,192,22892,1,8,0:0:0:0:
255,192,23063,1,0,0:0:0:0:
255,192,23234,1,8,0:0:0:0:
255,192,23492,1,8,0:0:0:0:
255,192,23749,1,8,0:0:0:0:
255,192,23920,1,0,0:0:0:0:
255,192,24263,1,0,0:0:0:0:
255,192,24434,1,0,0:0:0:0:
255,192,24606,1,8,0:0:0:0:
255,192,24863,1,8,0:0:0:0:
255,192,25120,1,8,0:0:0:0:
255,192,25292,1,0,0:0:0:0:
255,192,25549,1,0,0:0:0:0:
255,192,25806,1,0,0:0:0:0:
255,192,25977,1,8,0:0:0:0:
255,192,26063,1,8,0:0:0:0:
255,192,26149,1,8,0:0:0:0:
255,192,26320,1,0,0:0:0:0:
255,192,26492,1,8,0:0:0:0:
255,192,26663,1,4,0:0:0:0:
255,192,27006,1,8,0:0:0:0:
255,192,27349,1,0,0:0:0:0:
255,192,27521,1,0,0:0:0:0:
255,192,27692,1,8,0:0:0:0:
255,192,28035,1,4,0:0:0:0:
255,192,28549,1,4,0:0:0:0:
255,192,29063,1,4,0:0:0:0:
255,192,29406,1,4,0:0:0:0:
255,192,29749,1,8,0:0:0:0:
255,192,29921,1,0,0:0:0:0:
255,192,30092,1,8,0:0:0:0:
255,192,30349,1,8,0:0:0:0:
255,192,30606,1,8,0:0:0:0:
255,192,30778,1,4,0:0:0:0:
255,192,31292,1,4,0:0:0:0:
255,192,31806,1,4,0:0:0:0:
255,192,32149,1,4,0:0:0:0:
255,192,32492,1,8,0:0:0:0:
255,192,32835,1,0,0:0:0:0:
255,192,33007,1,0,0:0:0:0:
255,192,33178,1,8,0:0:0:0:
255,192,33521,1,4,0:0:0:0:
255,192,34035,1,4,0:0:0:0:
255,192,34549,1,4,0:0:0:0:
255,192,34892,1,4,0:0:0:0:
255,192,35235,1,8,0:0:0:0:
255,192,35578,1,8,0:0:0:0:
255,192,35749,1,0,0:0:0:0:
255,192,35921,1,8,0:0:0:0:
255,192,36092,1,8,0:0:0:0:
255,192,36264,1,4,0:0:0:0:
255,192,36778,1,4,0:0:0:0:
255,192,37292,1,4,0:0:0:0:
255,192,37635,1,4,0:0:0:0:
255,192,37978,1,8,0:0:0:0:
255,192,38149,1,0,0:0:0:0:
255,192,38321,1,8,0:0:0:0:
255,192,38578,1,8,0:0:0:0:
255,192,38835,1,0,0:0:0:0:
255,192,39006,1,8,0:0:0:0:
255,192,39521,1,0,0:0:0:0:
255,192,39692,1,8,0:0:0:0:
255,192,40035,1,0,0:0:0:0:
255,192,40206,1,8,0:0:0:0:
255,192,40378,1,0,0:0:0:0:
255,192,40721,1,8,0:0:0:0:
255,192,40892,1,0,0:0:0:0:
255,192,41064,1,8,0:0:0:0:
255,192,41321,1,8,0:0:0:0:
255,192,41578,1,8,0:0:0:0:
255,192,41749,1,0,0:0:0:0:
255,192,42264,1,8,0:0:0:0:
255,192,42435,1,0,0:0:0:0:
255,192,42778,1,0,0:0:0:0:
255,192,42949,1,0,0:0:0:0:
255,192,43121,1,8,0:0:0:0:
255,192,43292,1,0,0:0:0:0:
255,192,43463,1,8,0:0:0:0:
255,192,43635,1,0,0:0:0:0:
255,192,43721,1,0,0:0:0:0:
255,192,43806,1,0,0:0:0:0:
255,192,43978,1,8,0:0:0:0:
255,192,44149,1,0,0:0:0:0:
255,192,44492,1,8,0:0:0:0:
255,192,44663,1,0,0:0:0:0:
255,192,44834,1,8,0:0:0:0:
255,192,45006,1,0,0:0:0:0:
255,192,45177,1,8,0:0:0:0:
255,192,45349,1,8,0:0:0:0:
255,192,45520,1,0,0:0:0:0:
255,192,45863,1,0,0:0:0:0:
255,192,46035,1,0,0:0:0:0:
255,192,46206,1,8,0:0:0:0:
255,192,46378,1,0,0:0:0:0:
255,192,46549,1,8,0:0:0:0:
255,192,46807,1,0,0:0:0:0:
255,192,46892,1,8,0:0:0:0:
255,192,47064,1,8,0:0:0:0:
255,192,47235,1,0,0:0:0:0:
255,192,47321,1,0,0:0:0:0:
255,192,47407,1,0,0:0:0:0:
255,192,47578,1,8,0:0:0:0:
255,192,47750,1,0,0:0:0:0:
255,192,47921,1,8,0:0:0:0:
255,192,48606,1,4,0:0:0:0:
255,192,48949,1,8,0:0:0:0:
255,192,49121,1,0,0:0:0:0:
255,192,49292,1,8,0:0:0:0:
255,192,49549,1,0,0:0:0:0:
255,192,49635,1,8,0:0:0:0:
255,192,49806,1,0,0:0:0:0:
255,192,50149,1,8,0:0:0:0:
255,192,50321,1,8,0:0:0:0:
255,192,50492,1,0,0:0:0:0:
255,192,50663,1,8,0:0:0:0:
255,192,50749,1,8,0:0:0:0:
255,192,50835,1,8,0:0:0:0:
255,192,51006,1,0,0:0:0:0:
255,192,51178,1,8,0:0:0:0:
255,192,51349,1,0,0:0:0:0:
255,192,51692,1,8,0:0:0:0:
255,192,51864,1,0,0:0:0:0:
255,192,52035,1,8,0:0:0:0:
255,192,52121,1,0,0:0:0:0:
255,192,52292,1,0,0:0:0:0:
255,192,52378,1,8,0:0:0:0:
255,192,52549,1,0,0:0:0:0:
255,192,52892,1,8,0:0:0:0:
255,192,53064,1,0,0:0:0:0:
255,192,53235,1,0,0:0:0:0:
255,192,53406,1,8,0:0:0:0:
255,192,53664,1,8,0:0:0:0:
255,192,53921,1,8,0:0:0:0:
255,192,54092,1,0,0:0:0:0:
255,192,54435,1,0,0:0:0:0:
255,192,54606,1,0,0:0:0:0:
255,192,54778,1,8,0:0:0:0:
255,192,55035,1,0,0:0:0:0:
255,192,55121,1,8,0:0:0:0:
255,192,55292,1,0,0:0:0:0:
255,192,55635,1,8,0:0:0:0:
255,192,55807,1,0,0:0:0:0:
255,192,55978,1,8,0:0:0:0:
255,192,56149,1,0,0:0:0:0:
255,192,56235,1,0,0:0:0:0:
255,192,56321,1,0,0:0:0:0:
255,192,56492,1,8,0:0:0:0:
255,192,56664,1,0,0:0:0:0:
255,192,56835,1,8,0:0:0:0:
255,192,57178,1,8,0:0:0:0:
255,192,57350,1,0,0:0:0:0:
255,192,57521,1,8,0:0:0:0:
255,192,57778,1,8,0:0:0:0:
255,192,57864,1,0,0:0:0:0:
255,192,58035,1,8,0:0:0:0:
255,192,58378,1,8,0:0:0:0:
255,192,58550,1,0,0:0:0:0:
255,192,58721,1,0,0:0:0:0:
255,192,58892,1,8,0:0:0:0:
255,192,58978,1,0,0:0:0:0:
255,192,59149,1,0,0:0:0:0:
255,192,59235,1,8,0:0:0:0:
255,192,59407,1,0,0:0:0:0:
255,192,59578,1,8,0:0:0:0:
255,192,60263,1,12,0:0:0:0:
255,192,60520,1,0,0:0:0:0:
255,192,60606,1,8,0:0:0:0:
255,192,60777,1,0,0:0:0:0:
255,192,61120,1,8,0:0:0:0:
255,192,61292,1,8,0:0:0:0:
255,192,61463,1,0,0:0:0:0:
255,192,61634,1,8,0:0:0:0:
255,192,61721,1,8,0:0:0:0:
255,192,61806,1,8,0:0:0:0:
255,192,61977,1,0,0:0:0:0:
255,192,62149,1,8,0:0:0:0:
255,192,62320,1,0,0:0:0:0:
255,192,62663,1,8,0:0:0:0:
255,192,62835,1,0,0:0:0:0:
255,192,63006,1,8,0:0:0:0:
255,192,63092,1,0,0:0:0:0:
255,192,63263,1,0,0:0:0:0:
255,192,63349,1,8,0:0:0:0:
255,192,63520,1,0,0:0:0:0:
255,192,63863,1,8,0:0:0:0:
255,192,64035,1,0,0:0:0:0:
255,192,64206,1,0,0:0:0:0:
255,192,64377,1,8,0:0:0:0:
255,192,64635,1,8,0:0:0:0:
255,192,64892,1,8,0:0:0:0:
255,192,65063,1,0,0:0:0:0:
255,192,65406,1,0,0:0:0:0:
255,192,65578,1,0,0:0:0:0:
255,192,65749,1,8,0:0:0:0:
255,192,66006,1,0,0:0:0:0:
255,192,66092,1,8,0:0:0:0:
255,192,66263,1,0,0:0:0:0:
255,192,66606,1,8,0:0:0:0:
255,192,66778,1,0,0:0:0:0:
255,192,66949,1,8,0:0:0:0:
255,192,67120,1,0,0:0:0:0:
255,192,67206,1,0,0:0:0:0:
255,192,67292,1,0,0:0:0:0:
255,192,67463,1,8,0:0:0:0:
255,192,67635,1,0,0:0:0:0:
255,192,67806,1,8,0:0:0:0:
255,192,68149,1,8,0:0:0:0:
255,192,68321,1,0,0:0:0:0:
255,192,68492,1,8,0:0:0:0:
255,192,68749,1,8,0:0:0:0:
255,192,68835,1,0,0:0:0:0:
255,192,69006,1,8,0:0:0:0:
255,192,69349,1,8,0:0:0:0:
255,192,69521,1,0,0:0:0:0:
255,192,69692,1,0,0:0:0:0:
255,192,69863,1,8,0:0:0:0:
255,192,69949,1,0,0:0:0:0:
255,192,70120,1,0,0:0:0:0:
255,192,70206,1,8,0:0:0:0:
255,192,70378,1,8,0:0:0:0:
255,192,70549,1,4,0:0:0:0:
255,192,71235,1,8,0:0:0:0:
255,192,71492,1,8,0:0:0:0:
255,192,71749,1,8,0:0:0:0:
255,192,71921,1,4,0:0:0:0:
255,192,72606,1,8,0:0:0:0:
255,192,72863,1,0,0:0:0:0:
255,192,73120,1,8,0:0:0:0:
255,192,73292,1,4,0:0:0:0:
255,192,73978,1,8,0:0:0:0:
255,192,74235,1,8,0:0:0:0:
255,192,74492,1,8,0:0:0:0:
255,192,74664,1,4,0:0:0:0:
255,192,75349,1,8,0:0:0:0:
255,192,75606,1,0,0:0:0:0:
255,192,75863,1,8,0:0:0:0:
255,192,76035,1,0,0:0:0:0:
255,192,76206,1,0,0:0:0:0:
255,192,76377,1,8,0:0:0:0:
255,192,76635,1,0,0:0:0:0:
255,192,76720,1,8,0:0:0:0:
255,192,76892,1,0,0:0:0:0:
255,192,77063,1,8,0:0:0:0:
255,192,77406,1,0,0:0:0:0:
255,192,77577,1,0,0:0:0:0:
255,192,77748,1,8,0:0:0:0:
255,192,78006,1,0,0:0:0:0:
255,192,78091,1,8,0:0:0:0:
255,192,78263,1,0,0:0:0:0:
255,192,78434,1,8,0:0:0:0:
255,192,78777,1,0,0:0:0:0:
255,192,78949,1,0,0:0:0:0:
255,192,79120,1,8,0:0:0:0:
255,192,79292,1,0,0:0:0:0:
255,192,79463,1,8,0:0:0:0:
255,192,79806,1,8,0:0:0:0:
255,192,80149,1,0,0:0:0:0:
255,192,80235,1,0,0:0:0:0:
255,192,80321,1,0,0:0:0:0:
255,192,80492,1,8,0:0:0:0:
255,192,80664,1,8,0:0:0:0:
255,192,80835,1,0,0:0:0:0:
255,192,81006,1,0,0:0:0:0:
255,192,81177,1,8,0:0:0:0:
255,192,81349,1,8,0:0:0:0:
255,192,81521,1,4,0:0:0:0:
255,192,82206,1,8,0:0:0:0:
255,192,82463,1,8,0:0:0:0:
255,192,82549,1,0,0:0:0:0:
255,192,82721,1,8,0:0:0:0:
255,192,82892,1,0,0:0:0:0:
255,192,83235,1,8,0:0:0:0:
255,192,83406,1,8,0:0:0:0:
255,192,83578,1,0,0:0:0:0:
255,192,83663,1,8,0:0:0:0:
255,192,83835,1,8,0:0:0:0:
255,192,83921,1,0,0:0:0:0:
255,192,84092,1,8,0:0:0:0:
255,192,84263,1,4,0:0:0:0:
255,192,84949,1,0,0:0:0:0:
255,192,85206,1,8,0:0:0:0:
255,192,85292,1,0,0:0:0:0:
255,192,85464,1,8,0:0:0:0:
255,192,85635,1,0,0:0:0:0:
255,192,85978,1,0,0:0:0:0:
255,192,86149,1,8,0:0:0:0:
255,192,86321,1,0,0:0:0:0:
255,192,86406,1,8,0:0:0:0:
255,192,86578,1,0,0:0:0:0:
255,192,86664,1,8,0:0:0:0:
255,192,86835,1,0,0:0:0:0:
255,192,87006,1,12,0:0:0:0:
255,192,87349,1,8,0:0:0:0:
255,192,87521,1,0,0:0:0:0:
255,192,87692,1,8,0:0:0:0:
255,192,87949,1,0,0:0:0:0:
255,192,88035,1,8,0:0:0:0:
255,192,88206,1,8,0:0:0:0:
255,192,88378,1,0,0:0:0:0:
255,192,88635,1,8,0:0:0:0:
255,192,88721,1,0,0:0:0:0:
255,192,88892,1,8,0:0:0:0:
255,192,89063,1,0,0:0:0:0:
255,192,89321,1,8,0:0:0:0:
255,192,89406,1,0,0:0:0:0:
255,192,89578,1,8,0:0:0:0:
255,192,89749,1,0,0:0:0:0:
255,192,89921,1,8,0:0:0:0:
255,192,90092,1,0,0:0:0:0:
255,192,90178,1,0,0:0:0:0:
255,192,90263,1,0,0:0:0:0:
255,192,90435,1,8,0:0:0:0:
255,192,90692,1,8,0:0:0:0:
255,192,90778,1,8,0:0:0:0:
255,192,90949,1,0,0:0:0:0:
255,192,91121,1,12,0:0:0:0:
255,192,91463,1,0,0:0:0:0:
255,192,91635,1,0,0:0:0:0:
255,192,91806,1,0,0:0:0:0:
255,192,92063,1,0,0:0:0:0:
255,192,92149,1,8,0:0:0:0:
255,192,92321,1,8,0:0:0:0:
255,192,92492,1,4,0:0:0:0:
255,192,93178,1,8,0:0:0:0:
255,192,93435,1,8,0:0:0:0:
255,192,93521,1,0,0:0:0:0:
255,192,93693,1,8,0:0:0:0:
255,192,93864,1,0,0:0:0:0:
255,192,94207,1,8,0:0:0:0:
255,192,94378,1,8,0:0:0:0:
255,192,94550,1,0,0:0:0:0:
255,192,94635,1,8,0:0:0:0:
255,192,94807,1,8,0:0:0:0:
255,192,94893,1,0,0:0:0:0:
255,192,95064,1,8,0:0:0:0:
255,192,95235,1,4,0:0:0:0:
255,192,95921,1,0,0:0:0:0:
255,192,96178,1,8,0:0:0:0:
255,192,96264,1,0,0:0:0:0:
255,192,96436,1,8,0:0:0:0:
255,192,96607,1,0,0:0:0:0:
255,192,96950,1,0,0:0:0:0:
255,192,97121,1,8,0:0:0:0:
255,192,97293,1,0,0:0:0:0:
255,192,97378,1,8,0:0:0:0:
255,192,97550,1,0,0:0:0:0:
255,192,97636,1,8,0:0:0:0:
255,192,97807,1,0,0:0:0:0:
255,192,97978,1,12,0:0:0:0:
255,192,98321,1,8,0:0:0:0:
255,192,98493,1,0,0:0:0:0:
255,192,98578,1,8,0:0:0:0:
255,192,98749,1,8,0:0:0:0:
255,192,98835,1,0,0:0:0:0:
255,192,99007,1,8,0:0:0:0:
255,192,99350,1,0,0:0:0:0:
255,192,99521,1,0,0:0:0:0:
255,192,99693,1,8,0:0:0:0:
255,192,99864,1,0,0:0:0:0:
255,192,99949,1,8,0:0:0:0:
255,192,100121,1,8,0:0:0:0:
255,192,100206,1,0,0:0:0:0:
255,192,100378,1,8,0:0:0:0:
255,192,100721,1,0,0:0:0:0:
255,192,100892,1,8,0:0:0:0:
255,192,101063,1,0,0:0:0:0:
255,192,101234,1,0,0:0:0:0:
255,192,101406,1,8,0:0:0:0:
255,192,101663,1,8,0:0:0:0:
255,192,101749,1,0,0:0:0:0:
255,192,101920,1,0,0:0:0:0:
255,192,102092,1,8,0:0:0:0:
255,192,102178,1,8,0:0:0:0:
255,192,102263,1,8,0:0:0:0:
255,192,102435,1,8,0:0:0:0:
255,192,102778,1,0,0:0:0:0:
255,192,102892,1,0,0:0:0:0:
255,192,103006,1,0,0:0:0:0:
255,192,103121,1,8,0:0:0:0:
255,192,103463,1,4,0:0:0:0:
255,192,103806,1,0,0:0:0:0:
255,192,104149,1,8,0:0:0:0:
255,192,104321,1,8,0:0:0:0:
255,192,104492,1,0,0:0:0:0:
255,192,104663,1,0,0:0:0:0:
255,192,104835,1,8,0:0:0:0:
255,192,105178,1,8,0:0:0:0:
255,192,105349,1,0,0:0:0:0:
255,192,105521,1,8,0:0:0:0:
255,192,105692,1,8,0:0:0:0:
255,192,105863,1,0,0:0:0:0:
255,192,106206,1,4,0:0:0:0:
255,192,106549,1,8,0:0:0:0:
255,192,106721,1,0,0:0:0:0:
255,192,106892,1,8,0:0:0:0:
255,192,107235,1,8,0:0:0:0:
255,192,107321,1,8,0:0:0:0:
255,192,107406,1,8,0:0:0:0:
255,192,107578,1,0,0:0:0:0:
255,192,107749,1,8,0:0:0:0:
255,192,107921,1,8,0:0:0:0:
255,192,108263,1,8,0:0:0:0:
255,192,108435,1,0,0:0:0:0:
255,192,108606,1,12,0:0:0:0:
255,192,108949,1,4,0:0:0:0:
255,192,109292,1,8,0:0:0:0:
255,192,109635,1,8,0:0:0:0:
255,192,109807,1,0,0:0:0:0:
255,192,109978,1,8,0:0:0:0:
255,192,110149,1,0,0:0:0:0:
255,192,110321,1,8,0:0:0:0:
255,192,110664,1,8,0:0:0:0:
255,192,110835,1,0,0:0:0:0:
255,192,111007,1,8,0:0:0:0:
255,192,111178,1,8,0:0:0:0:
255,192,111349,1,4,0:0:0:0:
255,192,111692,1,0,0:0:0:0:
255,192,111864,1,0,0:0:0:0:
255,192,112035,1,8,0:0:0:0:
255,192,112207,1,0,0:0:0:0:
255,192,112378,1,8,0:0:0:0:
255,192,112635,1,8,0:0:0:0:
255,192,112892,1,8,0:0:0:0:
255,192,113064,1,0,0:0:0:0:
255,192,113235,1,0,0:0:0:0:
255,192,113407,1,8,0:0:0:0:
255,192,113578,1,8,0:0:0:0:
255,192,113749,1,0,0:0:0:0:
255,192,113835,1,0,0:0:0:0:
255,192,113921,1,0,0:0:0:0:
255,192,114092,1,12,0:0:0:0:
255,192,114435,1,4,0:0:0:0:
255,192,114778,1,0,0:0:0:0:
255,192,115121,1,8,0:0:0:0:
255,192,115293,1,8,0:0:0:0:
255,192,115464,1,0,0:0:0:0:
255,192,115635,1,0,0:0:0:0:
255,192,115807,1,8,0:0:0:0:
255,192,116150,1,8,0:0:0:0:
255,192,116321,1,0,0:0:0:0:
255,192,116493,1,8,0:0:0:0:
255,192,116664,1,8,0:0:0:0:
255,192,116835,1,0,0:0:0:0:
255,192,117178,1,4,0:0:0:0:
255,192,117521,1,8,0:0:0:0:
255,192,117693,1,0,0:0:0:0:
255,192,117864,1,8,0:0:0:0:
255,192,118207,1,8,0:0:0:0:
255,192,118293,1,8,0:0:0:0:
255,192,118378,1,8,0:0:0:0:
255,192,118550,1,0,0:0:0:0:
255,192,118721,1,8,0:0:0:0:
255,192,118893,1,8,0:0:0:0:
255,192,119235,1,8,0:0:0:0:
255,192,119407,1,0,0:0:0:0:
255,192,119578,1,12,0:0:0:0:
255,192,119921,1,4,0:0:0:0:
255,192,120264,1,8,0:0:0:0:
255,192,120607,1,8,0:0:0:0:
255,192,120779,1,0,0:0:0:0:
255,192,120950,1,8,0:0:0:0:
255,192,121121,1,0,0:0:0:0:
255,192,121293,1,8,0:0:0:0:
255,192,121636,1,8,0:0:0:0:
255,192,121807,1,8,0:0:0:0:
255,192,121979,1,0,0:0:0:0:
255,192,122150,1,0,0:0:0:0:
255,192,122321,1,12,0:0:0:0:
255,192,122664,1,0,0:0:0:0:
255,192,122836,1,0,0:0:0:0:
255,192,123007,1,8,0:0:0:0:
255,192,123179,1,0,0:0:0:0:
255,192,123350,1,8,0:0:0:0:
255,192,123607,1,8,0:0:0:0:
255,192,123864,1,8,0:0:0:0:
255,192,124036,1,0,0:0:0:0:
255,192,124207,1,8,0:0:0:0:
255,192,124292,1,8,0:0:0:0:
255,192,124379,1,8,0:0:0:0:
255,192,124635,1,0,0:0:0:0:
255,192,124807,1,8,0:0:0:0:
255,192,124978,1,0,0:0:0:0:
255,192,125064,1,8,0:0:0:0:
255,192,125235,1,0,0:0:0:0:
255,192,125406,1,12,0:0:0:0:
255,192,125921,1,8,0:0:0:0:
255,192,126264,1,0,0:0:0:0:
255,192,126435,1,8,0:0:0:0:
255,192,126778,1,8,0:0:0:0:
255,192,126949,1,0,0:0:0:0:
255,192,127292,1,0,0:0:0:0:
255,192,127464,1,8,0:0:0:0:
255,192,127807,1,0,0:0:0:0:
255,192,128149,1,8,0:0:0:0:
255,192,128492,1,0,0:0:0:0:
255,192,128835,1,8,0:0:0:0:
255,192,129092,1,8,0:0:0:0:
255,192,129349,1,8,0:0:0:0:
255,192,129521,1,0,0:0:0:0:
255,192,129864,1,8,0:0:0:0:
255,192,130035,1,0,0:0:0:0:
255,192,130378,1,8,0:0:0:0:
255,192,130549,1,0,0:0:0:0:
255,192,130892,1,0,0:0:0:0:
255,192,131064,1,8,0:0:0:0:
255,192,131407,1,8,0:0:0:0:
255,192,131921,1,8,0:0:0:0:
255,192,132264,1,0,0:0:0:0:
255,192,132607,1,0,0:0:0:0:
255,192,132949,1,8,0:0:0:0:
255,192,133207,1,8,0:0:0:0:
255,192,133464,1,8,0:0:0:0:
255,192,133635,1,0,0:0:0:0:
255,192,133978,1,8,0:0:0:0:
255,192,134149,1,0,0:0:0:0:
255,192,134321,1,8,0:0:0:0:
255,192,134578,1,8,0:0:0:0:
255,192,134835,1,8,0:0:0:0:
255,192,135007,1,0,0:0:0:0:
255,192,135264,1,0,0:0:0:0:
255,192,135521,1,0,0:0:0:0:
255,192,135692,1,8,0:0:0:0:
255,192,135778,1,8,0:0:0:0:
255,192,135864,1,8,0:0:0:0:
255,192,136035,1,0,0:0:0:0:
255,192,136207,1,8,0:0:0:0:
255,192,136378,1,4,0:0:0:0:
255,192,136892,1,8,0:0:0:0:
255,192,137064,1,0,0:0:0:0:
255,192,137235,1,0,0:0:0:0:
255,192,137406,1,8,0:0:0:0:
255,192,137749,1,8,0:0:0:0:
255,192,137920,1,0,0:0:0:0:
255,192,138263,1,0,0:0:0:0:
255,192,138435,1,8,0:0:0:0:
255,192,138778,1,0,0:0:0:0:
255,192,138949,1,0,0:0:0:0:
255,192,139120,1,8,0:0:0:0:
255,192,139463,1,8,0:0:0:0:
255,192,139635,1,0,0:0:0:0:
255,192,139806,1,8,0:0:0:0:
255,192,140063,1,8,0:0:0:0:
255,192,140320,1,8,0:0:0:0:
255,192,140492,1,0,0:0:0:0:
255,192,140835,1,8,0:0:0:0:
255,192,141178,1,0,0:0:0:0:
255,192,141349,1,8,0:0:0:0:
255,192,141520,1,0,0:0:0:0:
255,192,141863,1,0,0:0:0:0:
255,192,142378,1,8,0:0:0:0:
255,192,142720,1,0,0:0:0:0:
255,192,142892,1,8,0:0:0:0:
255,192,143063,1,0,0:0:0:0:
255,192,143235,1,8,0:0:0:0:
255,192,143578,1,8,0:0:0:0:
255,192,143749,1,0,0:0:0:0:
255,192,143920,1,8,0:0:0:0:
255,192,144178,1,8,0:0:0:0:
255,192,144435,1,8,0:0:0:0:
255,192,144606,1,0,0:0:0:0:
255,192,144949,1,0,0:0:0:0:
255,192,145120,1,0,0:0:0:0:
255,192,145292,1,8,0:0:0:0:
255,192,145549,1,8,0:0:0:0:
255,192,145806,1,8,0:0:0:0:
255,192,145978,1,0,0:0:0:0:
255,192,146235,1,0,0:0:0:0:
255,192,146492,1,0,0:0:0:0:
255,192,146663,1,8,0:0:0:0:
255,192,146835,1,0,0:0:0:0:
255,192,147006,1,8,0:0:0:0:
255,192,147349,1,4,0:0:0:0:
255,192,147864,1,0,0:0:0:0:
255,192,148035,1,8,0:0:0:0:
255,192,148378,1,8,0:0:0:0:
255,192,148549,1,8,0:0:0:0:
255,192,148721,1,4,0:0:0:0:
255,192,148978,1,8,0:0:0:0:
255,192,149235,1,4,0:0:0:0:
255,192,149492,1,8,0:0:0:0:
255,192,149749,1,4,0:0:0:0:
255,192,150092,1,4,0:0:0:0:
255,192,150607,1,0,0:0:0:0:
255,192,150778,1,8,0:0:0:0:
255,192,151121,1,8,0:0:0:0:
255,192,151292,1,8,0:0:0:0:
255,192,151464,1,4,0:0:0:0:
255,192,151721,1,8,0:0:0:0:
255,192,151978,1,4,0:0:0:0:
255,192,152235,1,8,0:0:0:0:
255,192,152492,1,4,0:0:0:0:
255,192,152835,1,4,0:0:0:0:
255,192,153350,1,0,0:0:0:0:
255,192,153521,1,8,0:0:0:0:
255,192,153864,1,8,0:0:0:0:
255,192,154035,1,8,0:0:0:0:
255,192,154207,1,4,0:0:0:0:
255,192,154463,1,8,0:0:0:0:
255,192,154721,1,4,0:0:0:0:
255,192,154978,1,8,0:0:0:0:
255,192,155235,1,4,0:0:0:0:
255,192,155578,1,4,0:0:0:0:
255,192,156093,1,0,0:0:0:0:
255,192,156264,1,8,0:0:0:0:
255,192,156607,1,8,0:0:0:0:
255,192,156778,1,8,0:0:0:0:
255,192,156950,1,4,0:0:0:0:
255,192,157293,1,4,0:0:0:0:
255,192,157635,1,4,0:0:0:0:
255,192,157978,1,4,0:0:0:0:
255,192,158321,1,4,0:0:0:0:
255,192,158835,1,0,0:0:0:0:
255,192,159007,1,8,0:0:0:0:
255,192,159349,1,0,0:0:0:0:
255,192,159521,1,0,0:0:0:0:
255,192,159692,1,8,0:0:0:0:
255,192,159949,1,0,0:0:0:0:
255,192,160035,1,8,0:0:0:0:
255,192,160207,1,8,0:0:0:0:
255,192,160378,1,0,0:0:0:0:
255,192,160721,1,0,0:0:0:0:
255,192,160892,1,8,0:0:0:0:
255,192,161064,1,4,0:0:0:0:
255,192,161578,1,0,0:0:0:0:
255,192,161750,1,8,0:0:0:0:
255,192,162092,1,8,0:0:0:0:
255,192,162264,1,0,0:0:0:0:
255,192,162435,1,8,0:0:0:0:
255,192,162692,1,8,0:0:0:0:
255,192,162778,1,8,0:0:0:0:
255,192,162950,1,0,0:0:0:0:
255,192,163121,1,8,0:0:0:0:
255,192,163464,1,0,0:0:0:0:
255,192,163635,1,8,0:0:0:0:
255,192,163807,1,4,0:0:0:0:
255,192,164321,1,8,0:0:0:0:
255,192,164492,1,0,0:0:0:0:
255,192,164663,1,0,0:0:0:0:
255,192,164835,1,8,0:0:0:0:
255,192,165006,1,8,0:0:0:0:
255,192,165178,1,4,0:0:0:0:
255,192,165692,1,0,0:0:0:0:
255,192,165863,1,8,0:0:0:0:
255,192,166035,1,0,0:0:0:0:
255,192,166206,1,8,0:0:0:0:
255,192,166378,1,8,0:0:0:0:
255,192,166549,1,0,0:0:0:0:
255,192,166807,1,8,0:0:0:0:
255,192,166892,1,0,0:0:0:0:
255,192,167064,1,0,0:0:0:0:
255,192,167235,1,8,0:0:0:0:
255,192,167406,1,8,0:0:0:0:
255,192,167578,1,0,0:0:0:0:
255,192,167750,1,8,0:0:0:0:
255,192,167921,1,0,0:0:0:0:
255,192,168179,1,8,0:0:0:0:
255,192,168264,1,0,0:0:0:0:
255,192,168436,1,0,0:0:0:0:
255,192,168607,1,8,0:0:0:0:
255,192,168692,1,8,0:0:0:0:
255,192,168778,1,8,0:0:0:0:
255,192,168949,1,0,0:0:0:0:
255,192,169121,1,8,0:0:0:0:
255,192,169292,1,4,0:0:0:0:
255,192,169806,1,8,0:0:0:0:
255,192,169978,1,0,0:0:0:0:
255,192,170063,1,8,0:0:0:0:
255,192,170321,1,8,0:0:0:0:
255,192,170492,1,8,0:0:0:0:
255,192,170663,1,0,0:0:0:0:
255,192,170921,1,8,0:0:0:0:
255,192,171006,1,0,0:0:0:0:
255,192,171178,1,8,0:0:0:0:
255,192,171349,1,0,0:0:0:0:
255,192,171435,1,0,0:0:0:0:
255,192,171692,1,8,0:0:0:0:
255,192,171863,1,0,0:0:0:0:
255,192,172035,1,8,0:0:0:0:
255,192,172292,1,0,0:0:0:0:
255,192,172378,1,8,0:0:0:0:
255,192,172549,1,0,0:0:0:0:
255,192,172721,1,8,0:0:0:0:
255,192,172806,1,0,0:0:0:0:
255,192,173063,1,8,0:0:0:0:
255,192,173235,1,0,0:0:0:0:
255,192,173406,1,8,0:0:0:0:
255,192,173663,1,0,0:0:0:0:
255,192,173749,1,8,0:0:0:0:
255,192,173921,1,0,0:0:0:0:
255,192,174092,1,8,0:0:0:0:
255,192,174178,1,8,0:0:0:0:
255,192,174435,1,0,0:0:0:0:
255,192,174606,1,8,0:0:0:0:
255,192,174778,1,0,0:0:0:0:
255,192,175292,1,0,0:0:0:0:
255,192,175464,1,8,0:0:0:0:
255,192,175549,1,0,0:0:0:0:
255,192,175807,1,8,0:0:0:0:
255,192,175978,1,0,0:0:0:0:
255,192,176149,1,8,0:0:0:0:
255,192,176407,1,0,0:0:0:0:
255,192,176492,1,8,0:0:0:0:
255,192,176664,1,8,0:0:0:0:
255,192,176835,1,0,0:0:0:0:
255,192,176921,1,0,0:0:0:0:
255,192,177178,1,8,0:0:0:0:
255,192,177349,1,0,0:0:0:0:
255,192,177521,1,8,0:0:0:0:
255,192,177778,1,0,0:0:0:0:
255,192,177864,1,8,0:0:0:0:
255,192,178035,1,8,0:0:0:0:
255,192,178207,1,0,0:0:0:0:
255,192,178292,1,8,0:0:0:0:
255,192,178549,1,0,0:0:0:0:
255,192,178721,1,8,0:0:0:0:
255,192,178892,1,0,0:0:0:0:
255,192,179149,1,8,0:0:0:0:
255,192,179235,1,0,0:0:0:0:
255,192,179407,1,8,0:0:0:0:
255,192,179578,1,0,0:0:0:0:
255,192,179664,1,0,0:0:0:0:
255,192,179921,1,8,0:0:0:0:
255,192,180092,1,8,0:0:0:0:
255,192,180264,1,0,0:0:0:0:
255,192,180778,1,8,0:0:0:0:
255,192,180950,1,0,0:0:0:0:
255,192,181035,1,8,0:0:0:0:
255,192,181293,1,0,0:0:0:0:
255,192,181464,1,8,0:0:0:0:
255,192,181635,1,0,0:0:0:0:
255,192,181893,1,8,0:0:0:0:
255,192,181978,1,0,0:0:0:0:
255,192,182150,1,8,0:0:0:0:
255,192,182321,1,0,0:0:0:0:
255,192,182407,1,0,0:0:0:0:
255,192,182664,1,8,0:0:0:0:
255,192,182835,1,0,0:0:0:0:
255,192,183007,1,8,0:0:0:0:
255,192,183264,1,0,0:0:0:0:
255,192,183350,1,8,0:0:0:0:
255,192,183521,1,0,0:0:0:0:
255,192,183693,1,8,0:0:0:0:
255,192,183778,1,8,0:0:0:0:
255,192,184035,1,8,0:0:0:0:
255,192,184207,1,0,0:0:0:0:
255,192,184378,1,8,0:0:0:0:
255,192,184635,1,0,0:0:0:0:
255,192,184721,1,8,0:0:0:0:
255,192,184893,1,0,0:0:0:0:
255,192,185064,1,8,0:0:0:0:
255,192,185150,1,8,0:0:0:0:
255,192,185407,1,0,0:0:0:0:
255,192,185578,1,8,0:0:0:0:
255,192,185750,1,0,0:0:0:0:
255,192,186264,1,0,0:0:0:0:
255,192,186436,1,8,0:0:0:0:
255,192,186521,1,0,0:0:0:0:
255,192,186779,1,8,0:0:0:0:
255,192,186950,1,8,0:0:0:0:
255,192,187121,1,0,0:0:0:0:
255,192,187379,1,8,0:0:0:0:
255,192,187463,1,0,0:0:0:0:
255,192,187636,1,0,0:0:0:0:
255,192,187807,1,8,0:0:0:0:
255,192,187892,1,8,0:0:0:0:
255,192,188150,1,8,0:0:0:0:
255,192,188321,1,8,0:0:0:0:
255,192,188493,1,0,0:0:0:0:
255,192,188750,1,8,0:0:0:0:
255,192,188836,1,8,0:0:0:0:
255,192,189007,1,0,0:0:0:0:
255,192,189179,1,8,0:0:0:0:
255,192,189263,1,0,0:0:0:0:
255,192,189521,1,8,0:0:0:0:
255,192,189693,1,8,0:0:0:0:
255,192,189864,1,0,0:0:0:0:
255,192,189950,1,0,0:0:0:0:
255,192,190035,1,0,0:0:0:0:
255,192,190207,1,8,0:0:0:0:
255,192,190379,1,0,0:0:0:0:
255,192,190550,1,8,0:0:0:0:
255,192,190806,1,0,0:0:0:0:
255,192,191064,1,8,0:0:0:0:
255,192,191578,1,4,0:0:0:0:
255,192,191921,1,8,0:0:0:0:
255,192,192178,1,8,0:0:0:0:
255,192,192264,1,0,0:0:0:0:
255,192,192436,1,8,0:0:0:0:
255,192,192607,1,0,0:0:0:0:
255,192,192950,1,8,0:0:0:0:
255,192,193121,1,8,0:0:0:0:
255,192,193293,1,0,0:0:0:0:
255,192,193378,1,8,0:0:0:0:
255,192,193550,1,8,0:0:0:0:
255,192,193636,1,0,0:0:0:0:
255,192,193807,1,8,0:0:0:0:
255,192,193978,1,4,0:0:0:0:
255,192,194664,1,0,0:0:0:0:
255,192,194921,1,8,0:0:0:0:
255,192,195007,1,0,0:0:0:0:
255,192,195179,1,8,0:0:0:0:
255,192,195350,1,0,0:0:0:0:
255,192,195693,1,0,0:0:0:0:
255,192,195864,1,8,0:0:0:0:
255,192,196036,1,0,0:0:0:0:
255,192,196121,1,8,0:0:0:0:
255,192,196293,1,0,0:0:0:0:
255,192,196379,1,8,0:0:0:0:
255,192,196550,1,0,0:0:0:0:
255,192,196721,1,12,0:0:0:0:
255,192,197064,1,8,0:0:0:0:
255,192,197236,1,0,0:0:0:0:
255,192,197321,1,8,0:0:0:0:
255,192,197492,1,8,0:0:0:0:
255,192,197578,1,0,0:0:0:0:
255,192,197750,1,8,0:0:0:0:
255,192,198093,1,0,0:0:0:0:
255,192,198263,1,0,0:0:0:0:
255,192,198436,1,8,0:0:0:0:
255,192,198607,1,0,0:0:0:0:
255,192,198692,1,8,0:0:0:0:
255,192,198863,1,8,0:0:0:0:
255,192,198949,1,0,0:0:0:0:
255,192,199121,1,8,0:0:0:0:
255,192,199464,1,0,0:0:0:0:
255,192,199635,1,8,0:0:0:0:
255,192,199806,1,0,0:0:0:0:
255,192,199977,1,0,0:0:0:0:
255,192,200149,1,8,0:0:0:0:
255,192,200406,1,8,0:0:0:0:
255,192,200492,1,0,0:0:0:0:
255,192,200663,1,0,0:0:0:0:
255,192,200835,1,8,0:0:0:0:
255,192,200921,1,8,0:0:0:0:
255,192,201006,1,8,0:0:0:0:
255,192,201178,1,8,0:0:0:0:
255,192,201521,1,0,0:0:0:0:
255,192,201606,1,0,0:0:0:0:
255,192,201692,1,0,0:0:0:0:
255,192,201864,1,8,0:0:0:0:
255,192,202206,1,4,0:0:0:0:
255,192,202549,1,0,0:0:0:0:
255,192,202892,1,8,0:0:0:0:
255,192,203064,1,8,0:0:0:0:
255,192,203235,1,0,0:0:0:0:
255,192,203406,1,0,0:0:0:0:
255,192,203578,1,8,0:0:0:0:
255,192,203921,1,8,0:0:0:0:
255,192,204092,1,0,0:0:0:0:
255,192,204264,1,8,0:0:0:0:
255,192,204435,1,8,0:0:0:0:
255,192,204606,1,0,0:0:0:0:
255,192,204949,1,4,0:0:0:0:
255,192,205292,1,8,0:0:0:0:
255,192,205464,1,0,0:0:0:0:
255,192,205635,1,8,0:0:0:0:
255,192,205978,1,8,0:0:0:0:
255,192,206064,1,8,0:0:0:0:
255,192,206149,1,8,0:0:0:0:
255,192,206321,1,0,0:0:0:0:
255,192,206492,1,8,0:0:0:0:
255,192,206664,1,8,0:0:0:0:
255,192,207006,1,8,0:0:0:0:
255,192,207178,1,0,0:0:0:0:
255,192,207349,1,12,0:0:0:0:
255,192,207692,1,4,0:0:0:0:
255,192,208035,1,8,0:0:0:0:
255,192,208378,1,8,0:0:0:0:
255,192,208550,1,0,0:0:0:0:
255,192,208721,1,8,0:0:0:0:
255,192,208892,1,0,0:0:0:0:
255,192,209064,1,8,0:0:0:0:
255,192,209407,1,8,0:0:0:0:
255,192,209578,1,8,0:0:0:0:
255,192,209750,1,0,0:0:0:0:
255,192,209921,1,0,0:0:0:0:
255,192,210092,1,12,0:0:0:0:
255,192,210435,1,0,0:0:0:0:
255,192,210607,1,0,0:0:0:0:
255,192,210778,1,8,0:0:0:0:
255,192,210950,1,0,0:0:0:0:
255,192,211121,1,8,0:0:0:0:
255,192,211378,1,8,0:0:0:0:
255,192,211635,1,8,0:0:0:0:
255,192,211807,1,0,0:0:0:0:
255,192,211978,1,8,0:0:0:0:
255,192,212063,1,8,0:0:0:0:
255,192,212150,1,8,0:0:0:0:
255,192,212406,1,0,0:0:0:0:
255,192,212578,1,8,0:0:0:0:
255,192,212749,1,0,0:0:0:0:
255,192,212835,1,8,0:0:0:0:
255,192,213006,1,8,0:0:0:0:
255,192,213178,1,4,0:0:0:0:
255,192,213692,1,0,0:0:0:0:
255,192,213864,1,8,0:0:0:0:
255,192,214035,1,0,0:0:0:0:
255,192,214206,1,8,0:0:0:0:
255,192,214549,1,8,0:0:0:0:
255,192,214720,1,8,0:0:0:0:
255,192,215063,1,0,0:0:0:0:
255,192,215235,1,8,0:0:0:0:
255,192,215407,1,8,0:0:0:0:
255,192,215578,1,0,0:0:0:0:
255,192,215920,1,0,0:0:0:0:
255,192,216006,1,0,0:0:0:0:
255,192,216092,1,0,0:0:0:0:
255,192,216263,1,8,0:0:0:0:
255,192,216606,1,8,0:0:0:0:
255,192,216863,1,8,0:0:0:0:
255,192,217120,1,8,0:0:0:0:
255,192,217292,1,0,0:0:0:0:
255,192,217635,1,8,0:0:0:0:
255,192,217806,1,8,0:0:0:0:
255,192,217978,1,0,0:0:0:0:
255,192,218149,1,0,0:0:0:0:
255,192,218320,1,8,0:0:0:0:
255,192,218663,1,8,0:0:0:0:
255,192,218749,1,8,0:0:0:0:
255,192,218835,1,8,0:0:0:0:
255,192,219006,1,0,0:0:0:0:
255,192,219178,1,8,0:0:0:0:
255,192,219692,1,8,0:0:0:0:
255,192,220035,1,8,0:0:0:0:
255,192,220206,1,0,0:0:0:0:
255,192,220378,1,8,0:0:0:0:
255,192,220720,1,8,0:0:0:0:
255,192,220978,1,8,0:0:0:0:
255,192,221235,1,8,0:0:0:0:
255,192,221406,1,0,0:0:0:0:
255,192,221492,1,0,0:0:0:0:
255,192,221578,1,0,0:0:0:0:
255,192,221749,1,8,0:0:0:0:
255,192,221920,1,0,0:0:0:0:
255,192,222092,1,8,0:0:0:0:
255,192,222349,1,8,0:0:0:0:
255,192,222606,1,8,0:0:0:0:
255,192,222778,1,0,0:0:0:0:
255,192,223035,1,0,0:0:0:0:
255,192,223292,1,0,0:0:0:0:
255,192,223463,1,8,0:0:0:0:
255,192,223806,1,8,0:0:0:0:
255,192,223978,1,0,0:0:0:0:
255,192,224149,1,8,0:0:0:0:
255,192,224235,1,8,0:0:0:0:
255,192,224321,1,8,0:0:0:0:
255,192,224663,1,8,0:0:0:0:
255,192,225177,1,8,0:0:0:0:
255,192,225349,1,0,0:0:0:0:
255,192,225520,1,8,0:0:0:0:
255,192,225691,1,0,0:0:0:0:
255,192,226034,1,0,0:0:0:0:
255,192,226206,1,8,0:0:0:0:
255,192,226378,1,0,0:0:0:0:
255,192,226549,1,8,0:0:0:0:
255,192,226891,1,0,0:0:0:0:
255,192,226977,1,0,0:0:0:0:
255,192,227063,1,0,0:0:0:0:
255,192,227234,1,8,0:0:0:0:
255,192,227406,1,0,0:0:0:0:
255,192,227577,1,8,0:0:0:0:
255,192,227834,1,8,0:0:0:0:
255,192,228091,1,8,0:0:0:0:
255,192,228263,1,0,0:0:0:0:
255,192,228606,1,8,0:0:0:0:
255,192,228777,1,8,0:0:0:0:
255,192,228949,1,0,0:0:0:0:
255,192,229120,1,8,0:0:0:0:
255,192,229291,1,0,0:0:0:0:
255,192,229634,1,8,0:0:0:0:
255,192,229720,1,8,0:0:0:0:
255,192,229806,1,8,0:0:0:0:
255,192,229978,1,0,0:0:0:0:
255,192,230149,1,8,0:0:0:0:
255,192,230663,1,0,0:0:0:0:
255,192,231006,1,8,0:0:0:0:
255,192,231178,1,0,0:0:0:0:
255,192,231349,1,8,0:0:0:0:
255,192,231691,1,8,0:0:0:0:
255,192,231949,1,8,0:0:0:0:
255,192,232206,1,8,0:0:0:0:
255,192,232377,1,0,0:0:0:0:
255,192,232720,1,0,0:0:0:0:
255,192,232891,1,0,0:0:0:0:
255,192,233063,1,8,0:0:0:0:
255,192,233320,1,8,0:0:0:0:
255,192,233577,1,8,0:0:0:0:
255,192,233749,1,0,0:0:0:0:
255,192,234006,1,8,0:0:0:0:
255,192,234263,1,0,0:0:0:0:
255,192,234434,1,8,0:0:0:0:
255,192,234606,1,0,0:0:0:0:
255,192,234692,1,0,0:0:0:0:
255,192,234777,1,0,0:0:0:0:
255,192,234949,1,8,0:0:0:0:
255,192,235121,1,4,0:0:0:0:
255,192,235635,1,8,0:0:0:0:
255,192,235978,1,0,0:0:0:0:
255,192,236149,1,8,0:0:0:0:
255,192,236492,1,8,0:0:0:0:
255,192,236663,1,0,0:0:0:0:
255,192,237006,1,0,0:0:0:0:
255,192,237178,1,8,0:0:0:0:
255,192,237521,1,0,0:0:0:0:
255,192,237863,1,8,0:0:0:0:
255,192,238035,1,0,0:0:0:0:
255,192,238206,1,8,0:0:0:0:
255,192,238549,1,8,0:0:0:0:
255,192,238806,1,8,0:0:0:0:
255,192,239063,1,8,0:0:0:0:
255,192,239235,1,0,0:0:0:0:
255,192,239578,1,8,0:0:0:0:
255,192,239921,1,0,0:0:0:0:
255,192,240092,1,8,0:0:0:0:
255,192,240263,1,0,0:0:0:0:
255,192,240606,1,8,0:0:0:0:
255,192,241121,1,8,0:0:0:0:
255,192,241292,1,0,0:0:0:0:
255,192,241635,1,8,0:0:0:0:
255,192,241978,1,8,0:0:0:0:
255,192,242149,1,0,0:0:0:0:
255,192,242321,1,8,0:0:0:0:
255,192,242663,1,8,0:0:0:0:
255,192,242921,1,8,0:0:0:0:
255,192,243178,1,8,0:0:0:0:
255,192,243349,1,0,0:0:0:0:
255,192,243692,1,0,0:0:0:0:
255,192,244035,1,8,0:0:0:0:
255,192,244292,1,8,0:0:0:0:
255,192,244549,1,8,0:0:0:0:
255,192,244721,1,0,0:0:0:0:
255,192,244978,1,0,0:0:0:0:
255,192,245235,1,0,0:0:0:0:
255,192,245406,1,8,0:0:0:0:
255,192,245492,1,8,0:0:0:0:
255,192,245578,1,8,0:0:0:0:
255,192,245749,1,0,0:0:0:0:
255,192,245921,1,8,0:0:0:0:
255,192,246092,1,4,0:0:0:0:
255,192,246606,1,0,0:0:0:0:
255,192,246778,1,8,0:0:0:0:
255,192,247121,1,0,0:0:0:0:
255,192,247463,1,0,0:0:0:0:
255,192,247635,1,8,0:0:0:0:
255,192,247978,1,8,0:0:0:0:
255,192,248149,1,0,0:0:0:0:
255,192,248492,1,0,0:0:0:0:
255,192,248835,1,8,0:0:0:0:
255,192,249178,1,0,0:0:0:0:
255,192,249521,1,8,0:0:0:0:
255,192,249778,1,8,0:0:0:0:
255,192,250035,1,8,0:0:0:0:
255,192,250206,1,0,0:0:0:0:
255,192,250549,1,8,0:0:0:0:
255,192,250892,1,0,0:0:0:0:
255,192,251235,1,8,0:0:0:0:
255,192,251578,1,0,0:0:0:0:
255,192,252092,1,8,0:0:0:0:
255,192,252263,1,0,0:0:0:0:
255,192,252606,1,8,0:0:0:0:
255,192,252949,1,0,0:0:0:0:
255,192,253292,1,8,0:0:0:0:
255,192,253635,1,8,0:0:0:0:
255,192,253978,1,8,0:0:0:0:
255,192,254321,1,0,0:0:0:0:
255,192,254663,1,8,0:0:0:0:
255,192,255006,1,8,0:0:0:0:
255,192,255349,1,8,0:0:0:0:
255,192,255692,1,0,0:0:0:0:
255,192,256034,1,8,0:0:0:0:
255,192,256377,1,8,0:0:0:0:
255,192,256720,1,8,0:0:0:0:
255,192,256892,1,0,0:0:0:0:
