osu file format v14

[General]
AudioFilename: audio.mp3
AudioLeadIn: 0
PreviewTime: 24950
Countdown: 0
SampleSet: Soft
StackLeniency: 0.7
Mode: 3
LetterboxInBreaks: 0
SpecialStyle: 0
WidescreenStoryboard: 1

[Editor]
Bookmarks: 13979,24950,36608,46893,57865,68836,79808,90779,112722
DistanceSpacing: 1.8
BeatDivisor: 4
GridSize: 32
TimelineZoom: 2.599999

[Metadata]
Title:Black sour Ruby
TitleUnicode:Black sour Ruby
Artist:EmoCosine
ArtistUnicode:EmoCosine
Creator:Ppass
Version:Nicknem's Insane
Source:EZ2AC : TIME TRAVELLER
Tags:Maiiy Nicknem_ Antipole 4kmt korean mania tournament ez2on reboot r emoco. dynamix EMCD-0001 my future your memory fa featured artist mappers' guild mpg electronic instrumental happy hardcore Hybrid Tech LN Longnote
BeatmapID:4373549
BeatmapSetID:2019474

[Difficulty]
HPDrainRate:8
CircleSize:4
OverallDifficulty:7.8
ApproachRate:5
SliderMultiplier:1.4
SliderTickRate:1

[Events]
//Background and Video events
0,0,"pink.png",0,0
//Break Periods
//Storyboard Layer 0 (Background)
//Storyboard Layer 1 (Fail)
//Storyboard Layer 2 (Pass)
//Storyboard Layer 3 (Foreground)
//Storyboard Layer 4 (Overlay)
//Storyboard Sound Samples
Sample,46550,0,"Percussion Hey sound.wav",70
Sample,101579,0,"soft-hitclap.wav",10

[TimingPoints]
3008,342.857142857143,4,2,1,70,1,0
24950,-100,4,2,1,70,0,1
35922,-100,4,2,1,70,0,0
36608,-100,4,2,1,70,0,1
46893,-100,4,2,1,70,0,0
101750,-100,4,2,1,70,0,1
123693,-100,4,2,1,70,0,0

[HitObjects]
320,192,3007,5,0,0:0:0:0:
448,192,3007,1,0,0:0:0:0:
192,192,3093,1,0,0:0:0:0:
448,192,3179,1,0,0:0:0:0:
320,192,3350,128,0,3693:0:0:0:0:
192,192,3522,1,0,0:0:0:0:
64,192,3693,128,0,3865:0:0:0:0:
192,192,3865,128,0,4208:0:0:0:0:
320,192,3865,1,0,0:0:0:0:
320,192,4036,1,0,0:0:0:0:
448,192,4036,1,0,0:0:0:0:
320,192,4379,128,0,4722:0:0:0:0:
448,192,4379,128,0,5236:0:0:0:0:
64,192,4550,1,0,0:0:0:0:
192,192,4893,128,0,5236:0:0:0:0:
320,192,4893,128,0,5750:0:0:0:0:
64,192,5065,1,0,0:0:0:0:
64,192,5408,128,0,5665:0:0:0:0:
448,192,5408,128,0,5750:0:0:0:0:
192,192,5579,1,0,0:0:0:0:
64,192,5750,1,0,0:0:0:0:
192,192,5750,1,0,0:0:0:0:
320,192,5836,1,0,0:0:0:0:
64,192,5922,1,0,0:0:0:0:
192,192,6093,128,0,6436:0:0:0:0:
320,192,6265,1,0,0:0:0:0:
448,192,6436,128,0,6779:0:0:0:0:
192,192,6608,1,0,0:0:0:0:
320,192,6608,128,0,6950:0:0:0:0:
64,192,6779,1,0,0:0:0:0:
192,192,6779,1,0,0:0:0:0:
64,192,7122,128,0,7979:0:0:0:0:
192,192,7122,128,0,7465:0:0:0:0:
448,192,7293,1,0,0:0:0:0:
320,192,7636,128,0,7979:0:0:0:0:
448,192,7636,128,0,8408:0:0:0:0:
192,192,7808,1,0,0:0:0:0:
64,192,8150,128,0,8493:0:0:0:0:
192,192,8150,128,0,8493:0:0:0:0:
320,192,8322,1,0,0:0:0:0:
320,192,8493,1,0,0:0:0:0:
448,192,8493,1,0,0:0:0:0:
192,192,8579,1,0,0:0:0:0:
448,192,8665,1,0,0:0:0:0:
320,192,8836,128,0,9179:0:0:0:0:
192,192,9008,1,0,0:0:0:0:
64,192,9179,128,0,9522:0:0:0:0:
192,192,9350,128,0,9693:0:0:0:0:
320,192,9350,1,0,0:0:0:0:
320,192,9522,1,0,0:0:0:0:
448,192,9522,1,0,0:0:0:0:
320,192,9865,128,0,10208:0:0:0:0:
448,192,9865,128,0,10722:0:0:0:0:
192,192,10036,1,0,0:0:0:0:
192,192,10379,128,0,10722:0:0:0:0:
320,192,10379,128,0,11236:0:0:0:0:
64,192,10550,1,0,0:0:0:0:
64,192,10893,128,0,11150:0:0:0:0:
448,192,10893,128,0,11236:0:0:0:0:
192,192,11065,1,0,0:0:0:0:
64,192,11236,1,0,0:0:0:0:
192,192,11236,1,0,0:0:0:0:
320,192,11322,1,0,0:0:0:0:
64,192,11408,1,0,0:0:0:0:
192,192,11579,128,0,11922:0:0:0:0:
320,192,11750,1,0,0:0:0:0:
448,192,11922,128,0,12265:0:0:0:0:
192,192,12093,1,0,0:0:0:0:
320,192,12093,128,0,12436:0:0:0:0:
64,192,12265,1,0,0:0:0:0:
192,192,12265,1,0,0:0:0:0:
64,192,12608,128,0,13293:0:0:0:0:
192,192,12608,128,0,12950:0:0:0:0:
448,192,12779,1,0,0:0:0:0:
320,192,13122,128,0,13208:0:0:0:0:
448,192,13122,128,0,13979:0:0:0:0:
320,192,13293,128,0,13379:0:0:0:0:
64,192,13379,128,0,13465:0:0:0:0:
192,192,13465,128,0,13550:0:0:0:0:
64,192,13550,128,0,13636:0:0:0:0:
320,192,13636,128,0,13722:0:0:0:0:
192,192,13722,128,0,13808:0:0:0:0:
64,192,13808,128,0,13893:0:0:0:0:
320,192,13893,128,0,13979:0:0:0:0:
64,192,13979,1,2,0:0:0:0:
192,192,13979,1,4,0:0:0:0:
320,192,14065,1,0,0:0:0:0:
64,192,14150,1,0,0:0:0:0:
192,192,14322,128,2,14665:0:0:0:0:
320,192,14322,128,0,14408:0:0:0:0:
448,192,14322,1,0,0:0:0:0:
320,192,14493,1,0,0:0:0:0:
64,192,14579,1,0,0:0:0:0:
448,192,14665,128,2,14836:0:0:0:0:
192,192,14836,128,0,14922:0:0:0:0:
320,192,14836,128,0,15179:0:0:0:0:
448,192,14922,1,2,0:0:0:0:
64,192,15008,1,0,0:0:0:0:
192,192,15008,1,0,0:0:0:0:
64,192,15179,1,2,0:0:0:0:
448,192,15179,1,0,0:0:0:0:
320,192,15265,1,0,0:0:0:0:
64,192,15350,128,2,15865:0:0:0:0:
192,192,15350,128,0,15693:0:0:0:0:
320,192,15436,1,0,0:0:0:0:
448,192,15522,1,0,0:0:0:0:
320,192,15693,1,2,0:0:0:0:
448,192,15693,1,0,0:0:0:0:
192,192,15865,128,0,16550:0:0:0:0:
320,192,15865,128,0,16036:0:0:0:0:
64,192,16036,1,2,0:0:0:0:
448,192,16036,1,0,0:0:0:0:
320,192,16122,1,0,0:0:0:0:
64,192,16208,1,0,0:0:0:0:
320,192,16293,1,2,0:0:0:0:
448,192,16293,1,0,0:0:0:0:
64,192,16379,128,0,16550:0:0:0:0:
320,192,16550,1,2,0:0:0:0:
448,192,16550,1,0,0:0:0:0:
192,192,16636,1,0,0:0:0:0:
320,192,16722,1,2,0:0:0:0:
448,192,16722,1,0,0:0:0:0:
192,192,16808,1,0,0:0:0:0:
448,192,16893,1,0,0:0:0:0:
64,192,17065,1,2,0:0:0:0:
192,192,17065,128,0,17150:0:0:0:0:
320,192,17065,128,0,17408:0:0:0:0:
192,192,17236,1,0,0:0:0:0:
448,192,17322,1,0,0:0:0:0:
64,192,17408,128,2,17579:0:0:0:0:
192,192,17579,128,0,17922:0:0:0:0:
320,192,17579,128,0,17665:0:0:0:0:
64,192,17665,1,2,0:0:0:0:
320,192,17750,1,0,0:0:0:0:
448,192,17750,1,0,0:0:0:0:
64,192,17922,1,2,0:0:0:0:
448,192,17922,1,0,0:0:0:0:
192,192,18008,1,0,0:0:0:0:
320,192,18093,128,2,18350:0:0:0:0:
448,192,18093,128,0,18608:0:0:0:0:
64,192,18265,1,0,0:0:0:0:
192,192,18350,1,0,0:0:0:0:
64,192,18436,1,2,0:0:0:0:
320,192,18436,1,0,0:0:0:0:
192,192,18608,128,0,18693:0:0:0:0:
320,192,18608,128,0,19293:0:0:0:0:
448,192,18693,1,0,0:0:0:0:
64,192,18779,1,2,0:0:0:0:
192,192,18779,1,0,0:0:0:0:
448,192,18865,1,0,0:0:0:0:
64,192,18950,1,0,0:0:0:0:
192,192,19036,1,2,0:0:0:0:
448,192,19036,1,0,0:0:0:0:
64,192,19122,128,0,19379:0:0:0:0:
192,192,19208,128,0,19379:0:0:0:0:
448,192,19293,1,2,0:0:0:0:
320,192,19379,1,0,0:0:0:0:
64,192,19465,1,2,0:0:0:0:
192,192,19465,1,8,0:0:0:0:
448,192,19465,1,0,0:0:0:0:
320,192,19550,1,0,0:0:0:0:
192,192,19636,1,8,0:0:0:0:
64,192,19722,1,8,0:0:0:0:
320,192,19808,1,2,0:0:0:0:
448,192,19808,1,0,0:0:0:0:
192,192,19893,1,8,0:0:0:0:
64,192,19979,1,8,0:0:0:0:
448,192,19979,1,0,0:0:0:0:
192,192,20065,1,8,0:0:0:0:
320,192,20065,1,0,0:0:0:0:
64,192,20150,1,2,0:0:0:0:
448,192,20150,1,8,0:0:0:0:
64,192,20322,1,8,0:0:0:0:
192,192,20322,1,0,0:0:0:0:
64,192,20493,1,8,0:0:0:0:
448,192,20493,1,0,0:0:0:0:
320,192,20665,1,2,0:0:0:0:
448,192,20665,1,8,0:0:0:0:
64,192,20836,1,2,0:0:0:0:
192,192,20836,1,8,0:0:0:0:
448,192,20922,1,0,0:0:0:0:
320,192,21008,1,8,0:0:0:0:
448,192,21093,1,8,0:0:0:0:
64,192,21179,1,2,0:0:0:0:
192,192,21179,1,0,0:0:0:0:
320,192,21265,1,8,0:0:0:0:
64,192,21350,1,8,0:0:0:0:
448,192,21350,1,0,0:0:0:0:
192,192,21436,1,8,0:0:0:0:
320,192,21436,1,0,0:0:0:0:
64,192,21522,1,2,0:0:0:0:
448,192,21522,1,8,0:0:0:0:
320,192,21693,1,8,0:0:0:0:
448,192,21693,1,0,0:0:0:0:
64,192,21865,1,8,0:0:0:0:
448,192,21865,1,0,0:0:0:0:
64,192,22036,1,2,0:0:0:0:
192,192,22036,1,8,0:0:0:0:
64,192,22208,1,2,0:0:0:0:
448,192,22208,1,8,0:0:0:0:
192,192,22293,1,0,0:0:0:0:
320,192,22379,1,2,0:0:0:0:
448,192,22379,1,0,0:0:0:0:
64,192,22465,1,0,0:0:0:0:
192,192,22550,1,2,0:0:0:0:
320,192,22550,1,0,0:0:0:0:
448,192,22636,1,0,0:0:0:0:
64,192,22722,1,2,0:0:0:0:
192,192,22722,1,0,0:0:0:0:
320,192,22808,1,0,0:0:0:0:
64,192,22893,1,2,0:0:0:0:
448,192,22893,1,0,0:0:0:0:
192,192,22979,1,0,0:0:0:0:
320,192,23065,1,2,0:0:0:0:
448,192,23065,1,0,0:0:0:0:
192,192,23150,1,0,0:0:0:0:
64,192,23236,1,2,0:0:0:0:
448,192,23236,1,0,0:0:0:0:
320,192,23322,1,0,0:0:0:0:
64,192,23408,1,2,0:0:0:0:
192,192,23408,1,0,0:0:0:0:
448,192,23493,1,0,0:0:0:0:
64,192,23579,1,2,0:0:0:0:
192,192,23579,1,0,0:0:0:0:
320,192,23665,1,2,0:0:0:0:
448,192,23665,1,0,0:0:0:0:
64,192,23750,1,2,0:0:0:0:
192,192,23750,1,0,0:0:0:0:
320,192,23836,1,2,0:0:0:0:
448,192,23836,1,0,0:0:0:0:
64,192,23922,1,2,0:0:0:0:
192,192,23922,1,0,0:0:0:0:
448,192,24008,1,2,0:0:0:0:
320,192,24093,1,2,0:0:0:0:
64,192,24179,1,2,0:0:0:0:
192,192,24265,128,0,24522:0:0:0:70:FX Squeeze 2.wav
64,192,24350,128,0,24522:0:0:0:0:
448,192,24436,128,0,24522:0:0:0:70:FX Squeeze 1.wav
64,192,24608,128,0,24865:0:0:0:0:
320,192,24608,128,0,24693:0:0:0:0:
448,192,24608,128,0,24779:0:0:0:0:
320,192,24950,128,2,25036:0:0:0:0:
448,192,24950,128,4,25208:0:0:0:0:
192,192,25036,1,0,0:0:0:0:
64,192,25122,1,0,0:0:0:0:
320,192,25208,1,0,0:0:0:0:
64,192,25293,128,2,25550:0:0:0:0:
192,192,25293,128,0,25379:0:0:0:0:
448,192,25379,1,0,0:0:0:0:
320,192,25465,1,0,0:0:0:0:
448,192,25550,1,0,0:0:0:0:
64,192,25636,128,2,25722:0:0:0:0:
192,192,25636,128,0,25722:0:0:0:100:Drum Clap.wav
320,192,25636,1,0,0:0:0:0:
64,192,25808,1,0,0:0:0:0:
192,192,25893,128,2,25979:0:0:0:0:
320,192,25893,128,0,25979:0:0:0:0:
448,192,25893,1,0,0:0:0:0:
192,192,26065,1,0,0:0:0:0:
64,192,26150,1,2,0:0:0:0:
320,192,26150,128,0,26236:0:0:0:0:
448,192,26150,128,0,26236:0:0:0:0:
64,192,26322,1,2,0:0:0:0:
320,192,26322,1,0,0:0:0:0:
448,192,26322,1,0,0:0:0:0:
64,192,26493,128,0,26579:0:0:0:0:
192,192,26493,1,0,0:0:0:0:
320,192,26579,1,0,0:0:0:0:
448,192,26579,1,0,0:0:0:0:
64,192,26665,1,2,0:0:0:0:
192,192,26665,128,0,26750:0:0:0:0:
448,192,26750,1,0,0:0:0:0:
64,192,26836,1,0,0:0:0:0:
320,192,26836,128,0,26922:0:0:0:0:
192,192,26922,1,0,0:0:0:0:
64,192,27008,1,2,0:0:0:0:
320,192,27008,1,0,0:0:0:100:Drum Clap.wav
448,192,27008,128,0,27093:0:0:0:0:
192,192,27093,1,0,0:0:0:0:
64,192,27179,128,0,27265:0:0:0:0:
192,192,27265,1,2,0:0:0:0:
320,192,27265,1,0,0:0:0:0:
448,192,27350,128,0,27436:0:0:0:0:
64,192,27436,1,0,0:0:0:0:
192,192,27522,1,2,0:0:0:0:
320,192,27522,128,0,27608:0:0:0:0:
448,192,27608,1,0,0:0:0:0:
64,192,27693,128,2,27950:0:0:0:0:
192,192,27693,128,0,27779:0:0:0:0:
320,192,27779,1,0,0:0:0:0:
448,192,27865,1,0,0:0:0:0:
192,192,27950,1,0,0:0:0:0:
320,192,28036,128,2,28122:0:0:0:0:
448,192,28036,128,0,28293:0:0:0:0:
64,192,28122,1,0,0:0:0:0:
192,192,28208,1,0,0:0:0:0:
64,192,28293,1,0,0:0:0:0:
192,192,28379,1,2,0:0:0:0:
320,192,28379,128,0,28465:0:0:0:100:Drum Clap.wav
448,192,28379,128,0,28465:0:0:0:0:
448,192,28550,1,0,0:0:0:0:
64,192,28636,1,2,0:0:0:0:
192,192,28636,128,0,28722:0:0:0:0:
320,192,28636,128,0,28722:0:0:0:0:
320,192,28808,1,0,0:0:0:0:
64,192,28893,128,2,28979:0:0:0:0:
192,192,28893,128,0,28979:0:0:0:0:
448,192,28893,1,0,0:0:0:0:
64,192,29065,1,2,0:0:0:0:
192,192,29065,1,0,0:0:0:0:
320,192,29065,1,0,0:0:0:0:
320,192,29236,128,0,29322:0:0:0:0:
448,192,29236,1,0,0:0:0:0:
64,192,29322,1,0,0:0:0:0:
192,192,29322,1,0,0:0:0:0:
320,192,29408,1,2,0:0:0:0:
448,192,29408,1,0,0:0:0:0:
192,192,29493,1,0,0:0:0:0:
64,192,29579,1,0,0:0:0:0:
448,192,29579,128,0,29665:0:0:0:0:
320,192,29665,128,0,29750:0:0:0:0:
64,192,29750,128,2,29836:0:0:0:0:
192,192,29750,1,0,0:0:0:100:Drum Clap.wav
448,192,29750,1,0,0:0:0:0:
320,192,29836,1,0,0:0:0:0:
192,192,29922,128,0,30008:0:0:0:0:
64,192,30008,1,2,0:0:0:0:
320,192,30008,1,0,0:0:0:0:
448,192,30093,128,0,30179:0:0:0:0:
192,192,30179,1,0,0:0:0:0:
320,192,30265,128,2,30350:0:0:0:0:
448,192,30265,1,0,0:0:0:0:
64,192,30350,1,0,0:0:0:0:
192,192,30436,1,2,0:0:0:0:
320,192,30436,128,0,30522:0:0:0:0:
448,192,30436,128,0,30693:0:0:0:0:
64,192,30522,1,0,0:0:0:0:
192,192,30608,1,0,0:0:0:0:
320,192,30693,1,0,0:0:0:0:
64,192,30779,128,2,31036:0:0:0:0:
192,192,30779,128,0,30865:0:0:0:0:
448,192,30865,1,0,0:0:0:0:
320,192,30950,1,0,0:0:0:0:
448,192,31036,1,0,0:0:0:0:
64,192,31122,128,2,31208:0:0:0:0:
192,192,31122,128,0,31208:0:0:0:100:Drum Clap.wav
320,192,31122,1,0,0:0:0:0:
192,192,31293,1,0,0:0:0:0:
64,192,31379,1,2,0:0:0:0:
320,192,31379,128,0,31465:0:0:0:0:
448,192,31379,128,0,31465:0:0:0:0:
192,192,31550,1,0,0:0:0:0:
64,192,31636,128,2,31722:0:0:0:0:
320,192,31636,1,0,0:0:0:0:
448,192,31636,128,0,31722:0:0:0:0:
64,192,31808,1,2,0:0:0:0:
320,192,31808,1,0,0:0:0:0:
448,192,31808,1,0,0:0:0:0:
320,192,31979,1,0,0:0:0:0:
448,192,31979,128,0,32065:0:0:0:0:
64,192,32065,1,0,0:0:0:0:
192,192,32065,1,0,0:0:0:0:
320,192,32150,128,2,32236:0:0:0:0:
448,192,32150,1,0,0:0:0:0:
64,192,32236,1,0,0:0:0:0:
192,192,32322,128,0,32408:0:0:0:0:
448,192,32322,1,0,0:0:0:0:
320,192,32408,1,0,0:0:0:0:
64,192,32493,128,2,32579:0:0:0:0:
192,192,32493,1,0,0:0:0:100:Drum Clap.wav
448,192,32493,1,0,0:0:0:0:
320,192,32579,1,0,0:0:0:0:
448,192,32665,128,0,32750:0:0:0:0:
192,192,32750,1,2,0:0:0:0:
320,192,32750,1,0,0:0:0:0:
64,192,32836,128,0,32922:0:0:0:0:
448,192,32922,1,0,0:0:0:0:
192,192,33008,128,2,33093:0:0:0:0:
320,192,33008,1,0,0:0:0:0:
448,192,33093,1,0,0:0:0:0:
64,192,33179,128,2,33522:0:0:0:0:
192,192,33179,128,0,33265:0:0:0:0:
320,192,33265,1,0,0:0:0:0:
448,192,33350,1,0,0:0:0:0:
192,192,33436,1,0,0:0:0:0:
320,192,33522,128,2,33608:0:0:0:0:
448,192,33522,128,0,33865:0:0:0:0:
64,192,33608,1,0,0:0:0:0:
192,192,33693,128,0,33779:0:0:0:0:
320,192,33693,128,0,33779:0:0:0:0:
64,192,33865,128,2,33950:0:0:0:0:
192,192,33865,128,0,33950:0:0:0:100:Drum Clap.wav
320,192,33865,1,0,0:0:0:0:
64,192,34036,1,0,0:0:0:0:
192,192,34122,1,2,0:0:0:0:
320,192,34122,128,0,34208:0:0:0:0:
448,192,34122,128,0,34208:0:0:0:0:
320,192,34293,1,0,0:0:0:0:
64,192,34379,1,2,0:0:0:0:
192,192,34379,128,0,34465:0:0:0:0:
448,192,34379,128,0,34465:0:0:0:0:
64,192,34550,1,2,0:0:0:0:
192,192,34550,1,0,0:0:0:0:
448,192,34550,1,0,0:0:0:0:
320,192,34722,1,0,0:0:0:70:Drum Snare.wav
448,192,34722,1,0,0:0:0:0:
192,192,34808,1,0,0:0:0:70:Drum Snare.wav
64,192,34893,1,2,0:0:0:0:
320,192,34893,1,0,0:0:0:70:Drum Snare.wav
64,192,35065,1,0,0:0:0:70:Drum Snare.wav
320,192,35065,1,0,0:0:0:0:
192,192,35150,1,0,0:0:0:70:Drum Snare.wav
320,192,35236,1,2,0:0:0:0:
448,192,35236,1,0,0:0:0:0:
64,192,35322,1,0,0:0:0:70:Drum Snare.wav
448,192,35408,1,0,0:0:0:70:Drum Snare.wav
64,192,35493,1,2,0:0:0:0:
192,192,35493,1,0,0:0:0:70:Drum Snare.wav
320,192,35579,1,0,0:0:0:70:Drum Snare.wav
192,192,35665,1,0,0:0:0:70:Drum Snare.wav
64,192,35750,1,2,0:0:0:0:
448,192,35750,1,0,0:0:0:70:Drum Snare.wav
320,192,35836,1,0,0:0:0:70:Drum Snare.wav
192,192,35922,128,0,36093:0:0:0:70:Percussion Hey sound.wav
320,192,36008,128,0,36265:0:0:0:0:
448,192,36093,128,0,36265:0:0:0:0:
192,192,36179,128,0,36436:0:0:0:0:
64,192,36265,128,0,36436:0:0:0:0:
448,192,36350,128,0,36522:0:0:0:0:
320,192,36436,128,0,36522:0:0:0:0:
64,192,36522,128,0,36608:0:0:0:0:
192,192,36608,1,2,0:0:0:0:
320,192,36608,128,0,36693:0:0:0:100:Drum Clap.wav
448,192,36608,128,0,36693:0:0:0:0:
448,192,36779,1,0,0:0:0:0:
64,192,36865,1,2,0:0:0:0:
192,192,36865,128,0,36950:0:0:0:0:
320,192,36865,128,0,36950:0:0:0:0:
320,192,37036,1,0,0:0:0:0:
64,192,37122,128,2,37208:0:0:0:0:
192,192,37122,128,0,37208:0:0:0:0:
448,192,37122,1,0,0:0:0:0:
64,192,37293,1,2,0:0:0:0:
192,192,37293,1,0,0:0:0:0:
448,192,37293,1,0,0:0:0:0:
320,192,37465,1,0,0:0:0:0:
448,192,37465,128,0,37550:0:0:0:0:
64,192,37550,1,0,0:0:0:0:
192,192,37550,1,0,0:0:0:0:
320,192,37636,128,2,37722:0:0:0:0:
448,192,37636,1,0,0:0:0:0:
64,192,37722,1,0,0:0:0:0:
192,192,37808,128,0,37893:0:0:0:0:
320,192,37808,1,0,0:0:0:0:
448,192,37893,1,0,0:0:0:0:
64,192,37979,128,2,38065:0:0:0:0:
192,192,37979,1,0,0:0:0:100:Drum Clap.wav
320,192,37979,1,0,0:0:0:0:
448,192,38065,1,0,0:0:0:0:
64,192,38150,128,0,38236:0:0:0:0:
192,192,38236,1,2,0:0:0:0:
320,192,38236,1,0,0:0:0:0:
448,192,38322,128,0,38408:0:0:0:0:
64,192,38408,1,0,0:0:0:0:
192,192,38493,128,2,38579:0:0:0:0:
320,192,38493,1,0,0:0:0:0:
64,192,38579,1,0,0:0:0:0:
320,192,38665,128,2,38750:0:0:0:0:
448,192,38665,128,0,38922:0:0:0:0:
192,192,38750,1,0,0:0:0:0:
64,192,38836,1,0,0:0:0:0:
320,192,38922,1,0,0:0:0:0:
64,192,39008,128,2,39265:0:0:0:0:
192,192,39008,128,0,39093:0:0:0:0:
448,192,39093,1,0,0:0:0:0:
320,192,39179,1,0,0:0:0:0:
448,192,39265,1,0,0:0:0:0:
64,192,39350,128,2,39436:0:0:0:0:
192,192,39350,128,0,39436:0:0:0:100:Drum Clap.wav
320,192,39350,1,0,0:0:0:0:
64,192,39522,1,0,0:0:0:0:
192,192,39608,128,2,39693:0:0:0:0:
320,192,39608,128,0,39693:0:0:0:0:
448,192,39608,1,0,0:0:0:0:
192,192,39779,1,0,0:0:0:0:
64,192,39865,1,2,0:0:0:0:
320,192,39865,128,0,39950:0:0:0:0:
448,192,39865,128,0,39950:0:0:0:0:
192,192,40036,1,2,0:0:0:0:
320,192,40036,1,0,0:0:0:0:
448,192,40036,1,0,0:0:0:0:
64,192,40208,1,0,0:0:0:0:
192,192,40208,128,0,40293:0:0:0:0:
320,192,40293,1,0,0:0:0:0:
448,192,40293,1,0,0:0:0:0:
64,192,40379,1,2,0:0:0:0:
192,192,40379,1,0,0:0:0:0:
320,192,40465,1,0,0:0:0:0:
64,192,40550,128,0,40636:0:0:0:0:
448,192,40550,1,0,0:0:0:0:
192,192,40636,128,0,40722:0:0:0:0:
64,192,40722,1,2,0:0:0:0:
320,192,40722,1,0,0:0:0:100:Drum Clap.wav
448,192,40722,128,0,40808:0:0:0:0:
192,192,40808,1,0,0:0:0:0:
320,192,40893,128,0,40979:0:0:0:0:
192,192,40979,1,2,0:0:0:0:
448,192,40979,1,0,0:0:0:0:
64,192,41065,128,0,41150:0:0:0:0:
320,192,41150,1,0,0:0:0:0:
64,192,41236,1,2,0:0:0:0:
192,192,41236,128,0,41322:0:0:0:0:
448,192,41322,1,0,0:0:0:0:
64,192,41408,128,2,41665:0:0:0:0:
192,192,41408,128,0,41493:0:0:0:0:
320,192,41408,1,0,0:0:0:0:
448,192,41493,1,0,0:0:0:0:
320,192,41579,1,0,0:0:0:0:
192,192,41665,1,0,0:0:0:0:
320,192,41750,128,2,41836:0:0:0:0:
448,192,41750,128,0,42008:0:0:0:0:
64,192,41836,1,0,0:0:0:0:
320,192,41922,1,0,0:0:0:0:
192,192,42008,1,0,0:0:0:0:
64,192,42093,1,2,0:0:0:0:
320,192,42093,128,0,42179:0:0:0:100:Drum Clap.wav
448,192,42093,128,0,42179:0:0:0:0:
448,192,42265,1,0,0:0:0:0:
64,192,42350,128,2,42436:0:0:0:0:
192,192,42350,128,0,42436:0:0:0:0:
320,192,42350,1,0,0:0:0:0:
320,192,42522,1,0,0:0:0:0:
64,192,42608,128,2,42693:0:0:0:0:
192,192,42608,1,0,0:0:0:0:
448,192,42608,128,0,42693:0:0:0:0:
64,192,42779,1,2,0:0:0:0:
192,192,42779,1,0,0:0:0:0:
448,192,42779,1,0,0:0:0:0:
320,192,42950,1,0,0:0:0:0:
448,192,42950,128,0,43036:0:0:0:0:
64,192,43036,1,0,0:0:0:0:
192,192,43036,1,0,0:0:0:0:
320,192,43122,128,2,43208:0:0:0:0:
448,192,43122,1,0,0:0:0:0:
64,192,43208,1,0,0:0:0:0:
192,192,43293,128,0,43379:0:0:0:0:
320,192,43293,1,0,0:0:0:0:
448,192,43379,1,0,0:0:0:0:
64,192,43465,128,2,43550:0:0:0:0:
192,192,43465,1,0,0:0:0:100:Drum Clap.wav
320,192,43465,1,0,0:0:0:0:
448,192,43550,1,0,0:0:0:0:
64,192,43636,128,0,43722:0:0:0:0:
192,192,43722,1,2,0:0:0:0:
320,192,43722,1,0,0:0:0:0:
448,192,43808,128,0,43893:0:0:0:0:
64,192,43893,1,0,0:0:0:0:
192,192,43979,128,2,44065:0:0:0:0:
320,192,43979,1,0,0:0:0:0:
64,192,44065,1,0,0:0:0:0:
320,192,44150,128,2,44236:0:0:0:0:
448,192,44150,128,0,44493:0:0:0:0:
192,192,44236,1,0,0:0:0:0:
64,192,44322,1,0,0:0:0:0:
320,192,44408,1,0,0:0:0:0:
64,192,44493,128,2,44836:0:0:0:0:
192,192,44493,128,0,44579:0:0:0:0:
448,192,44579,1,0,0:0:0:0:
192,192,44665,128,0,44750:0:0:0:0:
320,192,44665,128,0,44750:0:0:0:0:
192,192,44836,1,2,0:0:0:0:
320,192,44836,128,0,44922:0:0:0:100:Drum Clap.wav
448,192,44836,128,0,44922:0:0:0:0:
448,192,45008,1,0,0:0:0:0:
64,192,45093,128,2,45179:0:0:0:0:
192,192,45093,128,0,45179:0:0:0:0:
320,192,45093,1,0,0:0:0:0:
192,192,45265,1,0,0:0:0:0:
64,192,45350,128,2,45436:0:0:0:0:
320,192,45350,128,0,45436:0:0:0:0:
448,192,45350,1,0,0:0:0:0:
64,192,45522,1,2,0:0:0:0:
320,192,45522,1,0,0:0:0:0:
448,192,45522,1,0,0:0:0:0:
64,192,45693,1,0,0:0:0:70:Drum Snare.wav
192,192,45693,1,0,0:0:0:0:
320,192,45779,1,0,0:0:0:70:Drum Snare.wav
192,192,45865,1,2,0:0:0:0:
448,192,45865,1,0,0:0:0:70:Drum Snare.wav
192,192,46036,1,0,0:0:0:70:Drum Snare.wav
448,192,46036,1,0,0:0:0:0:
320,192,46122,1,0,0:0:0:70:Drum Snare.wav
64,192,46208,1,2,0:0:0:0:
192,192,46208,1,0,0:0:0:0:
448,192,46293,1,0,0:0:0:70:Drum Snare.wav
64,192,46379,1,0,0:0:0:70:Drum Snare.wav
320,192,46465,1,2,0:0:0:0:
448,192,46465,1,0,0:0:0:70:Drum Snare.wav
192,192,46550,1,0,0:0:0:70:Drum Snare.wav
320,192,46636,1,0,0:0:0:70:Drum Snare.wav
64,192,46722,1,2,0:0:0:0:
448,192,46722,1,0,0:0:0:70:Drum Snare.wav
192,192,46808,1,0,0:0:0:70:Drum Snare.wav
64,192,46893,1,2,0:0:0:0:
320,192,46893,1,4,0:0:0:0:
64,192,47065,1,0,0:0:0:0:
192,192,47236,1,2,0:0:0:0:
320,192,47236,1,0,0:0:0:100:Drum Clap.wav
448,192,47236,1,0,0:0:0:0:
320,192,47408,1,0,0:0:0:0:
64,192,47579,1,2,0:0:0:0:
448,192,47579,1,0,0:0:0:0:
192,192,47665,1,0,0:0:0:0:
320,192,47750,1,0,0:0:0:0:
64,192,47836,1,2,0:0:0:0:
448,192,47836,1,0,0:0:0:0:
192,192,47922,1,0,0:0:0:100:Drum Clap.wav
320,192,48008,1,0,0:0:0:0:
64,192,48093,1,2,0:0:0:0:
448,192,48093,1,0,0:0:0:0:
192,192,48179,1,0,0:0:0:0:
320,192,48265,1,4,0:0:0:0:
448,192,48265,1,2,0:0:0:0:
320,192,48436,1,0,0:0:0:0:
64,192,48608,1,2,0:0:0:0:
192,192,48608,1,0,0:0:0:100:Drum Clap.wav
448,192,48608,1,0,0:0:0:0:
192,192,48779,1,0,0:0:0:0:
64,192,48950,1,2,0:0:0:0:
320,192,48950,1,0,0:0:0:0:
192,192,49036,1,0,0:0:0:0:
64,192,49122,1,0,0:0:0:0:
320,192,49208,1,2,0:0:0:0:
448,192,49208,1,0,0:0:0:0:
192,192,49293,1,0,0:0:0:100:Drum Clap.wav
64,192,49379,1,0,0:0:0:0:
320,192,49465,1,2,0:0:0:0:
448,192,49465,1,0,0:0:0:0:
192,192,49550,1,0,0:0:0:0:
64,192,49636,1,2,0:0:0:0:
448,192,49636,1,4,0:0:0:0:
448,192,49808,1,0,0:0:0:0:
64,192,49979,1,2,0:0:0:0:
192,192,49979,1,0,0:0:0:100:Drum Clap.wav
320,192,49979,1,0,0:0:0:0:
192,192,50150,1,0,0:0:0:0:
64,192,50322,1,2,0:0:0:0:
448,192,50322,1,0,0:0:0:0:
192,192,50408,1,0,0:0:0:0:
320,192,50493,1,0,0:0:0:0:
64,192,50579,1,2,0:0:0:0:
448,192,50579,1,0,0:0:0:0:
320,192,50665,1,0,0:0:0:100:Drum Clap.wav
192,192,50750,1,0,0:0:0:0:
64,192,50836,1,2,0:0:0:0:
448,192,50836,1,0,0:0:0:0:
320,192,50922,1,0,0:0:0:0:
64,192,51008,1,4,0:0:0:0:
192,192,51008,1,2,0:0:0:0:
448,192,51008,1,0,0:0:0:0:
192,192,51179,1,0,0:0:0:0:
64,192,51350,1,2,0:0:0:0:
320,192,51350,1,0,0:0:0:100:Drum Clap.wav
448,192,51350,1,0,0:0:0:0:
448,192,51522,1,0,0:0:0:0:
64,192,51693,1,2,0:0:0:0:
192,192,51693,1,0,0:0:0:0:
320,192,51779,1,0,0:0:0:0:
448,192,51865,1,0,0:0:0:0:
64,192,51950,1,2,0:0:0:0:
192,192,51950,1,0,0:0:0:0:
448,192,52036,1,0,0:0:0:100:Drum Clap.wav
320,192,52122,1,0,0:0:0:0:
64,192,52208,1,2,0:0:0:0:
192,192,52208,1,0,0:0:0:0:
320,192,52293,1,0,0:0:0:0:
64,192,52379,1,10,0:0:0:0:
448,192,52379,1,4,0:0:0:0:
320,192,52550,1,8,0:0:0:0:
448,192,52550,1,0,0:0:0:0:
64,192,52636,1,8,0:0:0:0:
192,192,52636,1,0,0:0:0:0:
320,192,52722,1,2,0:0:0:0:
448,192,52722,1,0,0:0:0:0:
192,192,52808,1,8,0:0:0:0:
64,192,52893,1,8,0:0:0:0:
448,192,52979,1,8,0:0:0:0:
192,192,53065,1,10,0:0:0:0:
320,192,53065,1,4,0:0:0:0:
64,192,53236,1,8,0:0:0:0:
192,192,53236,1,0,0:0:0:0:
320,192,53322,1,2,0:0:0:0:
448,192,53322,1,0,0:0:0:0:
64,192,53408,1,8,0:0:0:0:
192,192,53408,1,0,0:0:0:0:
320,192,53579,1,8,0:0:0:0:
448,192,53579,1,2,0:0:0:0:
64,192,53750,1,10,0:0:0:0:
448,192,53750,1,4,0:0:0:0:
192,192,53922,1,8,0:0:0:0:
320,192,53922,1,0,0:0:0:0:
64,192,54008,1,8,0:0:0:0:
448,192,54008,1,0,0:0:0:0:
192,192,54093,1,2,0:0:0:0:
320,192,54093,1,0,0:0:0:0:
448,192,54179,1,8,0:0:0:0:
64,192,54265,1,8,0:0:0:0:
320,192,54350,1,8,0:0:0:0:
64,192,54436,1,10,0:0:0:0:
192,192,54436,1,4,0:0:0:0:
320,192,54522,1,0,0:0:0:0:
192,192,54608,1,8,0:0:0:0:
64,192,54693,1,2,0:0:0:0:
448,192,54693,1,0,0:0:0:0:
320,192,54779,1,8,0:0:0:0:
192,192,54865,1,0,0:0:0:0:
320,192,54950,1,8,0:0:0:0:
448,192,54950,1,2,0:0:0:0:
192,192,55036,1,0,0:0:0:0:
64,192,55122,1,2,0:0:0:0:
448,192,55122,1,8,0:0:0:60:soft-hitclap.wav
320,192,55208,1,0,0:0:0:0:
192,192,55293,1,8,0:0:0:60:soft-hitclap.wav
64,192,55379,1,0,0:0:0:0:
320,192,55465,1,2,0:0:0:0:
448,192,55465,1,8,0:0:0:60:soft-hitclap.wav
192,192,55550,1,0,0:0:0:0:
320,192,55636,1,8,0:0:0:60:soft-hitclap.wav
448,192,55722,1,0,0:0:0:0:
64,192,55808,1,2,0:0:0:0:
192,192,55808,1,8,0:0:0:60:soft-hitclap.wav
320,192,55893,1,0,0:0:0:0:
192,192,55979,1,8,0:0:0:60:soft-hitclap.wav
64,192,56065,1,2,0:0:0:0:
448,192,56065,1,0,0:0:0:0:
320,192,56150,1,8,0:0:0:60:soft-hitclap.wav
192,192,56236,1,0,0:0:0:0:
320,192,56322,1,2,0:0:0:0:
448,192,56322,1,8,0:0:0:60:soft-hitclap.wav
64,192,56408,1,0,0:0:0:0:
320,192,56493,1,2,0:0:0:0:
448,192,56493,1,8,0:0:0:40:soft-hitclap.wav
192,192,56579,1,8,0:0:0:40:soft-hitclap.wav
64,192,56665,1,8,0:0:0:40:soft-hitclap.wav
448,192,56665,1,0,0:0:0:0:
320,192,56750,1,8,0:0:0:40:soft-hitclap.wav
192,192,56836,1,8,0:0:0:30:soft-hitclap.wav
320,192,56922,1,8,0:0:0:30:soft-hitclap.wav
448,192,57008,1,8,0:0:0:30:soft-hitclap.wav
192,192,57093,1,8,0:0:0:30:soft-hitclap.wav
320,192,57179,128,8,57350:0:0:0:20:soft-hitclap.wav
448,192,57265,128,8,57350:0:0:0:20:soft-hitclap.wav
64,192,57350,128,8,57522:0:0:0:20:soft-hitclap.wav
192,192,57436,128,8,57522:0:0:0:20:soft-hitclap.wav
320,192,57522,128,8,57608:0:0:0:10:soft-hitclap.wav
448,192,57522,128,0,57693:0:0:0:0:
192,192,57608,1,8,0:0:0:10:soft-hitclap.wav
64,192,57693,1,8,0:0:0:10:soft-hitclap.wav
320,192,57865,1,2,0:0:0:0:
448,192,57865,1,4,0:0:0:0:
192,192,57908,1,0,0:0:0:0:
64,192,57950,1,0,0:0:0:0:
448,192,57993,1,0,0:0:0:0:
320,192,58036,1,0,0:0:0:0:
192,192,58079,1,0,0:0:0:0:
64,192,58122,1,0,0:0:0:0:
448,192,58165,1,0,0:0:0:0:
320,192,58208,1,0,0:0:0:0:
64,192,58293,1,0,0:0:0:0:
448,192,58379,1,0,0:0:0:0:
192,192,58465,1,0,0:0:0:0:
448,192,58550,1,0,0:0:0:0:
320,192,58593,1,0,0:0:0:0:
192,192,58636,1,0,0:0:0:0:
64,192,58722,1,2,0:0:0:0:
448,192,58722,1,4,0:0:0:0:
192,192,58850,1,0,0:0:0:0:
320,192,58893,1,0,0:0:0:0:
448,192,58936,1,0,0:0:0:0:
64,192,59065,1,0,0:0:0:0:
192,192,59108,1,0,0:0:0:0:
320,192,59150,1,0,0:0:0:0:
64,192,59236,1,2,0:0:0:0:
448,192,59236,1,4,0:0:0:0:
320,192,59279,1,0,0:0:0:0:
192,192,59322,1,0,0:0:0:0:
64,192,59579,1,2,0:0:0:0:
448,192,59579,1,4,0:0:0:0:
192,192,59622,1,0,0:0:0:0:
320,192,59665,1,0,0:0:0:0:
320,192,59922,1,2,0:0:0:0:
448,192,59922,1,4,0:0:0:0:
192,192,59965,1,0,0:0:0:0:
64,192,60008,1,0,0:0:0:0:
64,192,60179,1,2,0:0:0:0:
192,192,60179,1,4,0:0:0:0:
320,192,60222,1,0,0:0:0:0:
448,192,60265,1,0,0:0:0:0:
64,192,60436,1,2,0:0:0:0:
448,192,60436,1,4,0:0:0:0:
320,192,60479,1,0,0:0:0:0:
192,192,60522,1,0,0:0:0:0:
64,192,60608,1,2,0:0:0:0:
448,192,60608,1,0,0:0:0:0:
192,192,60650,1,0,0:0:0:0:
320,192,60693,1,0,0:0:0:0:
64,192,60736,1,0,0:0:0:0:
192,192,60779,1,0,0:0:0:0:
448,192,60822,1,0,0:0:0:0:
320,192,60865,1,0,0:0:0:0:
64,192,60950,1,2,0:0:0:0:
320,192,61036,1,0,0:0:0:0:
448,192,61122,1,0,0:0:0:0:
192,192,61208,1,0,0:0:0:0:
64,192,61293,1,2,0:0:0:0:
448,192,61293,1,4,0:0:0:0:
320,192,61336,1,0,0:0:0:0:
192,192,61379,1,0,0:0:0:0:
64,192,61550,1,2,0:0:0:0:
448,192,61550,1,4,0:0:0:0:
320,192,61593,1,0,0:0:0:0:
192,192,61636,1,0,0:0:0:0:
64,192,61808,1,4,0:0:0:0:
448,192,61808,1,2,0:0:0:0:
192,192,61850,1,0,0:0:0:0:
320,192,61893,1,0,0:0:0:0:
64,192,61979,1,2,0:0:0:0:
448,192,61979,1,4,0:0:0:0:
192,192,62022,1,0,0:0:0:0:
320,192,62065,1,0,0:0:0:0:
192,192,62322,1,2,0:0:0:0:
320,192,62322,1,4,0:0:0:0:
64,192,62365,1,0,0:0:0:0:
448,192,62408,1,0,0:0:0:0:
320,192,62665,1,4,0:0:0:0:
448,192,62665,1,2,0:0:0:0:
192,192,62708,1,0,0:0:0:0:
64,192,62750,1,0,0:0:0:0:
192,192,62922,1,4,0:0:0:0:
320,192,62922,1,2,0:0:0:0:
448,192,62965,1,0,0:0:0:0:
64,192,63008,1,0,0:0:0:0:
64,192,63179,1,4,0:0:0:0:
192,192,63179,1,2,0:0:0:0:
320,192,63222,1,0,0:0:0:0:
448,192,63265,1,0,0:0:0:0:
64,192,63350,1,2,0:0:0:0:
192,192,63350,1,0,0:0:0:0:
320,192,63393,1,0,0:0:0:0:
448,192,63436,1,0,0:0:0:0:
64,192,63479,1,0,0:0:0:0:
192,192,63522,1,0,0:0:0:0:
320,192,63608,1,2,0:0:0:0:
448,192,63608,1,0,0:0:0:0:
448,192,63693,1,0,0:0:0:0:
64,192,63865,1,2,0:0:0:0:
192,192,63865,1,0,0:0:0:0:
64,192,63950,1,0,0:0:0:0:
320,192,64036,1,2,0:0:0:0:
448,192,64036,1,0,0:0:0:0:
192,192,64122,1,0,0:0:0:0:
448,192,64208,1,0,0:0:0:0:
64,192,64293,1,2,0:0:0:0:
192,192,64293,1,0,0:0:0:0:
320,192,64379,1,0,0:0:0:0:
64,192,64465,1,0,0:0:0:0:
320,192,64550,1,2,0:0:0:0:
448,192,64550,1,0,0:0:0:0:
192,192,64636,1,0,0:0:0:0:
64,192,64722,1,2,0:0:0:0:
448,192,64722,1,0,0:0:0:0:
320,192,64808,1,0,0:0:0:0:
192,192,64893,1,0,0:0:0:0:
320,192,64979,1,2,0:0:0:0:
448,192,64979,1,0,0:0:0:0:
64,192,65065,1,0,0:0:0:0:
192,192,65065,1,0,0:0:0:0:
320,192,65150,1,0,0:0:0:0:
64,192,65236,1,2,0:0:0:0:
448,192,65236,1,0,0:0:0:0:
192,192,65322,1,0,0:0:0:0:
320,192,65408,1,2,0:0:0:0:
448,192,65408,1,0,0:0:0:0:
64,192,65493,1,0,0:0:0:0:
448,192,65579,1,0,0:0:0:0:
64,192,65665,1,2,0:0:0:0:
192,192,65665,1,0,0:0:0:0:
320,192,65750,1,0,0:0:0:0:
192,192,65836,1,0,0:0:0:0:
64,192,65922,1,2,0:0:0:0:
448,192,65922,1,0,0:0:0:0:
320,192,66008,1,0,0:0:0:0:
64,192,66093,1,2,0:0:0:0:
192,192,66093,1,4,0:0:0:0:
448,192,66136,1,0,0:0:0:0:
320,192,66179,1,0,0:0:0:0:
64,192,66222,1,0,0:0:0:0:
192,192,66265,1,2,0:0:0:0:
448,192,66308,1,0,0:0:0:0:
320,192,66350,1,0,0:0:0:0:
64,192,66436,1,2,0:0:0:0:
192,192,66436,1,0,0:0:0:0:
320,192,66522,1,0,0:0:0:0:
64,192,66608,1,2,0:0:0:0:
448,192,66608,1,0,0:0:0:0:
192,192,66693,1,0,0:0:0:0:
320,192,66779,1,2,0:0:0:0:
448,192,66779,1,4,0:0:0:0:
192,192,66822,1,0,0:0:0:0:
64,192,66865,1,2,0:0:0:0:
64,192,67036,1,2,0:0:0:0:
192,192,67036,1,0,0:0:0:0:
320,192,67079,1,0,0:0:0:0:
448,192,67122,1,2,0:0:0:0:
320,192,67293,1,2,0:0:0:0:
448,192,67293,1,0,0:0:0:0:
192,192,67336,1,0,0:0:0:0:
64,192,67379,1,2,0:0:0:0:
320,192,67465,128,2,67808:0:0:0:0:
448,192,67465,128,4,67808:0:0:0:0:
192,192,67808,1,0,0:0:0:0:
320,192,67893,1,0,0:0:0:0:
64,192,67979,1,0,0:0:0:0:
320,192,68065,1,0,0:0:0:0:
64,192,68150,128,0,68322:0:0:0:0:
192,192,68150,128,0,68322:0:0:0:0:
192,192,68408,128,0,68493:0:0:0:0:
320,192,68408,128,0,68493:0:0:0:0:
64,192,68493,1,8,0:0:0:0:
448,192,68493,1,0,0:0:0:0:
320,192,68665,128,0,68750:0:0:0:0:
448,192,68665,128,0,68836:0:0:0:0:
64,192,68836,1,2,0:0:0:0:
192,192,68836,1,4,0:0:0:0:
320,192,68879,1,0,0:0:0:0:
448,192,68922,1,0,0:0:0:0:
192,192,68965,1,0,0:0:0:0:
64,192,69008,1,0,0:0:0:0:
448,192,69050,1,0,0:0:0:0:
320,192,69093,1,0,0:0:0:0:
64,192,69179,1,2,0:0:0:0:
192,192,69179,1,4,0:0:0:0:
448,192,69265,1,0,0:0:0:0:
320,192,69350,1,0,0:0:0:0:
64,192,69436,1,0,0:0:0:0:
320,192,69522,1,4,0:0:0:0:
448,192,69522,1,2,0:0:0:0:
192,192,69565,1,0,0:0:0:0:
64,192,69608,1,0,0:0:0:0:
448,192,69779,1,0,0:0:0:70:Drum Snare.wav
320,192,69822,1,0,0:0:0:0:
64,192,69865,1,2,0:0:0:0:
192,192,69865,1,4,0:0:0:0:
320,192,70036,1,0,0:0:0:70:Drum Snare.wav
192,192,70079,1,0,0:0:0:0:
448,192,70122,1,0,0:0:0:0:
64,192,70208,1,4,0:0:0:0:
192,192,70208,1,2,0:0:0:0:
320,192,70250,1,0,0:0:0:0:
448,192,70293,1,0,0:0:0:0:
64,192,70379,1,0,0:0:0:70:Drum Snare.wav
320,192,70550,1,2,0:0:0:0:
448,192,70550,1,4,0:0:0:0:
192,192,70593,1,0,0:0:0:0:
64,192,70636,1,0,0:0:0:0:
448,192,70722,1,0,0:0:0:70:Drum Snare.wav
64,192,70893,1,4,0:0:0:0:
448,192,70893,1,2,0:0:0:0:
320,192,70936,1,0,0:0:0:0:
192,192,70979,1,0,0:0:0:0:
64,192,71150,1,0,0:0:0:70:Drum Snare.wav
192,192,71193,1,0,0:0:0:0:
320,192,71236,1,2,0:0:0:0:
448,192,71236,1,4,0:0:0:0:
64,192,71408,1,0,0:0:0:70:Drum Snare.wav
192,192,71408,1,0,0:0:0:0:
320,192,71450,1,0,0:0:0:0:
448,192,71493,1,0,0:0:0:0:
64,192,71579,1,4,0:0:0:0:
192,192,71579,1,2,0:0:0:0:
320,192,71622,1,0,0:0:0:0:
448,192,71665,1,0,0:0:0:0:
192,192,71750,1,0,0:0:0:0:
64,192,71793,1,0,0:0:0:0:
448,192,71836,1,0,0:0:0:0:
320,192,71879,1,0,0:0:0:0:
64,192,71922,1,2,0:0:0:0:
192,192,71922,1,4,0:0:0:0:
320,192,72008,1,0,0:0:0:0:
64,192,72093,1,0,0:0:0:0:
448,192,72093,1,0,0:0:0:0:
192,192,72179,1,0,0:0:0:0:
320,192,72265,1,4,0:0:0:0:
448,192,72265,1,2,0:0:0:0:
192,192,72308,1,0,0:0:0:0:
64,192,72350,1,0,0:0:0:0:
192,192,72522,1,0,0:0:0:70:Drum Snare.wav
320,192,72565,1,0,0:0:0:0:
64,192,72608,1,2,0:0:0:0:
448,192,72608,1,4,0:0:0:0:
192,192,72779,1,0,0:0:0:70:Drum Snare.wav
64,192,72822,1,0,0:0:0:0:
448,192,72865,1,0,0:0:0:0:
64,192,72950,1,4,0:0:0:0:
192,192,72950,1,2,0:0:0:0:
320,192,72993,1,0,0:0:0:0:
448,192,73036,1,0,0:0:0:0:
64,192,73122,1,0,0:0:0:70:Drum Snare.wav
320,192,73293,1,2,0:0:0:0:
448,192,73293,1,4,0:0:0:0:
192,192,73336,1,0,0:0:0:0:
64,192,73379,1,0,0:0:0:0:
448,192,73465,1,0,0:0:0:70:Drum Snare.wav
192,192,73636,1,4,0:0:0:0:
448,192,73636,1,2,0:0:0:0:
320,192,73679,1,0,0:0:0:0:
64,192,73722,1,0,0:0:0:0:
64,192,73893,1,0,0:0:0:70:Drum Snare.wav
320,192,73936,1,0,0:0:0:0:
192,192,73979,1,2,0:0:0:0:
448,192,73979,1,4,0:0:0:0:
320,192,74150,1,0,0:0:0:70:Drum Snare.wav
192,192,74193,1,0,0:0:0:0:
64,192,74236,1,0,0:0:0:0:
320,192,74322,1,2,0:0:0:0:
448,192,74322,1,0,0:0:0:70:FX Squeeze 2.wav
192,192,74365,1,0,0:0:0:0:
64,192,74408,1,0,0:0:0:0:
448,192,74450,1,0,0:0:0:0:
320,192,74493,1,0,0:0:0:70:FX Squeeze 1.wav
192,192,74536,1,0,0:0:0:0:
64,192,74579,1,0,0:0:0:0:
320,192,74665,1,2,0:0:0:0:
448,192,74665,1,0,0:0:0:70:FX Squeeze 2.wav
192,192,74750,1,0,0:0:0:0:
64,192,74836,1,0,0:0:0:70:FX Squeeze 1.wav
448,192,74836,1,0,0:0:0:0:
320,192,74922,1,0,0:0:0:0:
64,192,75008,1,2,0:0:0:0:
192,192,75008,1,0,0:0:0:70:FX Squeeze 2.wav
448,192,75093,1,0,0:0:0:0:
192,192,75179,1,0,0:0:0:70:FX Squeeze 1.wav
320,192,75179,1,0,0:0:0:0:
64,192,75265,1,0,0:0:0:70:FX Squeeze 2.wav
320,192,75350,1,2,0:0:0:0:
448,192,75350,1,0,0:0:0:0:
192,192,75436,1,0,0:0:0:70:FX Squeeze 1.wav
64,192,75522,1,0,0:0:0:70:FX Squeeze 2.wav
448,192,75522,1,0,0:0:0:0:
320,192,75608,1,0,0:0:0:0:
64,192,75693,1,2,0:0:0:0:
192,192,75693,1,0,0:0:0:70:FX Squeeze 2.wav
448,192,75779,1,0,0:0:0:0:
64,192,75865,1,0,0:0:0:70:FX Squeeze 1.wav
320,192,75865,1,0,0:0:0:0:
192,192,75950,1,0,0:0:0:0:
320,192,76036,1,2,0:0:0:0:
448,192,76036,1,0,0:0:0:70:FX Squeeze 2.wav
64,192,76122,1,0,0:0:0:0:
192,192,76208,1,0,0:0:0:70:FX Squeeze 1.wav
448,192,76208,1,0,0:0:0:0:
320,192,76293,1,0,0:0:0:0:
64,192,76379,1,2,0:0:0:0:
192,192,76379,1,0,0:0:0:70:FX Squeeze 2.wav
448,192,76465,1,0,0:0:0:0:
64,192,76550,1,0,0:0:0:70:FX Squeeze 1.wav
320,192,76550,1,0,0:0:0:0:
192,192,76636,1,0,0:0:0:70:FX Squeeze 2.wav
64,192,76722,1,2,0:0:0:0:
448,192,76722,1,0,0:0:0:0:
320,192,76808,1,0,0:0:0:70:FX Squeeze 1.wav
192,192,76893,1,0,0:0:0:70:FX Squeeze 2.wav
448,192,76893,1,0,0:0:0:0:
64,192,76979,1,0,0:0:0:0:
320,192,77065,1,2,0:0:0:0:
448,192,77065,1,0,0:0:0:0:
192,192,77108,1,0,0:0:0:0:
64,192,77150,1,0,0:0:0:0:
448,192,77193,1,0,0:0:0:0:
320,192,77236,1,0,0:0:0:0:
64,192,77279,1,0,0:0:0:0:
192,192,77322,1,0,0:0:0:0:
320,192,77365,1,0,0:0:0:0:
64,192,77408,1,2,0:0:0:0:
448,192,77408,1,0,0:0:0:0:
192,192,77493,1,0,0:0:0:0:
320,192,77579,1,0,0:0:0:0:
448,192,77579,1,0,0:0:0:0:
64,192,77665,1,0,0:0:0:0:
192,192,77750,1,2,0:0:0:0:
320,192,77750,1,0,0:0:0:0:
448,192,77793,1,0,0:0:0:0:
64,192,77836,1,0,0:0:0:0:
448,192,78008,1,0,0:0:0:0:
320,192,78050,1,0,0:0:0:0:
64,192,78093,1,2,0:0:0:0:
192,192,78093,1,0,0:0:0:0:
64,192,78265,1,0,0:0:0:0:
192,192,78308,1,0,0:0:0:0:
320,192,78350,1,0,0:0:0:0:
64,192,78436,1,2,0:0:0:0:
448,192,78436,1,0,0:0:0:0:
320,192,78608,1,0,0:0:0:70:Drum Snare.wav
192,192,78665,1,0,0:0:0:70:Drum Snare.wav
64,192,78722,1,0,0:0:0:70:Drum Snare.wav
320,192,78779,1,0,0:0:0:70:Drum Snare 03.wav
448,192,78779,1,0,0:0:0:0:
192,192,78865,1,0,0:0:0:70:Drum Snare.wav
64,192,79036,1,0,0:0:0:70:Drum Snare.wav
192,192,79122,1,0,0:0:0:0:
320,192,79208,1,0,0:0:0:70:Drum Snare 03.wav
448,192,79208,1,0,0:0:0:0:
64,192,79293,1,0,0:0:0:0:
192,192,79293,1,0,0:0:0:0:
320,192,79379,1,0,0:0:0:70:Drum Snare.wav
64,192,79465,1,8,0:0:0:0:
192,192,79465,1,0,0:0:0:0:
448,192,79465,1,0,0:0:0:0:
320,192,79636,1,0,0:0:0:0:
448,192,79636,1,0,0:0:0:0:
64,192,79808,1,2,0:0:0:0:
192,192,79808,1,4,0:0:0:0:
320,192,79893,1,0,0:0:0:0:
64,192,79979,128,0,80493:0:0:0:0:
192,192,79979,128,0,80150:0:0:0:0:
320,192,80322,128,0,80408:0:0:0:0:
448,192,80322,128,0,80493:0:0:0:0:
448,192,80665,128,0,80836:0:0:0:0:
64,192,80836,128,0,81179:0:0:0:0:
192,192,80836,128,0,81008:0:0:0:0:
448,192,81008,128,0,81093:0:0:0:0:
320,192,81179,128,0,81350:0:0:0:0:
448,192,81179,128,0,81522:0:0:0:0:
64,192,81693,1,0,0:0:0:0:
320,192,81779,1,0,0:0:0:0:
64,192,81865,128,0,82122:0:0:0:0:
192,192,81865,128,0,81950:0:0:0:0:
448,192,82036,128,0,82122:0:0:0:0:
320,192,82208,128,0,82379:0:0:0:0:
448,192,82208,128,0,82550:0:0:0:0:
64,192,82379,128,0,82465:0:0:0:0:
64,192,82550,128,0,82722:0:0:0:0:
192,192,82550,128,0,82636:0:0:0:0:
320,192,82636,1,0,0:0:0:0:
448,192,82722,1,0,0:0:0:0:
64,192,82893,128,0,83065:0:0:0:0:
192,192,82893,128,0,82979:0:0:0:0:
448,192,83065,128,0,83150:0:0:0:0:
320,192,83236,128,0,83322:0:0:0:0:
64,192,83408,1,0,0:0:0:0:
320,192,83493,128,0,83579:0:0:0:0:
192,192,83665,1,0,0:0:0:0:
320,192,83750,128,0,83836:0:0:0:0:
320,192,83922,128,0,84008:0:0:0:0:
448,192,83922,128,0,84093:0:0:0:0:
64,192,84093,128,0,84179:0:0:0:0:
448,192,84265,128,0,84350:0:0:0:0:
64,192,84436,128,0,84608:0:0:0:0:
192,192,84436,128,0,84522:0:0:0:0:
448,192,84608,128,0,84693:0:0:0:0:
64,192,84779,128,0,84865:0:0:0:0:
192,192,84950,128,0,85122:0:0:0:0:
320,192,84950,128,0,85036:0:0:0:0:
448,192,85122,128,0,85208:0:0:0:0:
320,192,85293,1,0,0:0:0:0:
192,192,85379,1,0,0:0:0:0:
320,192,85465,128,0,85636:0:0:0:0:
448,192,85465,128,0,85979:0:0:0:0:
64,192,85808,128,0,85979:0:0:0:0:
192,192,85808,128,0,85893:0:0:0:0:
320,192,86150,128,0,86236:0:0:0:0:
64,192,86236,128,0,86322:0:0:0:0:
192,192,86322,128,0,86493:0:0:0:0:
320,192,86322,128,0,86408:0:0:0:0:
320,192,86665,128,0,86750:0:0:0:0:
448,192,86665,128,0,86836:0:0:0:0:
64,192,87008,128,0,87179:0:0:0:0:
192,192,87008,128,0,87093:0:0:0:0:
320,192,87350,1,0,0:0:0:0:
192,192,87436,1,0,0:0:0:0:
320,192,87522,128,0,87608:0:0:0:0:
448,192,87522,128,0,87693:0:0:0:0:
64,192,87608,1,0,0:0:0:0:
192,192,87693,1,0,0:0:0:0:
64,192,87779,1,0,0:0:0:0:
448,192,87865,1,0,0:0:0:0:
320,192,87950,1,0,0:0:0:0:
64,192,88036,128,0,88208:0:0:0:0:
192,192,88036,128,0,88122:0:0:0:0:
320,192,88122,1,0,0:0:0:0:
448,192,88208,1,0,0:0:0:0:
320,192,88379,128,0,88465:0:0:0:0:
448,192,88379,128,0,88550:0:0:0:0:
192,192,88550,128,0,88722:0:0:0:0:
320,192,88636,128,0,88722:0:0:0:0:
448,192,88722,128,0,88808:0:0:0:0:
64,192,88893,1,0,0:0:0:0:
448,192,88979,128,0,89065:0:0:0:0:
64,192,89150,1,0,0:0:0:0:
448,192,89236,128,0,89322:0:0:0:0:
192,192,89408,128,0,89493:0:0:0:0:
320,192,89408,1,0,0:0:0:0:
192,192,89665,128,0,89750:0:0:0:0:
320,192,89665,1,0,0:0:0:0:
192,192,89922,128,0,90008:0:0:0:0:
320,192,89922,1,0,0:0:0:0:
64,192,90093,1,0,0:0:0:0:
192,192,90093,128,0,90265:0:0:0:0:
448,192,90179,128,0,90265:0:0:0:0:
64,192,90265,128,0,90350:0:0:0:0:
320,192,90350,128,0,90436:0:0:0:0:
192,192,90436,128,0,90779:0:0:0:0:
448,192,90436,1,0,0:0:0:0:
320,192,90608,128,0,90779:0:0:0:0:
64,192,90779,128,2,90950:0:0:0:0:
448,192,90779,1,0,0:0:0:0:
448,192,91036,128,0,91208:0:0:0:0:
64,192,91122,1,2,0:0:0:0:
320,192,91122,1,0,0:0:0:0:
192,192,91293,128,0,91465:0:0:0:70:Drum Snare.wav
64,192,91465,1,2,0:0:0:0:
448,192,91465,1,0,0:0:0:0:
320,192,91550,128,0,91722:0:0:0:70:Drum Snare.wav
192,192,91636,1,0,0:0:0:70:Drum Snare.wav
64,192,91722,1,0,0:0:0:70:Drum Snare.wav
320,192,91808,1,2,0:0:0:0:
448,192,91808,128,0,91979:0:0:0:0:
64,192,91893,1,0,0:0:0:70:Drum Snare.wav
192,192,91979,128,0,92150:0:0:0:70:Drum Snare.wav
448,192,92065,1,0,0:0:0:70:Drum Snare.wav
64,192,92150,1,2,0:0:0:0:
320,192,92150,128,0,92322:0:0:0:0:
64,192,92408,128,0,92579:0:0:0:0:
320,192,92493,1,2,0:0:0:0:
448,192,92493,1,0,0:0:0:0:
192,192,92665,128,0,92836:0:0:0:70:Drum Snare.wav
64,192,92836,1,2,0:0:0:0:
320,192,92836,1,0,0:0:0:0:
448,192,92922,128,0,93093:0:0:0:70:Drum Snare.wav
64,192,93008,1,0,0:0:0:70:Drum Snare.wav
320,192,93093,1,0,0:0:0:70:Drum Snare.wav
64,192,93179,128,2,93350:0:0:0:0:
192,192,93179,1,0,0:0:0:0:
448,192,93265,1,0,0:0:0:70:Drum Snare.wav
320,192,93350,128,0,93522:0:0:0:70:Drum Snare.wav
64,192,93436,1,0,0:0:0:70:Drum Snare.wav
192,192,93522,128,2,93693:0:0:0:0:
448,192,93522,1,0,0:0:0:0:
64,192,93779,128,0,93950:0:0:0:0:
320,192,93865,1,2,0:0:0:0:
448,192,93865,1,0,0:0:0:0:
448,192,94036,128,0,94208:0:0:0:70:Drum Snare.wav
64,192,94208,1,2,0:0:0:0:
192,192,94208,1,0,0:0:0:0:
320,192,94293,128,0,94465:0:0:0:70:Drum Snare.wav
448,192,94379,1,0,0:0:0:70:Drum Snare.wav
64,192,94465,1,0,0:0:0:70:Drum Snare.wav
192,192,94550,128,2,94808:0:0:0:0:
448,192,94550,1,0,0:0:0:0:
64,192,94636,1,0,0:0:0:70:Drum Snare.wav
320,192,94722,128,0,94893:0:0:0:70:Drum Snare.wav
448,192,94808,1,0,0:0:0:70:Drum Snare.wav
64,192,94893,128,2,95065:0:0:0:0:
192,192,94893,1,0,0:0:0:0:
320,192,95150,128,0,95322:0:0:0:70:Drum Snare.wav
64,192,95236,1,2,0:0:0:0:
448,192,95236,1,0,0:0:0:0:
192,192,95408,128,0,95579:0:0:0:70:Drum Snare.wav
64,192,95579,1,2,0:0:0:0:
320,192,95579,1,0,0:0:0:0:
192,192,95665,1,0,0:0:0:70:Drum Snare.wav
448,192,95665,128,0,95836:0:0:0:0:
64,192,95750,1,0,0:0:0:70:Drum Snare.wav
320,192,95836,1,0,0:0:0:70:Drum Snare.wav
64,192,95922,128,2,96265:0:0:0:0:
448,192,95922,1,0,0:0:0:0:
192,192,96093,128,0,96265:0:0:0:70:Drum Snare.wav
320,192,96265,1,2,0:0:0:0:
448,192,96265,1,8,0:0:0:0:
192,192,96350,1,0,0:0:0:0:
64,192,96436,1,0,0:0:0:70:Drum Snare.wav
320,192,96522,128,0,96693:0:0:0:0:
64,192,96608,1,2,0:0:0:0:
192,192,96608,1,8,0:0:0:0:
448,192,96608,1,0,0:0:0:0:
192,192,96779,128,0,96950:0:0:0:70:Drum Snare.wav
64,192,96950,1,2,0:0:0:0:
320,192,96950,1,8,0:0:0:0:
448,192,97036,128,0,97208:0:0:0:0:
64,192,97293,128,2,97465:0:0:0:0:
192,192,97293,1,8,0:0:0:0:
448,192,97293,1,0,0:0:0:0:
448,192,97465,128,0,97636:0:0:0:70:Drum Snare.wav
192,192,97550,1,0,0:0:0:70:Drum Snare.wav
64,192,97636,1,2,0:0:0:0:
320,192,97636,128,8,97808:0:0:0:0:
192,192,97893,128,0,98065:0:0:0:0:
64,192,97979,1,2,0:0:0:0:
320,192,97979,1,8,0:0:0:0:
448,192,97979,1,0,0:0:0:0:
320,192,98150,128,0,98322:0:0:0:70:Drum Snare.wav
192,192,98322,1,2,0:0:0:0:
448,192,98322,1,8,0:0:0:0:
64,192,98408,128,0,98579:0:0:0:0:
64,192,98665,1,2,0:0:0:0:
192,192,98665,1,8,0:0:0:0:
448,192,98665,1,0,0:0:0:0:
320,192,98836,128,0,99008:0:0:0:70:Drum Snare.wav
192,192,98922,1,0,0:0:0:70:Drum Snare.wav
64,192,99008,1,2,0:0:0:0:
448,192,99008,1,8,0:0:0:0:
320,192,99093,1,0,0:0:0:0:
64,192,99179,1,8,0:0:0:0:
448,192,99179,1,0,0:0:0:0:
192,192,99265,1,0,0:0:0:0:
64,192,99350,1,2,0:0:0:0:
320,192,99350,1,8,0:0:0:0:
448,192,99436,1,0,0:0:0:0:
192,192,99522,1,8,0:0:0:0:
320,192,99522,1,0,0:0:0:0:
448,192,99608,1,0,0:0:0:0:
64,192,99693,1,2,0:0:0:0:
192,192,99693,1,8,0:0:0:0:
448,192,99779,1,0,0:0:0:0:
64,192,99865,1,8,0:0:0:0:
192,192,99865,1,0,0:0:0:0:
320,192,99950,1,0,0:0:0:0:
64,192,100036,1,2,0:0:0:0:
448,192,100036,1,8,0:0:0:0:
192,192,100122,1,0,0:0:0:0:
320,192,100208,1,8,0:0:0:0:
448,192,100208,1,0,0:0:0:0:
192,192,100293,1,0,0:0:0:0:
64,192,100379,1,2,0:0:0:0:
448,192,100379,1,8,0:0:0:40:soft-hitclap.wav
320,192,100465,1,8,0:0:0:40:soft-hitclap.wav
64,192,100550,1,8,0:0:0:40:soft-hitclap.wav
192,192,100550,1,0,0:0:0:0:
448,192,100636,1,8,0:0:0:40:soft-hitclap.wav
192,192,100722,1,2,0:0:0:0:
320,192,100722,1,8,0:0:0:30:soft-hitclap.wav
64,192,100808,1,8,0:0:0:30:soft-hitclap.wav
320,192,100893,1,8,0:0:0:30:soft-hitclap.wav
448,192,100893,1,0,0:0:0:0:
192,192,100979,1,8,0:0:0:30:soft-hitclap.wav
320,192,101065,1,2,0:0:0:0:
448,192,101065,1,8,0:0:0:20:soft-hitclap.wav
64,192,101150,1,8,0:0:0:20:soft-hitclap.wav
192,192,101150,1,0,0:0:0:0:
320,192,101236,1,8,0:0:0:20:soft-hitclap.wav
448,192,101236,1,0,0:0:0:0:
64,192,101322,1,8,0:0:0:20:soft-hitclap.wav
192,192,101322,1,0,0:0:0:0:
320,192,101408,128,2,101579:0:0:0:0:
448,192,101408,128,8,101579:0:0:0:10:soft-hitclap.wav
192,192,101579,1,2,0:0:0:0:
64,192,101665,1,8,0:0:0:10:soft-hitclap.wav
320,192,101750,128,2,101836:0:0:0:0:
448,192,101750,128,4,101922:0:0:0:0:
64,192,101836,128,0,102008:0:0:0:0:
192,192,101922,128,0,102008:0:0:0:0:
320,192,102008,128,0,102093:0:0:0:0:
448,192,102008,128,0,102093:0:0:0:0:
64,192,102093,128,2,102179:0:0:0:0:
192,192,102093,128,0,102179:0:0:0:100:Drum Clap.wav
320,192,102179,128,0,102265:0:0:0:0:
64,192,102265,128,0,102436:0:0:0:0:
448,192,102265,128,0,102350:0:0:0:0:
192,192,102350,128,0,102436:0:0:0:0:
320,192,102436,128,2,102608:0:0:0:0:
448,192,102436,128,0,102522:0:0:0:0:
64,192,102522,1,0,0:0:0:0:
192,192,102522,128,0,102608:0:0:0:0:
448,192,102608,1,0,0:0:0:0:
64,192,102779,128,2,102950:0:0:0:0:
448,192,102779,128,0,102865:0:0:0:100:Drum Clap.wav
192,192,102865,128,0,102950:0:0:0:0:
320,192,102950,128,0,103036:0:0:0:0:
448,192,102950,128,0,103122:0:0:0:0:
64,192,103122,128,2,103293:0:0:0:0:
192,192,103122,128,0,103208:0:0:0:0:
448,192,103208,128,0,103293:0:0:0:0:
320,192,103293,128,0,103379:0:0:0:0:
64,192,103379,128,0,103550:0:0:0:0:
192,192,103379,128,0,103465:0:0:0:0:
320,192,103465,128,2,103550:0:0:0:0:
448,192,103465,128,0,103550:0:0:0:100:Drum Clap.wav
192,192,103550,128,0,103636:0:0:0:0:
64,192,103636,128,0,103722:0:0:0:0:
448,192,103636,128,0,103808:0:0:0:0:
320,192,103722,128,0,103808:0:0:0:0:
64,192,103808,128,2,103893:0:0:0:0:
192,192,103808,128,0,103893:0:0:0:0:
320,192,103893,1,0,0:0:0:0:
448,192,103893,128,0,103979:0:0:0:0:
64,192,103979,1,0,0:0:0:0:
64,192,104150,128,2,104236:0:0:0:0:
448,192,104150,128,0,104322:0:0:0:100:Drum Clap.wav
320,192,104236,128,0,104322:0:0:0:0:
64,192,104322,128,0,104493:0:0:0:0:
192,192,104322,128,0,104408:0:0:0:0:
320,192,104493,128,2,104579:0:0:0:0:
448,192,104493,128,0,104665:0:0:0:0:
192,192,104579,128,0,104665:0:0:0:0:
64,192,104665,128,0,104750:0:0:0:0:
320,192,104750,128,0,104922:0:0:0:0:
448,192,104750,128,0,104836:0:0:0:0:
64,192,104836,128,2,104922:0:0:0:0:
192,192,104836,128,0,104922:0:0:0:100:Drum Clap.wav
448,192,104922,128,0,105008:0:0:0:0:
192,192,105008,128,0,105179:0:0:0:0:
320,192,105008,128,0,105093:0:0:0:0:
64,192,105093,128,0,105179:0:0:0:0:
320,192,105179,128,2,105265:0:0:0:0:
448,192,105179,128,0,105350:0:0:0:0:
64,192,105265,128,0,105350:0:0:0:0:
192,192,105265,1,0,0:0:0:0:
320,192,105350,1,0,0:0:0:0:
64,192,105522,128,2,105693:0:0:0:0:
448,192,105522,128,0,105608:0:0:0:100:Drum Clap.wav
192,192,105608,128,0,105693:0:0:0:0:
320,192,105693,128,0,105779:0:0:0:0:
448,192,105693,128,0,105865:0:0:0:0:
64,192,105865,128,2,106036:0:0:0:0:
192,192,105865,128,0,105950:0:0:0:0:
320,192,105950,128,0,106036:0:0:0:0:
448,192,106036,128,0,106122:0:0:0:0:
64,192,106122,128,0,106208:0:0:0:0:
192,192,106122,128,0,106293:0:0:0:0:
320,192,106208,128,2,106293:0:0:0:0:
448,192,106208,128,0,106293:0:0:0:100:Drum Clap.wav
64,192,106293,128,0,106379:0:0:0:0:
192,192,106379,128,0,106465:0:0:0:0:
320,192,106379,128,0,106550:0:0:0:0:
448,192,106465,128,0,106550:0:0:0:0:
64,192,106550,128,2,106636:0:0:0:0:
192,192,106550,128,0,106636:0:0:0:0:
320,192,106636,1,0,0:0:0:0:
448,192,106636,128,0,106722:0:0:0:0:
192,192,106722,1,0,0:0:0:0:
64,192,106893,128,2,106979:0:0:0:0:
448,192,106893,128,0,107065:0:0:0:100:Drum Clap.wav
320,192,106979,128,0,107065:0:0:0:0:
64,192,107065,128,0,107236:0:0:0:0:
192,192,107065,128,0,107236:0:0:0:0:
320,192,107236,128,2,107322:0:0:0:0:
448,192,107236,128,0,107408:0:0:0:0:
192,192,107322,128,0,107408:0:0:0:0:
64,192,107408,128,0,107493:0:0:0:0:
320,192,107493,128,0,107579:0:0:0:0:
448,192,107493,128,0,107665:0:0:0:0:
64,192,107579,128,2,107665:0:0:0:0:
192,192,107579,128,0,107665:0:0:0:100:Drum Clap.wav
320,192,107665,128,0,107750:0:0:0:0:
192,192,107750,128,0,107922:0:0:0:0:
448,192,107750,128,0,107836:0:0:0:0:
64,192,107836,128,0,107922:0:0:0:0:
320,192,107922,128,2,108008:0:0:0:0:
448,192,107922,128,0,108008:0:0:0:0:
64,192,108008,128,0,108093:0:0:0:0:
192,192,108008,1,0,0:0:0:0:
320,192,108093,1,0,0:0:0:0:
64,192,108265,128,2,108436:0:0:0:0:
448,192,108265,128,0,108350:0:0:0:100:Drum Clap.wav
192,192,108350,128,0,108436:0:0:0:0:
320,192,108436,128,0,108522:0:0:0:0:
448,192,108436,128,0,108608:0:0:0:0:
64,192,108608,128,2,108779:0:0:0:0:
192,192,108608,128,0,108693:0:0:0:0:
448,192,108693,128,0,108779:0:0:0:0:
320,192,108779,128,0,108865:0:0:0:0:
64,192,108865,128,0,108950:0:0:0:0:
192,192,108865,128,0,109036:0:0:0:0:
320,192,108950,128,2,109036:0:0:0:0:
448,192,108950,128,0,109036:0:0:0:100:Drum Clap.wav
64,192,109036,128,0,109122:0:0:0:0:
192,192,109122,128,0,109208:0:0:0:0:
448,192,109122,128,0,109293:0:0:0:0:
320,192,109208,128,0,109293:0:0:0:0:
64,192,109293,128,2,109379:0:0:0:0:
192,192,109293,128,0,109379:0:0:0:0:
320,192,109379,1,0,0:0:0:0:
448,192,109379,128,0,109465:0:0:0:0:
64,192,109465,1,0,0:0:0:0:
64,192,109636,128,2,109722:0:0:0:0:
448,192,109636,128,0,109808:0:0:0:100:Drum Clap.wav
320,192,109722,128,0,109808:0:0:0:0:
64,192,109808,128,0,109979:0:0:0:0:
192,192,109808,128,0,109893:0:0:0:0:
320,192,109979,128,2,110065:0:0:0:0:
448,192,109979,128,0,110150:0:0:0:0:
192,192,110065,128,0,110150:0:0:0:0:
64,192,110150,128,0,110236:0:0:0:0:
320,192,110236,128,0,110408:0:0:0:0:
448,192,110236,128,0,110322:0:0:0:0:
64,192,110322,128,2,110408:0:0:0:0:
192,192,110322,128,0,110408:0:0:0:100:Drum Clap.wav
448,192,110408,128,0,110493:0:0:0:0:
192,192,110493,128,0,110665:0:0:0:0:
320,192,110493,128,0,110579:0:0:0:0:
64,192,110579,128,0,110665:0:0:0:0:
320,192,110665,128,2,110750:0:0:0:0:
448,192,110665,128,0,110750:0:0:0:0:
64,192,110750,1,0,0:0:0:0:
192,192,110750,128,0,110836:0:0:0:0:
320,192,110836,1,0,0:0:0:0:
64,192,111008,128,2,111179:0:0:0:0:
448,192,111008,128,0,111093:0:0:0:100:Drum Clap.wav
192,192,111093,128,0,111179:0:0:0:0:
320,192,111179,128,0,111350:0:0:0:0:
448,192,111179,128,0,111350:0:0:0:0:
64,192,111350,128,2,111522:0:0:0:0:
192,192,111350,128,0,111436:0:0:0:0:
320,192,111436,128,0,111522:0:0:0:0:
448,192,111522,128,0,111608:0:0:0:0:
64,192,111608,128,0,111693:0:0:0:0:
192,192,111608,128,0,111779:0:0:0:0:
320,192,111693,128,2,111779:0:0:0:0:
448,192,111693,128,0,111779:0:0:0:100:Drum Clap.wav
64,192,111779,128,0,111865:0:0:0:0:
192,192,111865,128,0,111950:0:0:0:0:
320,192,111865,128,0,112036:0:0:0:0:
448,192,111950,128,0,112036:0:0:0:0:
64,192,112036,128,2,112208:0:0:0:0:
192,192,112036,128,0,112122:0:0:0:0:
320,192,112122,1,0,0:0:0:0:
448,192,112122,128,0,112208:0:0:0:0:
192,192,112208,1,0,0:0:0:0:
64,192,112379,128,2,112465:0:0:0:0:
448,192,112379,128,0,112550:0:0:0:100:Drum Clap.wav
320,192,112465,128,0,112550:0:0:0:0:
64,192,112550,128,0,112722:0:0:0:0:
192,192,112550,128,0,112722:0:0:0:0:
320,192,112722,128,10,112808:0:0:0:0:
448,192,112722,128,4,112893:0:0:0:0:
64,192,112808,128,0,112979:0:0:0:0:
192,192,112893,128,0,112979:0:0:0:70:Drum Snare.wav
320,192,112979,128,0,113065:0:0:0:0:
448,192,112979,128,0,113065:0:0:0:0:
64,192,113065,128,2,113150:0:0:0:0:
192,192,113065,128,8,113150:0:0:0:0:
320,192,113150,128,0,113236:0:0:0:0:
64,192,113236,128,0,113408:0:0:0:70:Drum Snare.wav
448,192,113236,128,0,113322:0:0:0:0:
192,192,113322,128,0,113408:0:0:0:0:
320,192,113408,128,2,113579:0:0:0:0:
448,192,113408,128,8,113493:0:0:0:0:
64,192,113493,128,8,113579:0:0:0:0:
192,192,113493,1,0,0:0:0:0:
448,192,113579,1,0,0:0:0:70:Drum Snare.wav
320,192,113665,1,0,0:0:0:70:Drum Snare.wav
64,192,113750,128,2,113922:0:0:0:0:
448,192,113750,128,8,113836:0:0:0:0:
192,192,113836,128,0,113922:0:0:0:70:Drum Snare.wav
320,192,113922,128,0,114008:0:0:0:70:Drum Snare.wav
448,192,113922,128,0,114093:0:0:0:0:
64,192,114093,128,2,114265:0:0:0:0:
192,192,114093,128,8,114179:0:0:0:0:
448,192,114179,128,0,114265:0:0:0:0:
320,192,114265,128,0,114350:0:0:0:70:Drum Snare.wav
64,192,114350,128,0,114522:0:0:0:0:
192,192,114350,128,0,114436:0:0:0:0:
320,192,114436,128,2,114522:0:0:0:0:
448,192,114436,128,8,114522:0:0:0:0:
192,192,114522,128,0,114608:0:0:0:0:
64,192,114608,128,0,114693:0:0:0:70:Drum Snare.wav
448,192,114608,128,0,114779:0:0:0:0:
320,192,114693,128,0,114779:0:0:0:0:
64,192,114779,128,2,114865:0:0:0:0:
192,192,114779,128,8,114865:0:0:0:0:
320,192,114865,128,8,114950:0:0:0:0:
448,192,114865,1,0,0:0:0:0:
64,192,114950,1,0,0:0:0:70:Drum Snare.wav
192,192,115036,1,0,0:0:0:70:Drum Snare.wav
64,192,115122,128,2,115208:0:0:0:0:
448,192,115122,128,8,115293:0:0:0:0:
320,192,115208,128,0,115293:0:0:0:70:Drum Snare.wav
64,192,115293,128,0,115465:0:0:0:70:Drum Snare.wav
192,192,115293,128,0,115379:0:0:0:0:
320,192,115465,128,2,115550:0:0:0:0:
448,192,115465,128,8,115636:0:0:0:0:
192,192,115550,128,0,115636:0:0:0:0:
64,192,115636,128,0,115722:0:0:0:70:Drum Snare.wav
320,192,115722,128,0,115893:0:0:0:0:
448,192,115722,128,0,115808:0:0:0:0:
64,192,115808,128,2,115893:0:0:0:0:
192,192,115808,128,8,115893:0:0:0:0:
448,192,115893,128,0,115979:0:0:0:0:
192,192,115979,128,0,116150:0:0:0:70:Drum Snare.wav
320,192,115979,128,0,116065:0:0:0:0:
64,192,116065,128,0,116150:0:0:0:0:
320,192,116150,128,2,116236:0:0:0:0:
448,192,116150,128,8,116322:0:0:0:0:
64,192,116236,1,8,0:0:0:0:
192,192,116236,128,0,116322:0:0:0:0:
320,192,116322,1,0,0:0:0:70:Drum Snare.wav
192,192,116408,1,0,0:0:0:70:Drum Snare.wav
64,192,116493,128,2,116665:0:0:0:0:
448,192,116493,128,8,116579:0:0:0:0:
192,192,116579,128,0,116665:0:0:0:70:Drum Snare.wav
320,192,116665,128,0,116750:0:0:0:70:Drum Snare.wav
448,192,116665,128,0,116836:0:0:0:0:
64,192,116836,128,2,117008:0:0:0:0:
192,192,116836,128,8,116922:0:0:0:0:
320,192,116922,128,0,117008:0:0:0:0:
448,192,117008,128,0,117093:0:0:0:70:Drum Snare.wav
64,192,117093,128,0,117179:0:0:0:0:
192,192,117093,128,0,117265:0:0:0:0:
320,192,117179,128,2,117265:0:0:0:0:
448,192,117179,128,8,117265:0:0:0:0:
64,192,117265,128,0,117350:0:0:0:0:
192,192,117350,128,0,117436:0:0:0:70:Drum Snare.wav
320,192,117350,128,0,117522:0:0:0:0:
448,192,117436,128,0,117522:0:0:0:0:
64,192,117522,128,2,117608:0:0:0:0:
192,192,117522,128,8,117608:0:0:0:0:
320,192,117608,128,8,117693:0:0:0:0:
448,192,117608,1,0,0:0:0:0:
192,192,117693,1,0,0:0:0:70:Drum Snare.wav
320,192,117779,1,0,0:0:0:70:Drum Snare.wav
64,192,117865,128,2,117950:0:0:0:0:
448,192,117865,128,8,118036:0:0:0:0:
320,192,117950,128,0,118036:0:0:0:70:Drum Snare.wav
64,192,118036,128,0,118208:0:0:0:70:Drum Snare.wav
192,192,118036,128,0,118208:0:0:0:0:
320,192,118208,128,2,118293:0:0:0:0:
448,192,118208,128,4,118379:0:0:0:0:
192,192,118293,128,0,118379:0:0:0:0:
64,192,118379,128,8,118465:0:0:0:0:
320,192,118465,128,0,118550:0:0:0:0:
448,192,118465,128,0,118636:0:0:0:0:
64,192,118550,128,2,118636:0:0:0:0:
192,192,118550,128,0,118636:0:0:0:0:
320,192,118636,128,0,118722:0:0:0:0:
192,192,118722,128,8,118893:0:0:0:0:
448,192,118722,128,0,118808:0:0:0:0:
64,192,118808,128,0,118893:0:0:0:0:
320,192,118893,128,2,118979:0:0:0:0:
448,192,118893,128,0,118979:0:0:0:0:
64,192,118979,1,0,0:0:0:0:
192,192,118979,128,0,119065:0:0:0:0:
320,192,119065,1,8,0:0:0:0:
192,192,119150,1,0,0:0:0:0:
64,192,119236,128,2,119408:0:0:0:0:
448,192,119236,128,0,119322:0:0:0:0:
192,192,119322,128,0,119408:0:0:0:0:
320,192,119408,128,8,119493:0:0:0:0:
448,192,119408,128,0,119579:0:0:0:0:
64,192,119579,128,2,119750:0:0:0:0:
192,192,119579,128,4,119665:0:0:0:0:
448,192,119665,128,0,119750:0:0:0:0:
320,192,119750,128,8,119836:0:0:0:0:
64,192,119836,128,0,119922:0:0:0:0:
192,192,119836,128,0,120008:0:0:0:0:
320,192,119922,128,2,120008:0:0:0:0:
448,192,119922,1,0,0:0:0:0:
64,192,120008,128,0,120093:0:0:0:0:
192,192,120093,128,8,120179:0:0:0:0:
448,192,120093,128,0,120265:0:0:0:0:
320,192,120179,128,0,120265:0:0:0:0:
64,192,120265,128,2,120350:0:0:0:0:
192,192,120265,128,0,120350:0:0:0:0:
320,192,120350,128,0,120436:0:0:0:0:
448,192,120350,1,0,0:0:0:0:
192,192,120436,1,8,0:0:0:0:
320,192,120522,1,0,0:0:0:0:
64,192,120608,128,2,120693:0:0:0:0:
448,192,120608,128,0,120779:0:0:0:0:
320,192,120693,128,0,120779:0:0:0:0:
64,192,120779,128,8,120950:0:0:0:0:
192,192,120779,128,0,120950:0:0:0:0:
320,192,120950,1,6,0:0:0:0:
448,192,120950,1,8,0:0:0:60:soft-hitclap.wav
192,192,121036,1,8,0:0:0:60:soft-hitclap.wav
64,192,121122,1,8,0:0:0:60:soft-hitclap.wav
448,192,121122,1,0,0:0:0:0:
320,192,121208,1,8,0:0:0:60:soft-hitclap.wav
64,192,121293,1,2,0:0:0:0:
192,192,121293,1,8,0:0:0:60:soft-hitclap.wav
320,192,121379,1,8,0:0:0:60:soft-hitclap.wav
64,192,121465,1,8,0:0:0:60:soft-hitclap.wav
448,192,121465,1,0,0:0:0:0:
192,192,121550,1,8,0:0:0:60:soft-hitclap.wav
320,192,121636,1,2,0:0:0:0:
448,192,121636,1,8,0:0:0:50:soft-hitclap.wav
64,192,121722,1,8,0:0:0:50:soft-hitclap.wav
192,192,121808,1,8,0:0:0:50:soft-hitclap.wav
320,192,121808,1,0,0:0:0:0:
448,192,121893,1,8,0:0:0:50:soft-hitclap.wav
64,192,121979,1,2,0:0:0:0:
192,192,121979,1,8,0:0:0:50:soft-hitclap.wav
448,192,122065,1,8,0:0:0:50:soft-hitclap.wav
192,192,122150,1,8,0:0:0:50:soft-hitclap.wav
320,192,122150,1,0,0:0:0:0:
64,192,122236,1,8,0:0:0:50:soft-hitclap.wav
320,192,122322,128,2,122408:0:0:0:0:
448,192,122322,1,8,0:0:0:40:soft-hitclap.wav
192,192,122408,1,8,0:0:0:40:soft-hitclap.wav
448,192,122493,1,8,0:0:0:40:soft-hitclap.wav
320,192,122579,128,8,122665:0:0:0:40:soft-hitclap.wav
64,192,122665,1,2,0:0:0:0:
192,192,122665,1,8,0:0:0:40:soft-hitclap.wav
320,192,122750,1,8,0:0:0:40:soft-hitclap.wav
64,192,122836,128,8,122922:0:0:0:40:soft-hitclap.wav
448,192,122922,1,8,0:0:0:40:soft-hitclap.wav
192,192,123008,1,2,0:0:0:0:
320,192,123008,1,8,0:0:0:30:soft-hitclap.wav
64,192,123093,128,8,123179:0:0:0:30:soft-hitclap.wav
448,192,123179,1,8,0:0:0:30:soft-hitclap.wav
64,192,123265,1,8,0:0:0:30:soft-hitclap.wav
192,192,123350,1,2,0:0:0:0:
320,192,123350,128,8,123436:0:0:0:30:soft-hitclap.wav
448,192,123436,1,8,0:0:0:30:soft-hitclap.wav
64,192,123522,1,8,0:0:0:30:soft-hitclap.wav
192,192,123522,128,0,123608:0:0:0:0:
320,192,123608,1,8,0:0:0:30:soft-hitclap.wav
64,192,123693,1,4,0:0:0:0:
448,192,123693,1,0,0:0:0:0:
