osu file format v14

[General]
AudioFilename: audio.mp3
AudioLeadIn: 0
PreviewTime: 24950
Countdown: 0
SampleSet: Soft
StackLeniency: 0.7
Mode: 3
LetterboxInBreaks: 0
SpecialStyle: 0
WidescreenStoryboard: 0

[Editor]
Bookmarks: 13979,22979,24950,36608,46893,57865,68836,79808,90779,112722
DistanceSpacing: 1.8
BeatDivisor: 4
GridSize: 32
TimelineZoom: 2.399999

[Metadata]
Title:Black sour Ruby
TitleUnicode:Black sour Ruby
Artist:EmoCosine
ArtistUnicode:EmoCosine
Creator:Ppass
Version:Maiiy's Normal
Source:EZ2AC : TIME TRAVELLER
Tags:Maiiy Nicknem_ Antipole 4kmt korean mania tournament ez2on reboot r emoco. dynamix EMCD-0001 my future your memory fa featured artist mappers' guild mpg electronic instrumental happy hardcore Hybrid Tech LN Longnote
BeatmapID:4556315
BeatmapSetID:2019474

[Difficulty]
HPDrainRate:7.5
CircleSize:4
OverallDifficulty:7.5
ApproachRate:5
SliderMultiplier:1.4
SliderTickRate:1

[Events]
//Background and Video events
0,0,"pink.png",0,0
//Break Periods
//Storyboard Layer 0 (Background)
//Storyboard Layer 1 (Fail)
//Storyboard Layer 2 (Pass)
//Storyboard Layer 3 (Foreground)
//Storyboard Layer 4 (Overlay)
//Storyboard Sound Samples
Sample,33865,0,"Drum Clap.wav",100
Sample,34893,0,"Drum Snare.wav",70
Sample,35750,0,"Drum Snare.wav",70
Sample,37979,0,"Drum Clap.wav",100
Sample,40722,0,"Drum Clap.wav",100
Sample,43465,0,"Drum Clap.wav",100
Sample,44836,0,"Drum Clap.wav",100
Sample,46550,0,"Percussion Hey sound.wav",70
Sample,46722,0,"Drum Snare.wav",70
Sample,55465,0,"soft-hitclap.wav",60
Sample,56322,0,"soft-hitclap.wav",60
Sample,56493,0,"soft-hitclap.wav",40
Sample,101065,0,"soft-hitclap.wav",20
Sample,101408,0,"soft-hitclap.wav",10
Sample,101579,0,"soft-hitclap.wav",10
Sample,102779,0,"Drum Clap.wav",100
Sample,104150,0,"Drum Clap.wav",100
Sample,105522,0,"Drum Clap.wav",100
Sample,106893,0,"Drum Clap.wav",100
Sample,108265,0,"Drum Clap.wav",100
Sample,109636,0,"Drum Clap.wav",100
Sample,111008,0,"Drum Clap.wav",100
Sample,112379,0,"Drum Clap.wav",100
Sample,121979,0,"soft-hitclap.wav",50
Sample,123350,0,"soft-hitclap.wav",30

[TimingPoints]
3008,342.857142857143,4,2,1,70,1,0
24950,-100,4,2,1,70,0,1
35922,-100,4,2,1,70,0,0
36608,-100,4,2,1,70,0,1
46893,-100,4,2,1,70,0,0
101750,-100,4,2,1,70,0,1
123693,-100,4,2,1,70,0,0

[HitObjects]
64,192,3007,5,0,0:0:0:0:
448,192,3007,1,0,0:0:0:0:
192,192,3093,1,0,0:0:0:0:
320,192,3179,1,0,0:0:0:0:
64,192,3350,1,0,0:0:0:0:
448,192,3522,1,0,0:0:0:0:
192,192,3693,1,0,0:0:0:0:
320,192,3865,1,0,0:0:0:0:
64,192,4036,1,0,0:0:0:0:
192,192,4379,1,0,0:0:0:0:
448,192,4379,128,0,4893:0:0:0:0:
64,192,4893,1,0,0:0:0:0:
192,192,4893,128,0,5408:0:0:0:0:
64,192,5408,128,0,5750:0:0:0:0:
320,192,5408,1,0,0:0:0:0:
448,192,5750,1,0,0:0:0:0:
320,192,5836,1,0,0:0:0:0:
192,192,5922,1,0,0:0:0:0:
448,192,6093,1,0,0:0:0:0:
64,192,6265,1,0,0:0:0:0:
320,192,6436,1,0,0:0:0:0:
192,192,6608,1,0,0:0:0:0:
448,192,6779,1,0,0:0:0:0:
320,192,6950,1,0,0:0:0:0:
64,192,7122,128,0,7636:0:0:0:0:
192,192,7122,1,0,0:0:0:0:
192,192,7636,128,0,8150:0:0:0:0:
320,192,7636,1,0,0:0:0:0:
64,192,8150,1,0,0:0:0:0:
448,192,8150,128,0,8493:0:0:0:0:
64,192,8493,1,0,0:0:0:0:
192,192,8579,1,0,0:0:0:0:
320,192,8665,1,0,0:0:0:0:
64,192,8836,1,0,0:0:0:0:
320,192,9008,1,0,0:0:0:0:
64,192,9179,1,0,0:0:0:0:
448,192,9350,1,0,0:0:0:0:
320,192,9522,1,0,0:0:0:0:
64,192,9865,1,0,0:0:0:0:
320,192,9865,128,0,10379:0:0:0:0:
64,192,10379,128,0,10893:0:0:0:0:
448,192,10379,1,0,0:0:0:0:
192,192,10893,128,0,11236:0:0:0:0:
320,192,10893,1,0,0:0:0:0:
448,192,11236,1,0,0:0:0:0:
320,192,11322,1,0,0:0:0:0:
192,192,11408,1,0,0:0:0:0:
448,192,11579,1,0,0:0:0:0:
64,192,11750,1,0,0:0:0:0:
192,192,11922,1,0,0:0:0:0:
448,192,12093,1,0,0:0:0:0:
192,192,12265,1,0,0:0:0:0:
320,192,12436,1,0,0:0:0:0:
64,192,12608,128,0,13122:0:0:0:0:
448,192,12608,1,0,0:0:0:0:
448,192,13122,128,0,13636:0:0:0:0:
320,192,13293,128,0,13636:0:0:0:0:
192,192,13636,128,0,13979:0:0:0:0:
64,192,13979,1,2,0:0:0:0:
448,192,13979,1,4,0:0:0:0:
320,192,14065,1,0,0:0:0:0:
192,192,14150,1,0,0:0:0:0:
320,192,14322,1,2,0:0:0:0:
448,192,14322,1,0,0:0:0:0:
64,192,14493,1,0,0:0:0:0:
192,192,14665,1,2,0:0:0:0:
320,192,14665,1,0,0:0:0:0:
64,192,14922,1,2,0:0:0:0:
448,192,14922,1,0,0:0:0:0:
320,192,15179,1,2,0:0:0:0:
448,192,15179,1,0,0:0:0:0:
64,192,15350,1,2,0:0:0:0:
192,192,15350,128,0,15522:0:0:0:0:
448,192,15522,1,0,0:0:0:0:
192,192,15693,1,2,0:0:0:0:
320,192,15693,1,0,0:0:0:0:
64,192,15865,128,0,16036:0:0:0:0:
320,192,16036,1,2,0:0:0:0:
448,192,16036,1,0,0:0:0:0:
64,192,16293,1,2,0:0:0:0:
192,192,16293,1,0,0:0:0:0:
448,192,16379,128,0,16550:0:0:0:0:
192,192,16550,1,2,0:0:0:0:
320,192,16550,1,0,0:0:0:0:
64,192,16722,1,2,0:0:0:0:
448,192,16722,1,0,0:0:0:0:
192,192,16808,1,0,0:0:0:0:
320,192,16893,1,0,0:0:0:0:
64,192,17065,1,2,0:0:0:0:
192,192,17065,1,0,0:0:0:0:
448,192,17236,1,0,0:0:0:0:
192,192,17408,1,2,0:0:0:0:
320,192,17408,1,0,0:0:0:0:
64,192,17665,1,2,0:0:0:0:
448,192,17665,1,0,0:0:0:0:
64,192,17922,1,2,0:0:0:0:
192,192,17922,1,0,0:0:0:0:
320,192,18093,128,2,18265:0:0:0:0:
448,192,18093,1,0,0:0:0:0:
64,192,18265,1,0,0:0:0:0:
192,192,18436,1,2,0:0:0:0:
320,192,18436,1,0,0:0:0:0:
448,192,18608,128,0,18779:0:0:0:0:
64,192,18779,1,2,0:0:0:0:
192,192,18779,1,0,0:0:0:0:
320,192,19036,1,2,0:0:0:0:
448,192,19036,1,0,0:0:0:0:
64,192,19122,128,0,19293:0:0:0:0:
192,192,19293,1,2,0:0:0:0:
320,192,19293,1,0,0:0:0:0:
64,192,19465,1,2,0:0:0:0:
448,192,19465,1,8,0:0:0:0:
320,192,19550,1,0,0:0:0:0:
192,192,19636,1,8,0:0:0:0:
320,192,19808,1,2,0:0:0:0:
448,192,19808,1,0,0:0:0:0:
64,192,19979,1,8,0:0:0:0:
320,192,20150,1,2,0:0:0:0:
448,192,20150,1,8,0:0:0:0:
192,192,20322,1,8,0:0:0:0:
64,192,20493,1,8,0:0:0:0:
448,192,20493,1,0,0:0:0:0:
320,192,20665,1,8,0:0:0:0:
64,192,20836,1,2,0:0:0:0:
448,192,20836,1,8,0:0:0:0:
192,192,21008,1,0,0:0:0:0:
448,192,21179,1,0,0:0:0:0:
320,192,21179,1,0,0:0:0:0:
192,192,21350,1,8,0:0:0:0:
320,192,21436,1,8,0:0:0:0:
64,192,21522,1,2,0:0:0:0:
448,192,21522,1,8,0:0:0:0:
320,192,21693,1,8,0:0:0:0:
64,192,21865,1,8,0:0:0:0:
192,192,21865,1,0,0:0:0:0:
448,192,22036,1,10,0:0:0:0:
64,192,22208,1,2,0:0:0:0:
320,192,22208,1,8,0:0:0:0:
192,192,22379,1,2,0:0:0:0:
320,192,22550,1,2,0:0:0:0:
448,192,22550,1,0,0:0:0:0:
64,192,22722,1,2,0:0:0:0:
192,192,22893,1,2,0:0:0:0:
448,192,22893,1,0,0:0:0:0:
320,192,23065,1,2,0:0:0:0:
64,192,23236,1,2,0:0:0:0:
192,192,23236,1,0,0:0:0:0:
320,192,23408,1,2,0:0:0:0:
448,192,23579,128,2,23922:0:0:0:0:
320,192,23750,128,2,23922:0:0:0:0:
64,192,23922,128,2,24265:0:0:0:0:
192,192,24093,128,2,24265:0:0:0:0:
448,192,24265,1,0,0:0:0:70:FX Squeeze 2.wav
320,192,24436,1,0,0:0:0:70:FX Squeeze 1.wav
64,192,24608,128,0,24950:0:0:0:0:
192,192,24608,1,0,0:0:0:0:
320,192,24950,128,2,25293:0:0:0:0:
448,192,24950,1,4,0:0:0:0:
192,192,25122,128,0,25293:0:0:0:0:
64,192,25293,1,2,0:0:0:0:
448,192,25293,128,0,25636:0:0:0:0:
320,192,25465,128,0,25636:0:0:0:0:
192,192,25636,1,0,0:0:0:100:Drum Clap.wav
64,192,25636,128,0,25808:0:0:0:0:
192,192,25893,128,0,26065:0:0:0:0:
320,192,25893,1,0,0:0:0:0:
320,192,26150,128,0,26322:0:0:0:0:
448,192,26150,1,0,0:0:0:0:
192,192,26322,1,0,0:0:0:0:
64,192,26322,1,0,0:0:0:0:
448,192,26493,128,0,26665:0:0:0:0:
320,192,26665,128,0,26836:0:0:0:0:
192,192,26836,128,0,27008:0:0:0:0:
64,192,27008,1,2,0:0:0:0:
448,192,27008,1,0,0:0:0:0:
320,192,27093,1,0,0:0:0:0:
192,192,27179,128,0,27350:0:0:0:0:
64,192,27350,128,0,27522:0:0:0:0:
448,192,27522,128,2,27693:0:0:0:0:
64,192,27693,1,2,0:0:0:0:
192,192,27693,128,0,28036:0:0:0:0:
320,192,27865,128,0,28036:0:0:0:0:
64,192,28036,128,2,28379:0:0:0:0:
448,192,28036,1,0,0:0:0:0:
192,192,28208,128,0,28379:0:0:0:0:
320,192,28379,1,2,0:0:0:0:
448,192,28379,128,0,28550:0:0:0:0:
192,192,28636,1,2,0:0:0:0:
320,192,28636,128,0,28808:0:0:0:0:
64,192,28893,1,0,0:0:0:0:
192,192,28893,128,0,29065:0:0:0:0:
320,192,29065,1,0,0:0:0:0:
448,192,29065,1,0,0:0:0:0:
64,192,29236,128,0,29408:0:0:0:0:
320,192,29408,1,2,0:0:0:0:
192,192,29579,1,0,0:0:0:0:
320,192,29665,1,0,0:0:0:0:
64,192,29750,128,2,29922:0:0:0:0:
448,192,29750,1,0,0:0:0:100:Drum Clap.wav
320,192,29922,128,0,30093:0:0:0:0:
448,192,30093,128,0,30265:0:0:0:0:
64,192,30265,128,2,30436:0:0:0:0:
192,192,30436,128,2,30779:0:0:0:0:
448,192,30436,1,0,0:0:0:0:
64,192,30608,128,0,30779:0:0:0:0:
320,192,30779,128,2,31122:0:0:0:0:
448,192,30779,1,0,0:0:0:0:
192,192,30950,128,0,31122:0:0:0:0:
448,192,31122,1,0,0:0:0:100:Drum Clap.wav
64,192,31122,128,0,31293:0:0:0:0:
320,192,31379,1,2,0:0:0:0:
448,192,31379,128,0,31550:0:0:0:0:
192,192,31636,1,2,0:0:0:0:
320,192,31636,128,0,31808:0:0:0:0:
64,192,31808,1,2,0:0:0:0:
448,192,31808,1,0,0:0:0:0:
192,192,31979,128,0,32150:0:0:0:0:
64,192,32150,128,2,32322:0:0:0:0:
448,192,32322,128,0,32493:0:0:0:0:
320,192,32493,1,0,0:0:0:100:Drum Clap.wav
64,192,32493,1,0,0:0:0:0:
192,192,32579,1,0,0:0:0:0:
448,192,32665,128,0,32836:0:0:0:0:
64,192,32836,128,0,33008:0:0:0:0:
192,192,33008,128,2,33179:0:0:0:0:
320,192,33179,128,0,33522:0:0:0:0:
64,192,33522,128,2,33693:0:0:0:0:
192,192,33693,128,0,33865:0:0:0:0:
320,192,33865,128,2,34208:0:0:0:0:
64,192,34208,128,0,34379:0:0:0:0:
448,192,34379,128,2,34550:0:0:0:0:
64,192,34550,1,2,0:0:0:0:
192,192,34550,1,0,0:0:0:0:
320,192,34722,1,0,0:0:0:70:Drum Snare.wav
192,192,34808,1,0,0:0:0:0:
448,192,34893,1,2,0:0:0:0:
192,192,35065,1,0,0:0:0:70:Drum Snare.wav
320,192,35150,1,0,0:0:0:70:Drum Snare.wav
64,192,35236,1,2,0:0:0:0:
448,192,35236,128,0,35579:0:0:0:0:
320,192,35408,128,0,35579:0:0:0:70:Drum Snare.wav
64,192,35579,128,0,35922:0:0:0:70:Drum Snare.wav
192,192,35750,128,2,35922:0:0:0:0:
448,192,35922,128,0,36608:0:0:0:70:Percussion Hey sound.wav
320,192,36265,128,0,36608:0:0:0:0:
192,192,36608,1,0,0:0:0:0:
64,192,36608,128,0,36779:0:0:0:0:
192,192,36865,128,0,37036:0:0:0:0:
320,192,36865,1,0,0:0:0:0:
448,192,37122,1,0,0:0:0:0:
320,192,37122,128,0,37293:0:0:0:0:
64,192,37293,128,2,37808:0:0:0:0:
192,192,37293,1,0,0:0:0:0:
448,192,37465,128,0,37636:0:0:0:0:
192,192,37636,128,2,37808:0:0:0:0:
320,192,37808,128,0,38322:0:0:0:0:
64,192,37979,128,2,38150:0:0:0:0:
192,192,38150,128,0,38322:0:0:0:0:
448,192,38322,128,0,38665:0:0:0:0:
320,192,38493,128,2,38665:0:0:0:0:
64,192,38665,128,2,39008:0:0:0:0:
192,192,38665,1,0,0:0:0:0:
320,192,38836,128,0,39008:0:0:0:0:
192,192,39008,128,2,39350:0:0:0:0:
448,192,39008,1,0,0:0:0:0:
64,192,39179,128,0,39350:0:0:0:0:
320,192,39350,1,2,0:0:0:0:
448,192,39350,128,0,39522:0:0:0:0:
192,192,39608,1,0,0:0:0:0:
320,192,39608,128,0,39779:0:0:0:0:
64,192,39865,1,2,0:0:0:0:
192,192,39865,128,0,40036:0:0:0:0:
320,192,40036,1,2,0:0:0:0:
448,192,40036,128,0,40550:0:0:0:0:
64,192,40208,128,0,40379:0:0:0:0:
320,192,40379,128,2,40550:0:0:0:0:
64,192,40550,128,0,41065:0:0:0:0:
448,192,40722,128,2,40893:0:0:0:0:
192,192,40893,128,0,41065:0:0:0:0:
320,192,41065,128,0,41408:0:0:0:0:
448,192,41236,128,2,41408:0:0:0:0:
64,192,41408,128,2,41750:0:0:0:0:
192,192,41408,1,0,0:0:0:0:
448,192,41579,128,0,41750:0:0:0:0:
192,192,41750,128,2,42093:0:0:0:0:
320,192,41750,1,0,0:0:0:0:
64,192,41922,128,0,42093:0:0:0:0:
448,192,42093,1,0,0:0:0:100:Drum Clap.wav
320,192,42093,128,0,42265:0:0:0:0:
448,192,42350,1,0,0:0:0:0:
64,192,42350,128,0,42522:0:0:0:0:
192,192,42608,1,2,0:0:0:0:
320,192,42608,128,0,42779:0:0:0:0:
64,192,42779,1,2,0:0:0:0:
448,192,42779,128,0,43293:0:0:0:0:
192,192,42950,128,0,43122:0:0:0:0:
64,192,43122,128,2,43293:0:0:0:0:
320,192,43293,128,0,43808:0:0:0:0:
64,192,43465,128,2,43636:0:0:0:0:
448,192,43636,128,0,43808:0:0:0:0:
64,192,43808,128,0,44150:0:0:0:0:
192,192,43979,128,2,44150:0:0:0:0:
320,192,44150,128,2,44493:0:0:0:0:
64,192,44493,128,2,44836:0:0:0:0:
192,192,44665,128,0,44836:0:0:0:0:
320,192,44836,128,2,45179:0:0:0:0:
64,192,45179,128,0,45350:0:0:0:0:
448,192,45350,128,2,45522:0:0:0:0:
64,192,45522,1,2,0:0:0:0:
448,192,45693,1,0,0:0:0:70:Drum Snare.wav
192,192,45779,1,0,0:0:0:70:Drum Snare.wav
320,192,45865,1,0,0:0:0:70:Drum Snare.wav
64,192,46036,1,0,0:0:0:70:Drum Snare.wav
320,192,46122,1,0,0:0:0:70:Drum Snare.wav
192,192,46208,1,2,0:0:0:0:
64,192,46208,1,0,0:0:0:0:
448,192,46379,1,0,0:0:0:70:Drum Snare.wav
64,192,46550,128,0,46893:0:0:0:70:Drum Snare.wav
192,192,46722,128,2,46893:0:0:0:0:
320,192,46893,1,2,0:0:0:0:
448,192,46893,1,4,0:0:0:0:
64,192,47236,1,2,0:0:0:0:
448,192,47236,128,0,47408:0:0:0:100:Drum Clap.wav
192,192,47408,1,0,0:0:0:0:
320,192,47579,1,2,0:0:0:0:
448,192,47579,1,0,0:0:0:0:
64,192,47750,1,0,0:0:0:0:
320,192,47836,1,0,0:0:0:0:
448,192,48008,1,0,0:0:0:0:
192,192,48093,1,0,0:0:0:0:
320,192,48265,1,0,0:0:0:0:
448,192,48265,1,0,0:0:0:0:
64,192,48608,128,2,48779:0:0:0:0:
448,192,48608,1,0,0:0:0:100:Drum Clap.wav
320,192,48779,1,0,0:0:0:0:
64,192,48950,1,2,0:0:0:0:
192,192,48950,1,0,0:0:0:0:
448,192,49122,1,0,0:0:0:0:
192,192,49208,1,2,0:0:0:0:
64,192,49379,1,0,0:0:0:0:
320,192,49465,1,0,0:0:0:0:
192,192,49636,1,0,0:0:0:0:
64,192,49636,1,0,0:0:0:0:
448,192,49979,1,2,0:0:0:0:
320,192,49979,128,0,50150:0:0:0:100:Drum Clap.wav
64,192,50150,1,0,0:0:0:0:
448,192,50322,1,2,0:0:0:0:
320,192,50322,1,0,0:0:0:0:
64,192,50493,1,0,0:0:0:0:
320,192,50579,1,0,0:0:0:0:
448,192,50750,1,0,0:0:0:0:
192,192,50836,1,0,0:0:0:0:
448,192,51008,1,4,0:0:0:0:
320,192,51008,1,2,0:0:0:0:
192,192,51350,128,2,51522:0:0:0:0:
64,192,51350,1,0,0:0:0:100:Drum Clap.wav
448,192,51522,1,0,0:0:0:0:
192,192,51693,1,2,0:0:0:0:
64,192,51693,1,0,0:0:0:0:
320,192,51865,1,0,0:0:0:0:
64,192,51950,1,2,0:0:0:0:
192,192,52122,1,0,0:0:0:0:
448,192,52208,1,2,0:0:0:0:
64,192,52379,1,10,0:0:0:0:
192,192,52379,1,4,0:0:0:0:
320,192,52550,1,8,0:0:0:0:
192,192,52636,1,8,0:0:0:0:
64,192,52722,128,2,52893:0:0:0:0:
448,192,52722,128,0,52893:0:0:0:0:
192,192,52893,1,8,0:0:0:0:
320,192,53065,1,10,0:0:0:0:
448,192,53065,1,4,0:0:0:0:
192,192,53236,1,8,0:0:0:0:
320,192,53322,1,2,0:0:0:0:
64,192,53408,128,8,53579:0:0:0:0:
448,192,53408,128,0,53579:0:0:0:0:
192,192,53579,1,10,0:0:0:0:
320,192,53750,1,10,0:0:0:0:
448,192,53750,1,4,0:0:0:0:
64,192,53922,1,8,0:0:0:0:
320,192,54008,1,8,0:0:0:0:
64,192,54093,128,2,54265:0:0:0:0:
192,192,54093,128,0,54265:0:0:0:0:
448,192,54265,1,8,0:0:0:0:
64,192,54436,1,10,0:0:0:0:
192,192,54436,1,4,0:0:0:0:
448,192,54608,1,8,0:0:0:0:
192,192,54693,1,2,0:0:0:0:
320,192,54779,128,8,54950:0:0:0:0:
448,192,54779,128,0,54950:0:0:0:0:
64,192,55122,128,2,55293:0:0:0:0:
192,192,55122,1,8,0:0:0:60:soft-hitclap.wav
320,192,55293,128,8,55465:0:0:0:60:soft-hitclap.wav
448,192,55465,128,2,55636:0:0:0:0:
192,192,55636,128,8,55808:0:0:0:60:soft-hitclap.wav
320,192,55808,128,2,55979:0:0:0:0:
448,192,55808,1,8,0:0:0:60:soft-hitclap.wav
64,192,55979,128,8,56150:0:0:0:60:soft-hitclap.wav
192,192,56150,128,8,56322:0:0:0:60:soft-hitclap.wav
448,192,56322,128,2,56493:0:0:0:0:
64,192,56493,128,2,56836:0:0:0:0:
192,192,56665,128,8,56836:0:0:0:40:soft-hitclap.wav
448,192,56836,128,8,57179:0:0:0:30:soft-hitclap.wav
320,192,57008,128,8,57179:0:0:0:30:soft-hitclap.wav
64,192,57179,128,8,57350:0:0:0:20:soft-hitclap.wav
448,192,57350,128,8,57522:0:0:0:20:soft-hitclap.wav
192,192,57522,128,8,57865:0:0:0:10:soft-hitclap.wav
320,192,57865,128,2,58036:0:0:0:0:
448,192,57865,128,4,58208:0:0:0:0:
192,192,58208,128,0,58379:0:0:0:0:
64,192,58379,128,0,58550:0:0:0:0:
320,192,58550,128,0,58722:0:0:0:0:
448,192,58550,1,0,0:0:0:0:
64,192,58808,128,0,58979:0:0:0:0:
192,192,58808,1,0,0:0:0:0:
448,192,59065,128,0,59236:0:0:0:0:
320,192,59065,1,0,0:0:0:0:
64,192,59236,1,4,0:0:0:0:
192,192,59236,128,0,59408:0:0:0:0:
320,192,59579,1,4,0:0:0:0:
448,192,59579,128,0,59750:0:0:0:0:
192,192,59922,1,2,0:0:0:0:
320,192,59922,128,4,60093:0:0:0:0:
192,192,60179,1,2,0:0:0:0:
64,192,60179,128,4,60350:0:0:0:0:
448,192,60436,1,2,0:0:0:0:
320,192,60436,128,4,60608:0:0:0:0:
64,192,60608,128,2,60950:0:0:0:0:
192,192,60608,128,0,60779:0:0:0:0:
320,192,60950,128,2,61122:0:0:0:0:
448,192,61122,128,0,61293:0:0:0:0:
64,192,61293,128,2,61465:0:0:0:0:
192,192,61293,1,4,0:0:0:0:
192,192,61550,128,2,61722:0:0:0:0:
320,192,61550,1,4,0:0:0:0:
448,192,61808,128,4,61979:0:0:0:0:
320,192,61808,1,2,0:0:0:0:
64,192,61979,128,0,62150:0:0:0:0:
192,192,61979,1,0,0:0:0:0:
192,192,62322,1,2,0:0:0:0:
320,192,62322,128,0,62493:0:0:0:0:
64,192,62665,1,4,0:0:0:0:
192,192,62665,128,2,62836:0:0:0:0:
448,192,62922,1,4,0:0:0:0:
320,192,62922,128,2,63093:0:0:0:0:
192,192,63179,1,4,0:0:0:0:
64,192,63179,128,2,63350:0:0:0:0:
320,192,63350,1,2,0:0:0:0:
448,192,63350,1,0,0:0:0:0:
64,192,63608,1,0,0:0:0:0:
192,192,63608,1,0,0:0:0:0:
320,192,63865,1,2,0:0:0:0:
192,192,63950,1,0,0:0:0:0:
64,192,64036,1,2,0:0:0:0:
448,192,64036,1,0,0:0:0:0:
320,192,64208,1,0,0:0:0:0:
64,192,64293,1,2,0:0:0:0:
448,192,64379,1,0,0:0:0:0:
192,192,64550,1,2,0:0:0:0:
64,192,64722,1,2,0:0:0:0:
448,192,64722,1,0,0:0:0:0:
192,192,64979,1,0,0:0:0:0:
320,192,64979,1,0,0:0:0:0:
448,192,65236,1,2,0:0:0:0:
320,192,65322,1,0,0:0:0:0:
64,192,65408,1,2,0:0:0:0:
192,192,65408,1,0,0:0:0:0:
320,192,65579,1,0,0:0:0:0:
448,192,65665,1,2,0:0:0:0:
64,192,65750,1,0,0:0:0:0:
320,192,65922,1,2,0:0:0:0:
64,192,66093,1,2,0:0:0:0:
192,192,66093,1,4,0:0:0:0:
320,192,66265,1,2,0:0:0:0:
64,192,66436,1,2,0:0:0:0:
448,192,66436,1,0,0:0:0:0:
192,192,66608,1,2,0:0:0:0:
320,192,66779,1,2,0:0:0:0:
448,192,66779,128,4,66950:0:0:0:0:
64,192,66950,128,2,67122:0:0:0:0:
192,192,67122,128,2,67293:0:0:0:0:
448,192,67293,128,2,67465:0:0:0:0:
64,192,67465,1,2,0:0:0:0:
192,192,67465,1,4,0:0:0:0:
448,192,67808,1,0,0:0:0:0:
320,192,67893,1,0,0:0:0:0:
64,192,67979,1,0,0:0:0:0:
192,192,68065,1,0,0:0:0:0:
320,192,68150,1,0,0:0:0:0:
64,192,68408,1,0,0:0:0:0:
448,192,68493,128,8,68665:0:0:0:0:
320,192,68665,1,0,0:0:0:0:
64,192,68836,128,2,69179:0:0:0:0:
192,192,68836,128,4,69008:0:0:0:0:
320,192,69179,1,6,0:0:0:0:
448,192,69265,1,0,0:0:0:0:
192,192,69350,1,0,0:0:0:0:
320,192,69436,1,0,0:0:0:0:
64,192,69522,128,4,69693:0:0:0:0:
192,192,69522,1,2,0:0:0:0:
192,192,69779,128,0,69950:0:0:0:70:Drum Snare.wav
320,192,69779,1,0,0:0:0:0:
448,192,70036,128,0,70208:0:0:0:70:Drum Snare.wav
320,192,70036,1,0,0:0:0:0:
192,192,70208,1,0,0:0:0:0:
64,192,70208,128,0,70379:0:0:0:0:
448,192,70550,1,4,0:0:0:0:
320,192,70550,128,0,70722:0:0:0:0:
320,192,70893,1,4,0:0:0:0:
192,192,70893,128,2,71065:0:0:0:0:
320,192,71150,1,0,0:0:0:70:Drum Snare.wav
448,192,71150,128,0,71322:0:0:0:0:
64,192,71408,1,0,0:0:0:70:Drum Snare.wav
192,192,71408,128,0,71579:0:0:0:0:
320,192,71579,128,4,71750:0:0:0:0:
448,192,71579,128,2,71922:0:0:0:0:
192,192,71922,1,6,0:0:0:0:
64,192,72008,1,0,0:0:0:0:
320,192,72093,1,0,0:0:0:0:
192,192,72179,1,0,0:0:0:0:
320,192,72265,1,4,0:0:0:0:
448,192,72265,128,2,72436:0:0:0:0:
192,192,72522,1,0,0:0:0:70:Drum Snare.wav
320,192,72522,128,0,72693:0:0:0:0:
64,192,72779,128,0,72950:0:0:0:0:
192,192,72779,1,0,0:0:0:0:
320,192,72950,1,0,0:0:0:0:
448,192,72950,128,0,73122:0:0:0:0:
192,192,73293,128,0,73465:0:0:0:0:
64,192,73293,1,0,0:0:0:0:
192,192,73636,128,4,73808:0:0:0:0:
320,192,73636,1,2,0:0:0:0:
64,192,73893,128,0,74065:0:0:0:70:Drum Snare.wav
192,192,73893,1,0,0:0:0:0:
448,192,74150,128,0,74322:0:0:0:70:Drum Snare.wav
320,192,74150,1,0,0:0:0:0:
64,192,74322,1,2,0:0:0:0:
192,192,74322,1,0,0:0:0:70:FX Squeeze 2.wav
448,192,74493,1,0,0:0:0:70:FX Squeeze 1.wav
64,192,74665,1,2,0:0:0:0:
320,192,74665,1,0,0:0:0:70:FX Squeeze 2.wav
192,192,74836,1,0,0:0:0:70:FX Squeeze 1.wav
320,192,74922,1,0,0:0:0:0:
64,192,75008,1,2,0:0:0:0:
448,192,75008,1,0,0:0:0:70:FX Squeeze 2.wav
192,192,75179,1,0,0:0:0:70:FX Squeeze 1.wav
320,192,75350,1,2,0:0:0:0:
448,192,75350,1,0,0:0:0:0:
64,192,75522,1,0,0:0:0:70:FX Squeeze 2.wav
320,192,75693,1,2,0:0:0:0:
448,192,75693,1,0,0:0:0:70:FX Squeeze 2.wav
64,192,75865,1,0,0:0:0:70:FX Squeeze 1.wav
192,192,76036,1,2,0:0:0:0:
448,192,76036,1,0,0:0:0:70:FX Squeeze 2.wav
320,192,76208,1,0,0:0:0:70:FX Squeeze 1.wav
192,192,76293,1,0,0:0:0:0:
64,192,76379,1,2,0:0:0:0:
448,192,76379,1,0,0:0:0:70:FX Squeeze 2.wav
320,192,76550,1,0,0:0:0:70:FX Squeeze 1.wav
192,192,76722,1,2,0:0:0:0:
64,192,76722,1,0,0:0:0:0:
448,192,76893,1,0,0:0:0:70:FX Squeeze 2.wav
64,192,77065,1,2,0:0:0:0:
192,192,77065,128,0,77408:0:0:0:0:
320,192,77236,128,0,77408:0:0:0:0:
64,192,77408,128,2,77750:0:0:0:0:
448,192,77408,1,0,0:0:0:0:
192,192,77579,128,0,77750:0:0:0:0:
320,192,77750,128,2,78093:0:0:0:0:
448,192,77750,1,0,0:0:0:0:
192,192,77922,128,0,78093:0:0:0:0:
64,192,78093,1,2,0:0:0:0:
448,192,78093,128,0,78436:0:0:0:0:
320,192,78265,128,0,78436:0:0:0:0:
64,192,78436,1,2,0:0:0:0:
448,192,78608,1,0,0:0:0:70:Drum Snare.wav
320,192,78693,1,0,0:0:0:0:
64,192,78779,1,0,0:0:0:70:Drum Snare 03.wav
192,192,78865,1,0,0:0:0:70:Drum Snare.wav
448,192,79036,1,0,0:0:0:70:Drum Snare.wav
448,192,79208,1,0,0:0:0:70:Drum Snare 03.wav
192,192,79293,1,0,0:0:0:0:
64,192,79379,1,0,0:0:0:70:Drum Snare.wav
320,192,79465,1,8,0:0:0:0:
192,192,79636,1,0,0:0:0:0:
448,192,79808,1,4,0:0:0:0:
320,192,79893,1,0,0:0:0:0:
192,192,79979,1,0,0:0:0:0:
320,192,80322,1,0,0:0:0:0:
448,192,80665,1,0,0:0:0:0:
64,192,80836,1,0,0:0:0:0:
192,192,81179,1,0,0:0:0:0:
320,192,81350,1,0,0:0:0:0:
64,192,81693,1,0,0:0:0:0:
448,192,81779,1,0,0:0:0:0:
192,192,81865,1,0,0:0:0:0:
192,192,82208,1,0,0:0:0:0:
64,192,82550,1,0,0:0:0:0:
192,192,82636,1,0,0:0:0:0:
320,192,82722,1,0,0:0:0:0:
192,192,82893,1,0,0:0:0:0:
448,192,83236,1,0,0:0:0:0:
320,192,83493,1,0,0:0:0:0:
448,192,83750,1,0,0:0:0:0:
64,192,83922,1,0,0:0:0:0:
320,192,84093,1,0,0:0:0:0:
448,192,84265,1,0,0:0:0:0:
64,192,84436,1,0,0:0:0:0:
448,192,84608,1,0,0:0:0:0:
320,192,84779,1,0,0:0:0:0:
64,192,84950,1,0,0:0:0:0:
320,192,85122,1,0,0:0:0:0:
192,192,85293,1,0,0:0:0:0:
320,192,85379,1,0,0:0:0:0:
448,192,85465,1,0,0:0:0:0:
448,192,85808,1,0,0:0:0:0:
320,192,86150,1,0,0:0:0:0:
64,192,86322,1,0,0:0:0:0:
320,192,86665,1,0,0:0:0:0:
64,192,87008,1,0,0:0:0:0:
448,192,87350,1,0,0:0:0:0:
320,192,87608,1,0,0:0:0:0:
448,192,87865,1,0,0:0:0:0:
320,192,88036,1,0,0:0:0:0:
192,192,88122,1,0,0:0:0:0:
64,192,88208,1,0,0:0:0:0:
448,192,88550,1,0,0:0:0:0:
64,192,88636,1,0,0:0:0:0:
192,192,88722,1,0,0:0:0:0:
64,192,88979,1,0,0:0:0:0:
192,192,89236,1,0,0:0:0:0:
320,192,89408,1,0,0:0:0:0:
448,192,89665,1,0,0:0:0:0:
320,192,90008,1,0,0:0:0:0:
64,192,90093,1,0,0:0:0:0:
448,192,90179,1,0,0:0:0:0:
192,192,90265,1,0,0:0:0:0:
320,192,90350,1,0,0:0:0:0:
64,192,90436,1,0,0:0:0:0:
448,192,90608,1,0,0:0:0:0:
64,192,90779,1,2,0:0:0:0:
192,192,90779,128,0,90950:0:0:0:0:
320,192,91036,128,0,91208:0:0:0:0:
64,192,91293,128,0,91465:0:0:0:70:Drum Snare.wav
320,192,91550,128,0,91722:0:0:0:70:Drum Snare.wav
448,192,91808,128,2,91979:0:0:0:0:
192,192,91979,128,0,92150:0:0:0:70:Drum Snare.wav
320,192,92150,1,2,0:0:0:0:
448,192,92150,128,0,92322:0:0:0:0:
64,192,92408,128,0,92579:0:0:0:0:
320,192,92665,128,0,92836:0:0:0:70:Drum Snare.wav
192,192,92922,128,0,93093:0:0:0:70:Drum Snare.wav
448,192,93179,128,2,93350:0:0:0:0:
320,192,93350,128,0,93522:0:0:0:70:Drum Snare.wav
64,192,93522,128,2,93693:0:0:0:0:
192,192,93522,1,0,0:0:0:0:
320,192,93779,128,0,93950:0:0:0:0:
64,192,94036,128,0,94208:0:0:0:70:Drum Snare.wav
448,192,94293,128,0,94465:0:0:0:70:Drum Snare.wav
192,192,94550,128,2,94722:0:0:0:0:
64,192,94722,128,0,94893:0:0:0:70:Drum Snare.wav
320,192,94893,1,2,0:0:0:0:
448,192,94893,128,0,95065:0:0:0:0:
192,192,95150,128,0,95322:0:0:0:70:Drum Snare.wav
320,192,95408,128,0,95579:0:0:0:70:Drum Snare.wav
64,192,95665,128,0,95836:0:0:0:70:Drum Snare.wav
448,192,95922,128,2,96093:0:0:0:0:
320,192,96093,128,0,96265:0:0:0:70:Drum Snare.wav
64,192,96265,1,2,0:0:0:0:
192,192,96265,128,8,96436:0:0:0:0:
320,192,96522,128,0,96693:0:0:0:0:
64,192,96779,128,0,96950:0:0:0:70:Drum Snare.wav
320,192,96950,1,2,0:0:0:0:
448,192,96950,1,8,0:0:0:0:
192,192,97036,128,0,97208:0:0:0:0:
448,192,97293,128,10,97465:0:0:0:0:
64,192,97465,128,0,97636:0:0:0:70:Drum Snare.wav
320,192,97636,1,2,0:0:0:0:
448,192,97636,128,8,97808:0:0:0:0:
192,192,97893,128,0,98065:0:0:0:0:
448,192,98150,128,0,98322:0:0:0:70:Drum Snare.wav
64,192,98322,1,2,0:0:0:0:
192,192,98322,1,8,0:0:0:0:
320,192,98408,128,0,98579:0:0:0:0:
64,192,98665,128,10,98836:0:0:0:0:
320,192,98836,128,0,99008:0:0:0:70:Drum Snare.wav
64,192,99008,128,0,99179:0:0:0:0:
192,192,99008,1,0,0:0:0:0:
448,192,99179,1,0,0:0:0:0:
320,192,99265,1,0,0:0:0:0:
192,192,99350,1,0,0:0:0:0:
448,192,99522,128,0,99693:0:0:0:0:
64,192,99693,1,0,0:0:0:0:
192,192,99779,1,0,0:0:0:0:
320,192,99865,1,0,0:0:0:0:
448,192,100036,128,0,100208:0:0:0:0:
320,192,100208,128,0,100379:0:0:0:0:
192,192,100379,1,2,0:0:0:0:
64,192,100379,128,8,100550:0:0:0:40:soft-hitclap.wav
448,192,100550,128,8,100722:0:0:0:40:soft-hitclap.wav
64,192,100722,128,2,100893:0:0:0:0:
320,192,100722,1,8,0:0:0:30:soft-hitclap.wav
192,192,100893,128,8,101065:0:0:0:30:soft-hitclap.wav
448,192,101065,1,2,0:0:0:0:
320,192,101150,1,8,0:0:0:20:soft-hitclap.wav
64,192,101236,1,8,0:0:0:20:soft-hitclap.wav
192,192,101322,1,8,0:0:0:20:soft-hitclap.wav
448,192,101408,128,2,101750:0:0:0:0:
320,192,101579,128,2,101750:0:0:0:0:
64,192,101750,128,2,101922:0:0:0:0:
192,192,101750,1,4,0:0:0:0:
448,192,101922,1,0,0:0:0:0:
320,192,102008,128,0,102179:0:0:0:0:
64,192,102179,1,0,0:0:0:0:
192,192,102265,128,0,102436:0:0:0:0:
448,192,102436,1,2,0:0:0:0:
320,192,102522,128,0,102693:0:0:0:0:
64,192,102779,128,2,102950:0:0:0:0:
320,192,102950,128,0,103122:0:0:0:0:
64,192,103122,1,2,0:0:0:0:
448,192,103122,128,0,103293:0:0:0:0:
192,192,103293,1,0,0:0:0:0:
64,192,103379,128,0,103550:0:0:0:0:
320,192,103550,1,0,0:0:0:0:
192,192,103636,128,0,103808:0:0:0:0:
448,192,103808,1,2,0:0:0:0:
320,192,103893,128,0,104065:0:0:0:0:
192,192,104150,128,2,104322:0:0:0:0:
448,192,104322,128,0,104493:0:0:0:0:
64,192,104493,1,2,0:0:0:0:
192,192,104493,128,0,104665:0:0:0:0:
320,192,104665,1,0,0:0:0:0:
448,192,104750,128,0,104922:0:0:0:0:
192,192,104922,1,0,0:0:0:0:
320,192,105008,128,0,105179:0:0:0:0:
64,192,105179,1,2,0:0:0:0:
192,192,105265,128,0,105436:0:0:0:0:
448,192,105522,128,2,105693:0:0:0:0:
192,192,105693,128,0,105865:0:0:0:0:
64,192,105865,128,2,106036:0:0:0:0:
448,192,105865,1,0,0:0:0:0:
320,192,106036,1,0,0:0:0:0:
448,192,106122,128,0,106293:0:0:0:0:
192,192,106293,1,0,0:0:0:0:
64,192,106379,128,0,106550:0:0:0:0:
320,192,106550,1,2,0:0:0:0:
448,192,106636,128,0,106808:0:0:0:0:
192,192,106893,128,2,107065:0:0:0:0:
64,192,107065,128,0,107236:0:0:0:0:
320,192,107236,1,2,0:0:0:0:
448,192,107236,128,0,107408:0:0:0:0:
64,192,107408,1,0,0:0:0:0:
192,192,107493,128,0,107665:0:0:0:0:
448,192,107665,1,0,0:0:0:0:
320,192,107750,128,0,107922:0:0:0:0:
64,192,107922,1,2,0:0:0:0:
192,192,108008,128,0,108179:0:0:0:0:
448,192,108265,128,2,108436:0:0:0:0:
192,192,108436,128,0,108608:0:0:0:0:
64,192,108608,128,2,108779:0:0:0:0:
448,192,108608,1,0,0:0:0:0:
320,192,108779,1,0,0:0:0:0:
448,192,108865,128,0,109036:0:0:0:0:
192,192,109036,1,0,0:0:0:0:
320,192,109122,128,0,109293:0:0:0:0:
64,192,109293,1,2,0:0:0:0:
192,192,109379,128,0,109550:0:0:0:0:
320,192,109636,128,2,109808:0:0:0:0:
64,192,109808,128,0,109979:0:0:0:0:
320,192,109979,128,2,110150:0:0:0:0:
448,192,109979,1,0,0:0:0:0:
192,192,110150,1,0,0:0:0:0:
64,192,110236,128,0,110408:0:0:0:0:
320,192,110408,1,0,0:0:0:0:
192,192,110493,128,0,110665:0:0:0:0:
448,192,110665,1,2,0:0:0:0:
320,192,110750,128,0,110922:0:0:0:0:
64,192,111008,128,2,111179:0:0:0:0:
320,192,111179,128,0,111350:0:0:0:0:
64,192,111350,1,2,0:0:0:0:
448,192,111350,128,0,111522:0:0:0:0:
192,192,111522,1,0,0:0:0:0:
64,192,111608,128,0,111779:0:0:0:0:
320,192,111779,1,0,0:0:0:0:
448,192,111865,128,0,112036:0:0:0:0:
64,192,112036,1,2,0:0:0:0:
192,192,112122,128,0,112293:0:0:0:0:
448,192,112379,128,2,112550:0:0:0:0:
320,192,112550,128,0,112722:0:0:0:0:
64,192,112722,128,10,112893:0:0:0:0:
192,192,112722,1,4,0:0:0:0:
448,192,112893,1,0,0:0:0:70:Drum Snare.wav
320,192,112979,128,0,113150:0:0:0:0:
64,192,113150,1,0,0:0:0:0:
192,192,113236,128,0,113408:0:0:0:70:Drum Snare.wav
64,192,113408,1,2,0:0:0:0:
448,192,113408,1,0,0:0:0:0:
320,192,113493,1,0,0:0:0:0:
192,192,113579,1,0,0:0:0:0:
64,192,113750,128,10,113922:0:0:0:0:
320,192,113922,128,0,114093:0:0:0:70:Drum Snare.wav
64,192,114093,1,2,0:0:0:0:
448,192,114093,128,8,114265:0:0:0:0:
192,192,114265,1,0,0:0:0:70:Drum Snare.wav
64,192,114350,128,0,114522:0:0:0:0:
448,192,114522,1,0,0:0:0:0:
320,192,114608,128,0,114779:0:0:0:70:Drum Snare.wav
64,192,114779,1,2,0:0:0:0:
448,192,114779,1,0,0:0:0:0:
192,192,114865,1,0,0:0:0:0:
320,192,114950,1,0,0:0:0:0:
192,192,115122,128,10,115293:0:0:0:0:
448,192,115293,128,0,115465:0:0:0:70:Drum Snare.wav
64,192,115465,1,2,0:0:0:0:
192,192,115465,128,8,115636:0:0:0:0:
320,192,115636,1,0,0:0:0:70:Drum Snare.wav
448,192,115722,128,0,115893:0:0:0:0:
64,192,115893,1,0,0:0:0:0:
192,192,115979,128,0,116150:0:0:0:70:Drum Snare.wav
448,192,116150,1,8,0:0:0:0:
64,192,116150,1,0,0:0:0:0:
320,192,116236,1,0,0:0:0:0:
192,192,116322,1,0,0:0:0:0:
448,192,116493,128,10,116665:0:0:0:0:
192,192,116665,128,0,116836:0:0:0:70:Drum Snare.wav
64,192,116836,128,2,117008:0:0:0:0:
448,192,116836,1,8,0:0:0:0:
320,192,117008,1,0,0:0:0:70:Drum Snare.wav
448,192,117093,128,0,117265:0:0:0:0:
192,192,117265,1,0,0:0:0:0:
320,192,117350,128,0,117522:0:0:0:0:
448,192,117522,1,8,0:0:0:0:
64,192,117522,1,0,0:0:0:0:
192,192,117608,1,0,0:0:0:0:
320,192,117693,1,0,0:0:0:0:
192,192,117865,128,10,118036:0:0:0:0:
64,192,118036,128,0,118208:0:0:0:70:Drum Snare.wav
320,192,118208,1,2,0:0:0:0:
448,192,118208,128,4,118379:0:0:0:0:
64,192,118379,1,8,0:0:0:0:
192,192,118465,128,0,118636:0:0:0:0:
448,192,118636,1,0,0:0:0:0:
320,192,118722,128,8,118893:0:0:0:0:
64,192,118893,1,2,0:0:0:0:
448,192,118893,1,0,0:0:0:0:
192,192,118979,128,0,119150:0:0:0:0:
448,192,119236,128,2,119408:0:0:0:0:
192,192,119408,128,8,119579:0:0:0:0:
64,192,119579,128,2,119750:0:0:0:0:
448,192,119579,1,4,0:0:0:0:
320,192,119750,1,8,0:0:0:0:
448,192,119836,128,0,120008:0:0:0:0:
64,192,120008,1,0,0:0:0:0:
192,192,120093,128,8,120265:0:0:0:0:
64,192,120265,1,2,0:0:0:0:
448,192,120265,1,0,0:0:0:0:
320,192,120350,128,0,120522:0:0:0:0:
192,192,120608,128,2,120779:0:0:0:0:
64,192,120779,128,8,120950:0:0:0:0:
320,192,120950,128,6,121122:0:0:0:0:
448,192,120950,1,8,0:0:0:60:soft-hitclap.wav
192,192,121122,1,8,0:0:0:60:soft-hitclap.wav
64,192,121208,128,8,121379:0:0:0:60:soft-hitclap.wav
320,192,121379,1,8,0:0:0:60:soft-hitclap.wav
192,192,121465,128,8,121636:0:0:0:60:soft-hitclap.wav
64,192,121636,1,2,0:0:0:0:
448,192,121636,1,8,0:0:0:50:soft-hitclap.wav
320,192,121722,128,8,121893:0:0:0:50:soft-hitclap.wav
64,192,121979,128,2,122150:0:0:0:0:
320,192,122150,128,8,122322:0:0:0:50:soft-hitclap.wav
64,192,122322,1,2,0:0:0:0:
448,192,122322,128,8,122493:0:0:0:40:soft-hitclap.wav
64,192,122579,128,8,122750:0:0:0:40:soft-hitclap.wav
448,192,122836,128,8,123008:0:0:0:40:soft-hitclap.wav
192,192,123093,128,8,123265:0:0:0:30:soft-hitclap.wav
320,192,123350,128,2,123522:0:0:0:0:
192,192,123522,128,8,123693:0:0:0:30:soft-hitclap.wav
64,192,123693,1,4,0:0:0:0:
448,192,123693,1,0,0:0:0:0:
