osu file format v14

[General]
AudioFilename: audio.mp3
AudioLeadIn: 0
PreviewTime:113663
Countdown: 0
SampleSet: Soft
StackLeniency: 0.2
Mode: 0
LetterboxInBreaks: 0
WidescreenStoryboard: 1
SamplesMatchPlaybackRate: 1

[Editor]
DistanceSpacing: 0.1
BeatDivisor: 4
GridSize: 4
TimelineZoom: 2.539999

[Metadata]
Title:This Club is Not 4 U
TitleUnicode:This Club is Not 4 U
Artist:EmoCo.
ArtistUnicode:EmoCo.
Creator:Ryuusei Aika
Version:#1: Ellyu's Expert
Source:Muse Dash
Tags:EmoCosine G2R2018 go back 2 your roots 2018 climax BMS electronic instrumental for you pdc pdc2019 pending cup 2019 future bass Seolv Ellyu handsome muscle handsome_muscle Yugu Lasse Lukas [_L_u_k_a_s_] IOException deadcode Elayue ceo_of_osu ceo of osu kanor rhythm video game
BeatmapID:2663016
BeatmapSetID:1282123

[Difficulty]
HPDrainRate:6
CircleSize:4.2
OverallDifficulty:8
ApproachRate:9.2
SliderMultiplier:2
SliderTickRate:1

[Events]
//Background and Video events
0,0,"57490276_p0_master1200.jpg",0,0
//Break Periods
2,90284,94765
//Storyboard Layer 0 (Background)
//Storyboard Layer 1 (Fail)
//Storyboard Layer 2 (Pass)
//Storyboard Layer 3 (Foreground)
//Storyboard Layer 4 (Overlay)
//Storyboard Sound Samples

[TimingPoints]
85,375,4,2,29,60,1,0
85,-100,4,2,29,60,0,0
6085,-100,4,2,1,60,0,0
11335,-166.666666666667,4,1,50,60,0,0
11710,-55.5555555555556,4,1,50,80,0,0
11991,-55.5555555555556,4,1,50,5,0,0
12085,-66.6666666666667,4,2,1,70,0,1
16585,-66.6666666666667,4,2,2,70,0,1
18085,-50,4,2,1,60,0,0
18460,-100,4,1,50,80,0,0
18835,-50,4,2,1,60,0,0
19210,-100,4,1,50,60,0,0
19585,-62.5,4,2,1,60,0,1
21085,-50,4,2,1,60,0,0
21460,-100,4,1,50,80,0,0
21835,-50,4,2,1,60,0,0
22210,-100,4,1,50,60,0,0
22585,-62.5,4,2,1,60,0,1
23335,-62.5,4,1,40,60,0,1
24085,-66.6666666666667,4,2,1,70,0,1
25585,-62.5,4,2,1,70,0,1
27085,-58.8235294117647,4,2,1,70,0,1
27460,-62.5,4,2,1,70,0,1
27835,-66.6666666666667,4,2,1,70,0,1
28210,-71.4285714285714,4,2,1,70,0,1
28585,-71.4285714285714,4,2,1,50,0,0
29335,-71.4285714285714,4,3,10,90,0,0
29428,-71.4285714285714,4,3,11,90,0,0
29522,-71.4285714285714,4,3,10,90,0,0
29616,-71.4285714285714,4,3,12,90,0,0
29710,-71.4285714285714,4,3,13,90,0,0
29803,-71.4285714285714,4,3,14,90,0,0
29897,-71.4285714285714,4,3,15,90,0,0
29991,-71.4285714285714,4,3,16,90,0,0
30085,-83.3333333333333,4,2,1,60,0,0
30460,-133.333333333333,4,1,61,70,0,0
30553,-133.333333333333,4,1,62,70,0,0
30647,-133.333333333333,4,1,61,70,0,0
30835,-83.3333333333333,4,2,1,60,0,0
32335,-76.9230769230769,4,2,10,50,0,0
32710,-100,4,2,10,70,0,0
33085,-83.3333333333333,4,2,1,60,0,0
34585,-100,4,2,1,60,0,0
36085,-83.3333333333333,4,2,1,60,0,0
40585,-76.9230769230769,4,2,1,60,0,1
41710,-76.9230769230769,4,2,27,60,0,1
41803,-76.9230769230769,4,2,1,60,0,1
42085,-62.5,4,2,1,70,0,1
45085,-76.9230769230769,4,2,1,70,0,0
48085,-62.5,4,2,1,70,0,1
51085,-76.9230769230769,4,2,1,70,0,0
52585,-100,4,2,1,50,0,0
53335,-133.333333333333,4,2,1,50,0,0
53616,-133.333333333333,4,2,1,60,0,0
53850,-133.333333333333,4,2,1,70,0,0
54085,-66.6666666666667,4,1,31,70,0,1
54835,-142.857142857143,4,1,31,40,0,0
55585,-66.6666666666667,4,1,33,70,0,1
56335,-142.857142857143,4,1,31,40,0,0
57085,-62.5,4,1,34,70,0,1
57460,-62.5,4,1,31,40,0,0
57835,-52.6315789473684,4,1,35,70,0,1
57881,-52.6315789473684,4,2,4,70,0,1
58210,-52.6315789473684,4,1,31,40,0,0
58585,-52.6315789473684,4,2,1,70,0,1
59335,-52.6315789473684,4,1,29,90,0,1
59710,-105.263157894737,4,1,28,80,0,0
60085,-45.4545454545455,4,1,32,80,0,1
60131,-45.4545454545455,4,2,3,70,0,1
61585,-45.4545454545455,4,2,4,70,0,1
61631,-45.4545454545455,4,2,3,70,0,1
63085,-45.4545454545455,4,2,4,70,0,1
63178,-45.4545454545455,4,1,31,40,0,1
64585,-100,4,2,23,60,0,0
64772,-100,4,2,3,40,0,0
65710,-50,4,2,3,70,0,1
66085,-100,4,3,2,70,0,0
66835,-100,4,3,3,70,0,0
67585,-100,4,3,2,70,0,0
68335,-100,4,3,3,70,0,0
69085,-100,4,3,2,70,0,0
69835,-100,4,3,3,70,0,0
70585,-100,4,3,2,70,0,0
71335,-100,4,3,3,70,0,0
72085,-100,4,3,2,70,0,0
72835,-100,4,3,3,70,0,0
73585,-100,4,3,2,70,0,0
74335,-100,4,3,3,70,0,0
75085,-100,4,3,2,70,0,0
75835,-100,4,3,3,70,0,0
76585,-100,4,3,24,60,0,0
77335,-50,4,1,29,80,0,1
77397,-50,4,1,29,5,0,1
77460,-50,4,1,29,80,0,1
77522,-50,4,1,29,5,0,1
77585,-50,4,1,29,80,0,1
77647,-50,4,1,29,5,0,1
77710,-50,4,1,28,90,0,1
77897,-50,4,1,28,5,0,1
78085,-66.6666666666667,4,3,2,80,0,0
78835,-66.6666666666667,4,3,3,80,0,0
79585,-66.6666666666667,4,3,2,80,0,0
80335,-66.6666666666667,4,3,3,80,0,0
80710,-100,4,3,3,80,0,0
81085,-66.6666666666667,4,3,2,80,0,0
81835,-66.6666666666667,4,3,3,80,0,0
82585,-66.6666666666667,4,3,2,80,0,0
83335,-66.6666666666667,4,3,3,80,0,0
83710,-100,4,3,3,80,0,0
84085,-66.6666666666667,4,3,2,80,0,0
84835,-66.6666666666667,4,3,3,80,0,0
85585,-66.6666666666667,4,3,2,80,0,0
86335,-66.6666666666667,4,3,3,80,0,0
86710,-100,4,3,3,80,0,0
88772,-100,4,2,1,60,0,0
89335,-55.5555555555556,4,1,29,80,0,1
89381,-55.5555555555556,4,2,1,80,0,1
89710,-55.5555555555556,4,1,28,80,0,1
89756,-55.5555555555556,4,2,1,80,0,1
90085,-55.5555555555556,4,2,1,80,0,0
95335,-100,4,1,40,40,0,0
95710,-142.857142857143,4,1,40,40,0,0
96085,-100,4,2,1,60,0,0
99460,-111.111111111111,4,2,1,60,0,0
99835,-125,4,2,1,60,0,0
100210,-142.857142857143,4,2,1,60,0,0
100585,-100,4,2,2,60,0,0
100866,-83.3333333333333,4,2,2,60,0,0
101147,-71.4285714285714,4,2,2,60,0,0
101710,-71.4285714285714,4,1,61,80,0,0
101897,-71.4285714285714,4,1,62,80,0,0
102085,-66.6666666666667,4,2,1,60,0,0
102178,-66.6666666666667,4,2,0,60,0,0
102835,-66.6666666666667,4,2,1,60,0,0
103116,-66.6666666666667,4,2,0,60,0,0
103210,-66.6666666666667,4,2,1,60,0,0
103585,-66.6666666666667,4,2,0,60,0,0
103772,-66.6666666666667,4,2,1,60,0,0
103866,-66.6666666666667,4,2,0,60,0,0
103960,-66.6666666666667,4,2,1,60,0,0
104053,-66.6666666666667,4,2,0,60,0,0
104335,-66.6666666666667,4,2,1,60,0,0
104710,-66.6666666666667,4,1,16,60,0,1
104756,-66.6666666666667,4,1,16,20,0,1
105085,-66.6666666666667,4,2,1,70,0,0
106585,-66.6666666666667,4,2,1,70,0,0
108085,-62.5,4,2,1,80,0,0
113335,-55.5555555555556,4,2,21,80,0,0
113428,-55.5555555555556,4,2,21,80,0,0
113710,-45.4545454545455,4,2,3,80,0,0
114085,-55.5555555555556,4,2,1,80,0,1
114460,-55.5555555555556,4,2,22,80,0,1
114553,-55.5555555555556,4,2,1,80,0,1
115210,-55.5555555555556,4,2,22,80,0,1
115256,-55.5555555555556,4,2,1,80,0,1
115585,-55.5555555555556,4,2,3,80,0,1
115678,-55.5555555555556,4,2,1,80,0,1
115960,-76.9230769230769,4,2,22,80,0,1
116006,-76.9230769230769,4,2,1,80,0,1
116335,-55.5555555555556,4,2,20,80,0,1
116381,-55.5555555555556,4,2,1,80,0,1
117460,-55.5555555555556,4,2,22,80,0,1
117506,-55.5555555555556,4,2,1,80,0,1
118210,-55.5555555555556,4,2,22,80,0,1
118256,-55.5555555555556,4,2,1,80,0,1
118585,-55.5555555555556,4,2,3,80,0,1
118678,-55.5555555555556,4,2,1,80,0,1
118960,-76.9230769230769,4,2,22,80,0,1
119006,-76.9230769230769,4,2,1,80,0,1
119335,-55.5555555555556,4,2,25,80,0,1
119381,-55.5555555555556,4,2,1,80,0,1
120460,-55.5555555555556,4,2,22,80,0,1
120506,-55.5555555555556,4,2,1,80,0,1
121210,-55.5555555555556,4,2,22,80,0,1
121256,-55.5555555555556,4,2,1,80,0,1
121585,-55.5555555555556,4,2,3,80,0,1
121678,-55.5555555555556,4,2,1,80,0,1
121960,-76.9230769230769,4,2,22,80,0,1
122006,-76.9230769230769,4,2,1,80,0,1
122335,-55.5555555555556,4,2,26,80,0,1
122381,-55.5555555555556,4,2,1,80,0,1
123460,-55.5555555555556,4,2,22,80,0,1
123506,-55.5555555555556,4,2,1,80,0,1
124210,-55.5555555555556,4,2,22,80,0,1
124256,-55.5555555555556,4,2,1,80,0,1
124585,-55.5555555555556,4,2,2,70,0,1
126085,-55.5555555555556,4,2,29,70,0,0

[Colours]
Combo1 : 143,250,86
Combo2 : 12,236,248
Combo3 : 133,183,228
Combo4 : 225,43,106
Combo5 : 238,83,247
Combo6 : 250,243,129

[HitObjects]
175,89,85,5,4,0:0:0:0:
175,89,460,1,4,0:0:0:0:
175,89,835,1,0,0:0:0:0:
161,187,1116,1,0,0:0:0:0:
149,280,1210,1,4,0:0:0:0:
149,280,1397,1,0,0:0:0:0:
378,210,1585,5,4,0:0:0:0:
378,210,1960,1,4,0:0:0:0:
378,210,2335,1,0,0:0:0:0:
358,131,2616,1,0,0:0:0:0:
437,150,2710,1,4,0:0:0:0:
378,210,2897,1,0,0:0:0:0:
256,192,3085,12,0,4585,0:0:0:0:
256,192,4678,12,0,5710,0:0:0:0:
212,342,6085,70,0,L|396:331,1,150,2|0,0:0|0:0,0:0:0:0:
412,202,6460,2,0,P|393:228|389:253,1,50
437,378,6647,1,0,0:0:0:0:
493,161,6835,6,0,L|305:171,1,150,2|0,0:0|0:0,0:0:0:0:
280,75,7210,2,0,L|219:68,1,50
76,140,7397,1,0,0:0:0:0:
142,185,7585,70,0,P|151:112|102:58,1,150,2|0,0:0|0:0,0:0:0:0:
23,228,7960,2,0,P|57:228|79:255,1,50
134,360,8147,1,0,0:0:0:0:
226,216,8335,6,0,L|49:249,1,150,2|0,0:0|0:0,0:0:0:0:
207,308,8710,2,0,P|259:341|317:326,1,100,2|0,0:0|0:0,0:0:0:0:
437,68,9085,70,0,P|445:142|445:217,1,150,2|0,0:0|0:0,0:0:0:0:
338,273,9460,2,0,P|343:248|346:223,1,50
343,136,9647,1,0,0:0:0:0:
119,185,9835,6,0,L|281:171,1,150,2|0,0:0|0:0,0:0:0:0:
213,265,10210,2,0,P|221:290|219:330,1,50
123,384,10397,1,0,0:0:0:0:
0,281,10585,70,0,L|151:308,1,150,2|0,0:0|0:0,0:0:0:0:
81,211,10960,2,0,P|70:179|75:152,1,50
117,58,11147,1,0,0:0:0:0:
244,107,11335,6,0,P|271:135|313:137,1,59.9999981689454
376,162,11710,70,0,P|374:70|251:150,1,269.999991760254,4|0,0:0|0:0,0:0:0:0:
44,158,12085,22,0,B|96:178|132:155|156:121|156:121|166:163|200:189|229:198,1,225.000008583069,6|0,0:0|0:0,0:0:0:0:
191,285,12460,2,0,P|223:272|272:278,1,75.0000028610231,10|0,0:0|0:0,0:0:0:0:
356,344,12647,2,0,L|355:265,1,75.0000028610231
445,130,12835,2,0,B|402:117|371:133|371:133|341:150|278:125,1,150.000005722046,2|0,0:0|0:0,0:0:0:0:
278,124,13116,1,0,0:0:0:0:
262,111,13210,1,10,0:0:0:0:
71,181,13397,1,0,0:0:0:0:
169,291,13585,6,0,L|185:136,1,150.000005722046,2|0,0:0|0:0,0:0:0:0:
162,378,13960,2,0,L|172:268,1,75.0000028610231,10|0,0:0|0:0,0:0:0:0:
185,134,14147,1,0,0:0:0:0:
372,97,14335,2,0,B|351:49|311:24|241:33|241:33|276:56|294:100,1,225.000008583069,2|0,0:0|0:0,0:0:0:0:
275,179,14710,2,0,L|382:168,1,75.0000028610231,10|0,0:0|0:0,0:0:0:0:
420,267,14897,2,0,L|313:256,1,75.0000028610231,2|0,0:0|0:0,0:0:0:0:
253,373,15085,70,0,B|205:363|172:332|156:291|156:291|130:339|106:346|55:358,1,225.000008583069,6|0,0:0|0:0,0:0:0:0:
0,257,15460,2,0,P|39:263|86:244,1,75.0000028610231,10|0,0:0|0:0,0:0:0:0:
205,209,15647,2,0,P|151:188|133:166,1,75.0000028610231
107,47,15835,2,0,B|161:41|161:41|206:53|206:53|276:47,1,150.000005722046,2|0,0:0|0:0,0:0:0:0:
268,46,16116,1,0,0:0:0:0:
282,45,16210,1,10,0:0:0:0:
442,151,16397,1,0,0:0:0:0:
319,314,16585,6,0,L|308:213,2,75.0000028610231,6|0|0,0:0|0:0|0:0,0:0:0:0:
230,298,16866,2,0,L|219:197,2,75.0000028610231,6|0|0,0:0|0:0|0:0,0:0:0:0:
112,304,17147,69,6,0:0:0:0:
107,341,17240,1,0,0:0:0:0:
103,378,17334,1,0,0:0:0:0:
21,343,17428,5,6,0:0:0:0:
25,305,17521,1,0,0:0:0:0:
29,268,17615,1,0,0:0:0:0:
0,186,17710,70,0,B|38:175|78:196|78:196|117:217|177:196,1,150.000005722046,2|0,0:0|0:0,0:0:0:0:
435,144,18085,54,0,P|333:74|327:198,1,300,2|2,0:0|0:0,0:0:0:0:
326,197,18460,6,0,P|320:151|365:139,1,100,4|0,0:0|0:0,0:0:0:0:
483,271,18835,70,0,B|444:244|393:234|393:234|370:268|339:276|310:270|310:270|302:327|285:348|243:356,1,300,2|0,0:0|0:0,0:0:0:0:
256,352,19210,6,0,B|287:355|307:348|307:348|328:340|355:344,1,100,2|0,0:0|0:0,0:0:0:0:
307,147,19585,6,0,L|128:169,1,160,4|0,0:0|0:0,0:0:0:0:
86,290,19866,2,0,B|161:267|161:267|90:226,1,160,2|0,0:0|0:0,0:0:0:0:
18,184,20147,2,0,P|5:213|24:281,1,80,2|0,0:0|0:0,0:0:0:0:
84,382,20335,5,2,0:0:0:0:
84,382,20428,2,0,B|68:333|85:302|85:302|101:270|85:204,1,160,2|0,0:0|0:0,0:0:0:0:
73,112,20710,2,0,B|35:82|24:43|48:7|48:7|39:37|74:72,1,160,2|0,0:0|0:0,0:0:0:0:
255,74,21085,38,0,B|292:35|357:45|402:91|371:173|371:173|346:134|293:123,1,300,2|0,0:0|0:0,0:0:0:0:
218,139,21460,6,0,P|274:149|324:99,1,100,4|0,0:0|0:0,0:0:0:0:
512,271,21835,70,0,B|433:260|433:260|419:248|419:248|403:254|403:254|330:243|330:243|279:253|255:288|246:353,1,300,2|0,0:0|0:0,0:0:0:0:
342,310,22210,6,0,B|312:293|294:290|294:290|273:298|239:326,1,100,8|0,0:0|0:0,0:0:0:0:
0,241,22585,22,0,P|73:255|133:193,1,160,6|0,0:0|0:0,0:0:0:0:
322,102,22866,2,0,P|368:139|309:132,1,160,2|0,0:0|0:0,0:0:0:0:
122,126,23147,2,0,P|161:130|193:156,1,80,2|0,0:0|0:0,0:0:0:0:
234,226,23335,70,0,L|212:50,1,160,8|4,0:0|0:0,0:0:0:0:
512,261,23710,2,0,P|399:208|311:318,1,240,2|0,0:0|0:0,0:0:0:0:
279,360,24085,6,0,B|395:377|395:377|420:356,1,150.000005722046,6|0,0:0|0:0,0:0:0:0:
420,336,24366,1,8,0:0:0:0:
421,319,24460,1,2,0:0:0:0:
227,221,24647,1,8,0:0:0:0:
229,253,24741,1,0,0:0:0:0:
232,285,24835,70,0,B|124:305|124:305|69:264,1,150.000005722046,2|8,0:0|0:0,0:0:0:0:
3,184,25116,2,0,B|50:176|50:176|65:151,2,75.0000028610231,2|8|0,0:0|0:0|0:0,0:0:0:0:
45,62,25397,2,0,P|73:56|119:74,1,75.0000028610231,2|0,0:0|0:0,0:0:0:0:
225,61,25585,6,0,P|319:108|364:84,1,160,6|0,0:0|0:0,0:0:0:0:
362,76,25866,1,8,0:0:0:0:
365,62,25960,1,2,0:0:0:0:
488,186,26147,1,8,0:0:0:0:
490,212,26241,1,0,0:0:0:0:
494,237,26335,2,0,P|413:190|324:240,1,160,2|8,0:0|0:0,0:0:0:0:
437,344,26616,2,0,P|434:306|411:270,2,80,2|8|0,0:0|0:0|0:0,0:0:0:0:
312,372,26897,2,0,P|342:367|360:318,1,80,2|0,0:0|0:0,0:0:0:0:
282,296,27085,70,0,L|156:321,1,113.333335494995,6|0,0:0|0:0,0:0:0:0:
21,301,27335,1,0,0:0:0:0:
8,224,27460,6,0,L|137:201,1,106.666666666667,10|0,0:0|0:0,0:0:0:0:
279,196,27710,1,0,0:0:0:0:
287,118,27835,70,0,L|115:98,1,100.000003814697,6|8,0:0|0:0,0:0:0:0:
22,79,28085,1,0,0:0:0:0:
38,5,28210,6,0,L|173:24,2,93.3333304850261,10|0|0,0:0|0:0|0:0,0:0:0:0:
170,318,28585,37,2,0:0:0:0:
113,205,28772,1,0,0:0:0:0:
187,106,28960,1,0,0:0:0:0:
130,18,29147,1,0,0:0:0:0:
288,67,29335,5,0,0:0:0:0:
293,70,29428,1,0,0:0:0:0:
304,76,29522,1,0,0:0:0:0:
323,80,29616,1,0,0:0:0:0:
349,79,29710,1,0,0:0:0:0:
389,59,29803,1,0,0:0:0:0:
447,60,29897,1,0,0:0:0:0:
505,101,29991,1,0,0:0:0:0:
506,189,30085,70,0,B|446:198|446:198|425:215|425:215|403:203|403:203|327:208,1,179.999994506836,6|0,0:0|0:0,0:0:0:0:
381,285,30460,2,0,P|391:316|384:332,2,37.5000014305115
373,282,30835,6,0,P|329:321|235:292,1,119.999996337891,2|0,0:0|0:0,0:0:0:0:
181,377,31116,2,0,L|167:249,1,119.999996337891,2|0,0:0|0:0,0:0:0:0:
106,197,31397,2,0,P|140:170|170:170,1,59.9999981689454,2|0,0:0|0:0,0:0:0:0:
251,64,31585,70,0,B|277:87|277:87|371:95,2,119.999996337891,2|0|2,0:0|0:0|0:0,0:0:0:0:
251,64,32335,5,2,0:0:0:0:
242,156,32460,1,2,0:0:0:0:
251,64,32585,1,2,0:0:0:0:
242,156,32710,2,0,L|230:290,1,100,4|0,0:0|0:0,0:0:0:0:
346,82,33085,6,0,L|367:238,1,119.999996337891,2|0,0:0|0:0,0:0:0:0:
509,52,33460,2,0,P|464:106|482:168,1,119.999996337891,2|0,0:0|0:0,0:0:0:0:
469,343,33835,2,0,B|421:322|381:343|381:343|342:366|278:340,2,179.999994506836,2|2|2,0:0|0:0|0:0,0:0:0:0:
261,269,34585,70,0,P|211:345|229:386,1,100,2|0,0:0|0:0,0:0:0:0:
142,191,34960,2,0,B|176:208|216:187|216:187|255:164|322:192,1,150,2|0,0:0|0:0,0:0:0:0:
331,94,35335,2,0,P|381:57|443:70,1,100,2|0,0:0|0:0,0:0:0:0:
404,146,35616,2,0,B|413:169|413:169|407:208,1,50,2|0,0:0|0:0,0:0:0:0:
303,290,35897,1,2,0:0:0:0:
303,290,36085,6,4,L|86:278,1,179.999994506836,14|0,0:0|0:0,0:0:0:0:
22,230,36460,2,0,B|52:197|43:129|43:129|5:97|19:40,1,179.999994506836,2|0,0:0|0:0,0:0:0:0:
90,35,36835,2,0,P|133:43|86:50,1,119.999996337891,2|0,0:0|0:0,0:0:0:0:
198,114,37116,2,0,P|230:143|187:124,1,119.999996337891,2|0,0:0|0:0,0:0:0:0:
141,277,37397,2,0,P|158:244|201:235,1,59.9999981689454,2|0,0:0|0:0,0:0:0:0:
339,298,37585,70,0,B|294:305|294:305|275:301|275:301|181:313,1,119.999996337891,2|0,0:0|0:0,0:0:0:0:
58,224,37960,2,0,B|108:232|108:232|127:228|127:228|221:240,1,119.999996337891,2|0,0:0|0:0,0:0:0:0:
351,192,38335,2,0,P|386:146|362:42,1,119.999996337891,2|0,0:0|0:0,0:0:0:0:
289,61,38616,2,0,P|312:111|297:142,1,59.9999981689454,2|0,0:0|0:0,0:0:0:0:
256,297,38897,1,2,0:0:0:0:
91,132,39085,6,0,L|242:151,1,119.999996337891,2|0,0:0|0:0,0:0:0:0:
15,290,39460,2,0,P|54:237|151:252,1,119.999996337891,2|0,0:0|0:0,0:0:0:0:
218,337,39835,2,0,B|72:348|72:348|107:324,2,179.999994506836,2|2|2,0:0|0:0|0:0,0:0:0:0:
433,235,40585,5,6,0:0:0:0:
397,195,40678,1,0,0:0:0:0:
345,185,40772,1,0,0:0:0:0:
298,210,40866,1,0,0:0:0:0:
268,286,40960,6,0,B|301:291|301:291|332:283,1,64.9999970245363,2|0,0:0|0:0,0:0:0:0:
191,205,41147,2,0,L|184:137,1,64.9999970245363
88,113,41335,70,0,L|100:262,1,129.999994049073,10|0,0:0|0:0,0:0:0:0:
180,240,41616,1,0,0:0:0:0:
191,205,41710,2,0,P|258:151|313:155,1,129.999994049073,6|0,0:0|0:0,0:0:0:0:
512,135,42085,6,0,B|444:130|412:128|366:73|366:73|399:114|393:183,1,240,6|0,0:0|0:0,0:0:0:0:
299,151,42460,2,0,B|310:219|310:219|306:239|306:239|319:317,1,160,8|0,0:0|0:0,0:0:0:0:
48,234,42835,2,0,P|123:256|210:178,1,160,2|0,0:0|0:0,0:0:0:0:
123,87,43116,2,0,B|97:47|97:47|112:158,1,160,2|0,0:0|0:0,0:0:0:0:
177,313,43397,2,0,L|193:208,1,80,2|0,0:0|0:0,0:0:0:0:
288,137,43585,70,0,B|308:108|348:95|402:111|402:111|388:151,1,160,2|0,0:0|0:0,0:0:0:0:
512,240,43866,1,0,0:0:0:0:
512,240,43960,2,0,B|466:248|466:248|435:236|435:236|410:256|410:256|348:266,1,160,8|0,0:0|0:0,0:0:0:0:
94,343,44335,2,0,P|122:295|248:293,1,160,2|0,0:0|0:0,0:0:0:0:
267,362,44616,2,0,L|237:187,1,160,2|0,0:0|0:0,0:0:0:0:
335,174,44897,2,0,B|373:157|373:157|336:147,1,80,2|0,0:0|0:0,0:0:0:0:
246,77,45085,70,0,B|249:119|249:119|234:159|234:159|243:228,1,129.999994049073,2|0,0:0|0:0,0:0:0:0:
243,221,45366,1,0,0:0:0:0:
247,239,45460,1,8,0:0:0:0:
267,362,45647,1,0,0:0:0:0:
128,207,45835,2,0,B|66:203|16:244|27:304|27:304|32:272|75:246,2,194.999991073609,2|2|2,0:0|0:0|0:0,0:0:0:0:
126,327,46585,70,0,P|160:353|266:306,1,129.999994049073,2|0,0:0|0:0,0:0:0:0:
480,216,46960,2,0,P|446:242|340:195,1,129.999994049073,2|0,0:0|0:0,0:0:0:0:
211,27,47335,6,0,L|232:237,2,194.999991073609,2|2|2,0:0|0:0|0:0,0:0:0:0:
433,179,48085,6,0,B|409:155|375:146|375:146|345:164|304:162|304:162|295:189|272:219|206:225,1,240,6|8,0:0|0:0,0:0:0:0:
212,120,48460,2,0,P|175:68|77:66,1,160,2|8,0:0|0:0,0:0:0:0:
16,218,48835,2,0,L|-3:406,1,160,2|8,0:0|0:0,0:0:0:0:
83,347,49116,1,2,0:0:0:0:
83,347,49210,2,0,L|93:247,1,80,8|0,0:0|0:0,0:0:0:0:
169,241,49397,2,0,L|160:340,1,80,2|0,0:0|0:0,0:0:0:0:
254,325,49585,6,0,B|331:342|331:342|424:286,1,160,2|0,0:0|0:0,0:0:0:0:
478,316,49866,1,8,0:0:0:0:
478,316,49960,2,0,B|401:299|401:299|308:355,1,160,2|8,0:0|0:0,0:0:0:0:
209,137,50335,2,0,P|304:159|357:111,1,160,2|8,0:0|0:0,0:0:0:0:
401,49,50616,1,2,0:0:0:0:
401,49,50710,2,0,B|362:31|362:31|325:41,1,80,8|0,0:0|0:0,0:0:0:0:
338,135,50897,2,0,P|332:176|357:229,1,80,2|0,0:0|0:0,0:0:0:0:
430,342,51085,38,0,L|285:334,1,129.999994049073,2|0,0:0|0:0,0:0:0:0:
284,335,51366,1,8,0:0:0:0:
269,334,51460,1,2,0:0:0:0:
102,298,51647,1,8,0:0:0:0:
124,209,51835,2,0,P|191:297|132:385,2,194.999991073609,2|2|2,0:0|0:0|0:0,0:0:0:0:
385,125,52585,6,0,P|411:-5|475:113,1,350,2|0,0:0|0:0,0:0:0:0:
475,214,53335,1,2,0:0:0:0:
422,65,53616,1,2,0:0:0:0:
380,238,53897,1,2,0:0:0:0:
296,259,54085,6,0,B|324:268|358:259|380:238|380:238|432:256|483:243|521:193|518:123|482:77|417:59|365:97|365:165|412:166,1,450.000017166138,12|0,0:0|0:0,0:0:0:0:
407,166,54835,70,0,P|373:160|338:157,1,69.9999978637696
191,96,55210,2,0,P|225:91|260:89,1,69.9999978637696
252,205,55491,1,0,0:0:0:0:
255,226,55585,6,0,B|273:325|273:325|274:351|244:370|211:370|199:338|199:338|187:278|187:278|158:254|106:251|77:276|77:276|115:296|126:369,1,450.000017166138,12|0,0:0|0:0,0:0:0:0:
115,326,56335,70,0,L|125:257,1,69.9999978637696
3,203,56710,2,0,L|14:135,1,69.9999978637696
132,123,56991,1,0,0:0:0:0:
131,102,57085,6,0,B|286:62|286:62|432:177,1,320,12|0,0:0|0:0,0:0:0:0:
133,145,57647,69,0,0:0:0:0:
132,123,57741,1,0,0:0:0:0:
131,102,57835,6,0,B|177:40|177:40|397:86|397:86|416:182,1,379.999989852906,14|0,0:0|0:0,0:0:0:0:
351,265,58397,69,0,0:0:0:0:
351,265,58491,1,0,0:0:0:0:
351,265,58585,22,0,B|279:253|279:253|260:262|260:262|245:247|245:247|160:230,1,189.999994926453,6|0,0:0|0:0,0:0:0:0:
13,182,58866,2,0,B|84:171|84:171|103:180|103:180|118:165|118:165|198:148,1,189.999994926453,2|0,0:0|0:0,0:0:0:0:
164,67,59147,2,0,B|182:23|182:23|147:62,1,94.9999974632264,2|0,0:0|0:0,0:0:0:0:
172,321,59335,69,2,0:0:0:0:
171,233,59460,1,2,0:0:0:0:
192,150,59585,1,2,0:0:0:0:
164,67,59710,70,0,B|182:23|182:23|147:62,1,94.9999974632264,2|0,0:0|0:0,0:0:0:0:
287,109,60085,6,0,P|400:13|517:40,1,220.000006713867,12|0,0:0|0:0,0:0:0:0:
512,213,60366,2,0,P|492:117|353:155,1,220.000006713867,2|0,0:0|0:0,0:0:0:0:
371,206,60647,2,0,P|410:225|435:173,1,110.000003356934,8|0,0:0|0:0,0:0:0:0:
329,325,60835,6,0,P|277:223|111:237,1,220.000006713867,2|0,0:0|0:0,0:0:0:0:
148,319,61116,2,0,P|234:295|205:381,1,220.000006713867,2|0,0:0|0:0,0:0:0:0:
86,379,61397,2,0,P|64:313|80:261,1,110.000003356934,8|0,0:0|0:0,0:0:0:0:
64,178,61585,70,0,P|91:94|7:123,1,220.000006713867,6|0,0:0|0:0,0:0:0:0:
104,13,61866,2,0,P|176:90|160:195,1,220.000006713867,2|0,0:0|0:0,0:0:0:0:
184,270,62147,2,0,P|229:234|251:180,1,110.000003356934,8|0,0:0|0:0,0:0:0:0:
346,189,62335,6,0,P|401:93|517:83,1,220.000006713867,2|0,0:0|0:0,0:0:0:0:
512,224,62616,2,0,P|494:152|444:238,1,220.000006713867,2|0,0:0|0:0,0:0:0:0:
468,294,62897,2,0,P|391:293|358:241,1,110.000003356934,8|0,0:0|0:0,0:0:0:0:
335,384,63085,69,4,0:0:0:0:
315,377,63178,1,0,0:0:0:0:
295,372,63272,1,0,0:0:0:0:
275,366,63366,1,0,0:0:0:0:
255,360,63460,5,0,0:0:0:0:
223,352,63553,1,0,0:0:0:0:
192,344,63647,1,0,0:0:0:0:
161,336,63741,1,0,0:0:0:0:
130,328,63835,69,0,0:0:0:0:
114,287,63928,1,0,0:0:0:0:
115,243,64022,1,0,0:0:0:0:
134,203,64116,1,0,0:0:0:0:
167,172,64210,5,0,0:0:0:0:
220,117,64303,1,0,0:0:0:0:
215,40,64397,1,0,0:0:0:0:
149,2,64491,1,0,0:0:0:0:
75,27,64585,38,0,P|57:59|86:135,1,100,6|0,0:0|0:0,0:0:0:0:
167,172,64866,1,2,0:0:0:0:
185,159,64960,1,2,0:0:0:0:
307,105,65147,6,0,P|327:120|338:142,1,50,2|0,0:0|0:0,0:0:0:0:
264,171,65335,2,0,P|261:195|247:217,1,50,8|0,0:0|0:0,0:0:0:0:
167,172,65522,1,2,0:0:0:0:
185,159,65616,1,0,0:0:0:0:
263,171,65710,6,0,B|266:246|266:246|280:270|280:270|270:296|270:296|274:383,1,200,8|0,0:0|0:0,0:0:0:0:
450,31,66085,21,2,3:3:0:0:
487,155,66366,1,2,3:3:0:0:
489,162,66460,1,8,3:3:0:0:
418,264,66647,1,2,3:3:0:0:
288,256,66835,5,2,3:3:0:0:
418,264,67022,1,0,3:3:0:0:
415,255,67116,1,2,3:3:0:0:
412,246,67210,1,8,3:3:0:0:
283,238,67397,1,2,3:3:0:0:
224,122,67585,69,2,3:3:0:0:
96,108,67866,1,2,3:3:0:0:
97,114,67960,1,8,3:3:0:0:
13,212,68147,1,2,3:3:0:0:
54,341,68335,5,2,3:3:0:0:
43,254,68460,1,2,3:3:0:0:
23,301,68585,1,2,3:3:0:0:
13,212,68710,1,10,3:3:0:0:
35,384,68897,1,10,3:3:0:0:
267,237,69085,69,2,3:3:0:0:
245,154,69366,1,2,3:3:0:0:
242,145,69460,1,8,3:3:0:0:
284,314,69647,1,2,3:3:0:0:
267,237,69835,5,2,3:3:0:0:
322,122,70022,1,0,3:3:0:0:
327,113,70116,1,2,3:3:0:0:
332,103,70210,1,8,3:3:0:0:
210,355,70397,1,2,3:3:0:0:
267,237,70585,69,2,3:3:0:0:
186,98,70866,1,2,3:3:0:0:
176,80,70960,1,8,3:3:0:0:
348,377,71147,1,2,3:3:0:0:
267,237,71335,5,2,3:3:0:0:
317,215,71460,1,2,3:3:0:0:
367,193,71585,1,2,3:3:0:0:
417,172,71710,1,10,3:3:0:0:
41,330,71897,1,10,3:3:0:0:
98,48,72085,69,2,3:3:0:0:
221,89,72366,1,2,3:3:0:0:
224,81,72460,1,8,3:3:0:0:
350,48,72647,1,2,3:3:0:0:
452,130,72835,5,2,3:3:0:0:
350,48,73022,1,0,3:3:0:0:
348,57,73116,1,2,3:3:0:0:
346,66,73210,1,8,3:3:0:0:
450,146,73397,1,2,3:3:0:0:
412,270,73585,69,2,3:3:0:0:
283,274,73866,1,2,3:3:0:0:
281,264,73960,1,8,3:3:0:0:
185,350,74147,1,2,3:3:0:0:
53,330,74335,5,2,3:3:0:0:
135,359,74460,1,2,3:3:0:0:
103,321,74585,1,2,3:3:0:0:
185,350,74710,1,10,3:3:0:0:
21,292,74897,1,10,3:3:0:0:
73,97,75085,69,2,3:3:0:0:
183,123,75366,1,2,3:3:0:0:
182,117,75460,1,8,3:3:0:0:
263,39,75647,1,2,3:3:0:0:
73,97,75835,5,2,3:3:0:0:
220,212,76022,1,0,3:3:0:0:
223,204,76116,1,2,3:3:0:0:
226,196,76210,1,8,3:3:0:0:
368,115,76397,1,2,3:3:0:0:
73,97,76585,69,6,0:0:0:0:
242,168,77335,54,0,P|220:201|238:248,1,66.6666666666667,2|0,0:0|0:0,0:0:0:0:
289,308,77460,2,0,P|328:310|360:270,1,66.6666666666667,2|0,0:0|0:0,0:0:0:0:
379,197,77585,2,0,P|360:161|311:153,1,66.6666666666667,2|0,0:0|0:0,0:0:0:0:
301,230,77710,6,0,L|87:263,1,200,2|0,0:0|0:0,0:0:0:0:
8,79,78085,21,6,0:0:0:0:
15,78,78178,2,0,L|123:61,1,75.0000028610231
152,1,78366,1,2,0:0:0:0:
175,17,78460,2,0,B|190:55|190:55|179:95,1,75.0000028610231,12|0,0:0|0:0,0:0:0:0:
186,159,78647,2,0,B|171:121|171:121|182:81,1,75.0000028610231,6|0,0:0|0:0,0:0:0:0:
275,16,78835,70,0,P|280:41|272:101,1,75.0000028610231,6|0,0:0|0:0,0:0:0:0:
334,238,79022,1,4,0:0:0:0:
334,238,79116,1,2,0:0:0:0:
334,238,79210,2,0,P|329:213|337:153,1,75.0000028610231,8|0,0:0|0:0,0:0:0:0:
420,111,79397,2,0,L|494:127,1,75.0000028610231,6|0,0:0|0:0,0:0:0:0:
485,343,79585,6,0,B|439:332|439:332|385:344|385:344|296:326,1,150.000005722046,6|0,0:0|0:0,0:0:0:0:
244,223,79866,1,2,0:0:0:0:
228,223,79960,2,0,P|175:214|132:183,1,75.0000028610231,12|0,0:0|0:0,0:0:0:0:
218,348,80147,2,0,P|165:356|122:387,1,75.0000028610231,6|0,0:0|0:0,0:0:0:0:
0,248,80335,69,6,0:0:0:0:
80,153,80460,1,6,0:0:0:0:
0,248,80585,1,6,0:0:0:0:
80,153,80710,2,0,L|75:238,1,50,14|0,0:0|0:0,0:0:0:0:
64,349,80897,2,0,L|70:280,1,50,14|0,0:0|0:0,0:0:0:0:
215,161,81085,5,6,0:0:0:0:
218,155,81178,2,0,P|257:133|303:133,1,75.0000028610231
301,34,81366,1,2,0:0:0:0:
337,38,81460,2,0,P|372:47|407:77,1,75.0000028610231,12|0,0:0|0:0,0:0:0:0:
286,289,81647,2,0,L|277:198,1,75.0000028610231,6|0,0:0|0:0,0:0:0:0:
286,130,81835,70,0,P|249:135|217:154,1,75.0000028610231,6|0,0:0|0:0,0:0:0:0:
115,299,82022,1,4,0:0:0:0:
115,299,82116,1,2,0:0:0:0:
115,299,82210,2,0,L|108:213,1,75.0000028610231,12|0,0:0|0:0,0:0:0:0:
85,56,82397,2,0,L|92:146,1,75.0000028610231,6|0,0:0|0:0,0:0:0:0:
0,180,82585,6,0,B|36:183|66:157|91:132|91:132|153:129|188:160|204:206,1,225.000008583069,6|2,0:0|0:0,0:0:0:0:
298,260,82960,1,12,0:0:0:0:
327,255,83053,1,0,0:0:0:0:
324,227,83147,1,6,0:0:0:0:
295,232,83240,1,0,0:0:0:0:
236,301,83335,69,6,0:0:0:0:
268,161,83460,1,6,0:0:0:0:
236,301,83585,1,6,0:0:0:0:
268,161,83710,2,0,P|299:153|334:138,1,50,14|0,0:0|0:0,0:0:0:0:
319,333,83897,2,0,P|350:341|385:356,1,50,14|0,0:0|0:0,0:0:0:0:
512,351,84085,5,6,0:0:0:0:
509,342,84178,2,0,L|492:255,1,75.0000028610231
427,113,84366,1,2,0:0:0:0:
429,132,84460,2,0,P|426:171|409:226,1,75.0000028610231,12|0,0:0|0:0,0:0:0:0:
405,280,84647,2,0,P|408:241|425:186,1,75.0000028610231,6|0,0:0|0:0,0:0:0:0:
467,40,84835,70,0,B|433:28|433:28|369:39,1,75.0000028610231,6|0,0:0|0:0,0:0:0:0:
337,163,85022,1,4,0:0:0:0:
336,172,85116,1,2,0:0:0:0:
334,179,85210,2,0,B|300:191|300:191|236:180,1,75.0000028610231,12|0,0:0|0:0,0:0:0:0:
155,33,85397,2,0,P|157:86|150:124,1,75.0000028610231,6|0,0:0|0:0,0:0:0:0:
0,213,85585,6,0,P|91:200|29:142,1,150.000005722046,6|0,0:0|0:0,0:0:0:0:
142,101,85866,1,2,0:0:0:0:
153,108,85960,2,0,P|169:144|163:204,1,75.0000028610231,12|0,0:0|0:0,0:0:0:0:
185,347,86147,2,0,P|169:311|175:251,1,75.0000028610231,6|0,0:0|0:0,0:0:0:0:
245,150,86335,69,6,0:0:0:0:
259,294,86460,1,6,0:0:0:0:
245,150,86585,1,6,0:0:0:0:
259,294,86710,2,0,L|267:234,1,50,14|0,0:0|0:0,0:0:0:0:
349,124,86897,2,0,L|337:191,1,50,14|0,0:0|0:0,0:0:0:0:
256,192,87085,12,2,88585,0:0:0:0:
195,214,88772,37,2,0:0:0:0:
199,215,88866,1,0,0:0:0:0:
203,216,88960,2,0,L|327:232,1,100,2|0,0:0|0:0,0:0:0:0:
189,104,89335,6,0,P|83:116|69:191,1,179.999994506836,2|0,0:0|0:0,0:0:0:0:
111,260,89616,1,0,0:0:0:0:
125,257,89709,2,0,L|325:226,2,179.999994506836,2|0|6,0:0|0:0|0:0,0:0:0:0:
341,217,95335,69,8,0:0:0:0:
448,328,95522,1,4,0:0:0:0:
341,217,95710,2,0,P|316:165|345:119,1,104.999996795654,2|0,1:2|0:0,0:0:0:0:
409,110,96085,70,0,L|248:92,1,150,6|8,0:0|0:0,0:0:0:0:
183,48,96460,2,0,P|139:62|121:138,1,100,2|8,0:0|0:0,0:0:0:0:
234,229,96835,2,0,L|109:215,1,100,2|8,0:0|0:0,0:0:0:0:
205,337,97116,1,0,0:0:0:0:
205,337,97210,2,0,L|80:351,1,100,2|0,0:0|0:0,0:0:0:0:
300,375,97585,6,0,P|357:304|431:331,1,150,2|8,0:0|0:0,0:0:0:0:
495,353,97960,2,0,P|496:317|485:262,1,50,2|0,0:0|0:0,0:0:0:0:
467,224,98147,2,0,P|461:196|461:174,1,50,8|0,0:0|0:0,0:0:0:0:
512,85,98335,70,0,P|466:97|380:105,1,100,2|8,0:0|0:0,0:0:0:0:
301,36,98616,1,0,0:0:0:0:
301,36,98710,2,0,P|229:29|176:30,1,100,2|0,0:0|0:0,0:0:0:0:
43,182,99085,6,0,L|34:86,1,66.6666666666667,2|0,0:0|0:0,0:0:0:0:
131,205,99335,1,8,0:0:0:0:
142,198,99460,70,0,L|176:119,1,59.9999981689454,2|0,0:0|0:0,0:0:0:0:
200,261,99710,1,8,0:0:0:0:
216,259,99835,6,0,L|285:207,1,53.3333333333333,2|0,0:0|0:0,0:0:0:0:
237,333,100085,1,8,0:0:0:0:
250,342,100210,70,0,L|314:348,1,46.6666652425131,2|0,0:0|0:0,0:0:0:0:
263,208,100460,1,0,0:0:0:0:
258,226,100585,6,0,L|208:264,2,50,6|0|0,0:0|0:0|0:0,0:0:0:0:
165,142,100866,70,0,L|137:210,2,59.9999981689454,4|0|0,0:0|0:0|0:0,0:0:0:0:
36,115,101147,6,0,L|44:215,2,69.9999978637696,4|0|0,0:0|0:0|0:0,0:0:0:0:
22,301,101428,70,0,B|55:314|55:314|21:325,2,69.9999978637696,4|0|0,0:0|0:0|0:0,0:0:0:0:
78,244,101710,6,0,L|217:256,1,139.999995727539
117,84,102085,69,2,0:0:0:0:
136,94,102178,1,2,0:0:0:0:
158,96,102272,1,2,0:0:0:0:
180,92,102366,1,2,0:0:0:0:
200,81,102460,5,2,0:0:0:0:
244,54,102553,1,2,0:0:0:0:
296,58,102647,1,2,0:0:0:0:
338,88,102741,1,2,0:0:0:0:
361,165,102835,70,0,L|349:339,1,150.000005722046,8|0,0:0|0:0,0:0:0:0:
360,327,103116,1,2,0:0:0:0:
367,339,103210,2,0,L|373:253,1,75.0000028610231
258,202,103397,2,0,P|218:204|176:239,1,75.0000028610231,2|0,0:0|0:0,0:0:0:0:
102,343,103585,5,0,0:0:0:0:
48,316,103678,1,2,0:0:0:0:
29,258,103772,1,2,0:0:0:0:
46,200,103866,1,2,0:0:0:0:
96,167,103960,69,2,0:0:0:0:
127,146,104053,1,2,0:0:0:0:
145,112,104147,1,2,0:0:0:0:
144,74,104241,1,2,0:0:0:0:
127,40,104335,6,0,L|223:54,1,75.0000028610231
364,48,104522,2,0,P|327:50|301:77,1,75.0000028610231
261,159,104710,6,0,L|259:211,6,37.5000014305115,4|0|0|0|0|0|0,0:0|0:0|0:0|0:0|0:0|0:0|0:0,0:0:0:0:
207,272,105085,54,0,B|231:227|294:209|357:231|357:231|313:245|298:284,1,225.000008583069,6|0,0:0|0:0,0:0:0:0:
379,312,105460,2,0,B|401:325|401:325|471:310,1,75.0000028610231,8|0,0:0|0:0,0:0:0:0:
504,162,105647,2,0,B|482:175|482:175|408:154,1,75.0000028610231
355,24,105835,6,0,P|261:0|211:66,1,150.000005722046,2|0,0:0|0:0,0:0:0:0:
191,129,106116,1,2,0:0:0:0:
197,156,106210,1,8,0:0:0:0:
292,77,106397,2,0,B|290:112|290:112|296:120|296:120|293:173,1,75.0000028610231,2|0,0:0|0:0,0:0:0:0:
482,265,106585,70,0,B|436:274|396:253|371:202|371:202|331:254|266:232,1,225.000008583069,2|0,0:0|0:0,0:0:0:0:
197,156,106960,2,0,B|215:122|262:109|307:127|307:127|297:157|256:174,1,150.000005722046,8|0,0:0|0:0,0:0:0:0:
312,382,107335,6,0,B|306:325|306:325|313:311|313:311|302:295|302:295|292:202,1,150.000005722046,2|0,0:0|0:0,0:0:0:0:
391,342,107616,2,0,B|409:376|456:389|501:371|501:371|491:341|450:324,1,150.000005722046,2|0,0:0|0:0,0:0:0:0:
415,261,107897,2,0,B|419:230|419:230|427:221|427:221|435:177,1,75.0000028610231,2|0,0:0|0:0,0:0:0:0:
371,65,108085,70,0,B|353:88|322:89|322:89|297:70|282:66|245:71|245:71|227:36|214:16|154:2,1,240,2|0,0:0|0:0,0:0:0:0:
162,141,108460,2,0,B|177:129|178:107|177:76|151:62|114:57|73:101|66:144|92:189|118:203|149:208,1,240,8|0,0:0|0:0,0:0:0:0:
129,284,108835,6,0,B|101:288|79:274|59:252|59:252|-6:262|-6:262|41:286,1,160,2|0,0:0|0:0,0:0:0:0:
174,349,109116,2,0,B|167:296|193:267|193:267|221:237|217:191,1,160,2|0,0:0|0:0,0:0:0:0:
304,94,109397,2,0,B|343:109|343:109|361:177,1,80,2|0,0:0|0:0,0:0:0:0:
505,147,109585,70,0,B|430:161|430:161|420:208|387:219|345:222,1,160,2|0,0:0|0:0,0:0:0:0:
292,227,109866,1,0,0:0:0:0:
292,227,109960,2,0,B|241:240|198:208|194:174|194:174|207:193|231:211,1,160,8|0,0:0|0:0,0:0:0:0:
398,330,110335,6,0,B|375:215|375:215|377:246|367:270,1,160,2|0,0:0|0:0,0:0:0:0:
213,262,110616,2,0,P|156:222|69:298,1,160,2|0,0:0|0:0,0:0:0:0:
147,378,110897,2,0,B|142:351|142:351|150:333|150:333|142:280,1,80,2|0,0:0|0:0,0:0:0:0:
80,257,111085,70,0,B|90:234|133:204|186:215|213:262|213:262|201:223|214:193|244:177,1,240,6|0,0:0|0:0,0:0:0:0:
360,241,111460,2,0,P|320:250|280:231,1,80,8|0,0:0|0:0,0:0:0:0:
156,50,111647,2,0,L|155:134,1,80,2|0,0:0|0:0,0:0:0:0:
297,102,111835,6,0,B|338:97|373:122|373:122|347:94|344:39,1,160,2|0,0:0|0:0,0:0:0:0:
442,0,112116,1,2,0:0:0:0:
442,0,112210,2,0,P|429:45|449:80,1,80,8|0,0:0|0:0,0:0:0:0:
496,232,112397,2,0,P|503:261|470:311,1,80,2|0,0:0|0:0,0:0:0:0:
309,275,112585,69,2,0:0:0:0:
235,239,112678,1,0,0:0:0:0:
159,266,112772,1,0,0:0:0:0:
149,299,112866,1,0,0:0:0:0:
177,371,112960,5,8,0:0:0:0:
201,359,113053,1,0,0:0:0:0:
217,337,113147,1,0,0:0:0:0:
221,310,113241,1,0,0:0:0:0:
149,299,113335,70,0,B|132:276|132:276|127:192,1,89.9999972534181,10|0,0:0|0:0,0:0:0:0:
172,26,113522,2,0,P|194:63|178:112,1,89.9999972534181
22,122,113710,6,0,B|77:128|77:128|95:140|95:140|114:130|114:130|284:144|284:144|254:142|225:167,1,330.000010070801,8|0,0:0|0:0,0:0:0:0:
502,166,114085,6,0,B|487:93|432:62|354:68|354:68|387:97|385:123|381:176,1,269.999991760254,6|0,0:0|0:0,0:0:0:0:
283,145,114460,2,0,B|255:158|227:164|227:164|232:183|216:216,1,89.9999972534181,12|0,0:0|0:0,0:0:0:0:
98,289,114647,2,0,B|44:269|44:269|47:251|31:218,1,89.9999972534181,2|0,0:0|0:0,0:0:0:0:
0,77,114835,6,0,B|18:44|40:26|40:26|115:11|115:11|100:32|100:70,1,179.999994506836,2|0,0:0|0:0,0:0:0:0:
177,56,115116,1,2,0:0:0:0:
194,66,115210,2,0,B|212:79|212:79|288:68,1,89.9999972534181,12|0,0:0|0:0,0:0:0:0:
442,27,115397,2,0,B|427:48|427:48|344:62,1,89.9999972534181,2|0,0:0|0:0,0:0:0:0:
276,145,115585,69,6,0:0:0:0:
238,168,115678,1,0,0:0:0:0:
225,217,115772,1,0,0:0:0:0:
239,259,115866,1,0,0:0:0:0:
213,330,115960,6,0,B|246:338|246:338|280:328,1,64.9999970245363,12|0,0:0|0:0,0:0:0:0:
497,245,116147,2,0,B|463:236|463:236|429:246,1,64.9999970245363
388,340,116335,70,0,B|385:270|385:270|396:251|396:251|384:234|384:234|380:166,1,179.999994506836,6|0,0:0|0:0,0:0:0:0:
247,136,116616,2,0,B|259:90|303:66|358:77|358:77|325:94|311:115,1,179.999994506836,2|0,0:0|0:0,0:0:0:0:
458,138,116897,2,0,P|420:167|363:158,1,89.9999972534181,2|0,0:0|0:0,0:0:0:0:
239,220,117085,6,0,B|191:212|165:182|160:147|160:147|75:163|75:163|63:172|63:172|51:167|51:167|8:173,1,269.999991760254,6|0,0:0|0:0,0:0:0:0:
12,12,117460,2,0,B|52:21|52:21|62:16|62:16|68:24|68:24|119:40,1,89.9999972534181,12|0,0:0|0:0,0:0:0:0:
95,189,117647,2,0,B|65:184|65:184|56:189|56:189|49:181|49:181|11:172,1,89.9999972534181,8|0,0:0|0:0,0:0:0:0:
0,355,117835,70,0,B|25:331|54:322|89:338|89:338|104:367|129:384|171:385,1,179.999994506836,2|0,0:0|0:0,0:0:0:0:
211,320,118116,1,2,0:0:0:0:
219,304,118210,2,0,B|243:291|243:291|318:304,1,89.9999972534181,12|0,0:0|0:0,0:0:0:0:
509,291,118397,2,0,P|470:312|421:281,1,89.9999972534181,2|0,0:0|0:0,0:0:0:0:
414,182,118585,5,6,0:0:0:0:
446,150,118678,1,0,0:0:0:0:
454,105,118772,1,0,0:0:0:0:
446,60,118866,1,0,0:0:0:0:
345,44,118960,70,0,L|249:58,1,64.9999970245363,12|0,0:0|0:0,0:0:0:0:
266,222,119147,2,0,L|351:213,1,64.9999970245363
309,133,119335,6,0,B|222:145|222:145|209:179|185:205|102:221,1,179.999994506836,6|0,0:0|0:0,0:0:0:0:
9,94,119616,2,0,B|50:68|110:78|131:120|131:120|112:99|100:98|68:92,1,179.999994506836,2|0,0:0|0:0,0:0:0:0:
58,205,119897,2,0,B|28:213|13:184|37:154|68:169|67:191,1,89.9999972534181,2|0,0:0|0:0,0:0:0:0:
202,287,120085,70,0,B|245:269|265:232|265:232|353:248|353:248|379:288|379:288|442:327,1,269.999991760254,6|0,0:0|0:0,0:0:0:0:
461,371,120460,2,0,P|429:386|379:372,1,89.9999972534181,12|0,0:0|0:0,0:0:0:0:
159,350,120647,2,0,P|131:317|129:271,1,89.9999972534181,2|0,0:0|0:0,0:0:0:0:
265,49,120835,6,0,B|295:60|295:60|129:93,1,179.999994506836,2|0,0:0|0:0,0:0:0:0:
79,121,121116,1,2,0:0:0:0:
83,137,121210,2,0,P|117:167|167:167,1,89.9999972534181,12|0,0:0|0:0,0:0:0:0:
303,231,121397,2,0,P|332:195|406:189,1,89.9999972534181,2|0,0:0|0:0,0:0:0:0:
510,10,121585,69,6,0:0:0:0:
466,19,121678,1,0,0:0:0:0:
421,28,121772,1,0,0:0:0:0:
376,38,121866,1,0,0:0:0:0:
299,7,121960,6,0,L|291:101,1,64.9999970245363,12|0,0:0|0:0,0:0:0:0:
461,96,122147,2,0,L|466:160,1,64.9999970245363
426,244,122335,70,0,B|384:264|341:241|341:241|297:215|252:237,1,179.999994506836,6|0,0:0|0:0,0:0:0:0:
365,130,122616,2,0,B|392:98|439:88|478:106|478:106|464:173,1,179.999994506836,2|0,0:0|0:0,0:0:0:0:
288,384,122897,2,0,B|272:343|272:343|296:291,1,89.9999972534181,2|0,0:0|0:0,0:0:0:0:
285,137,123085,6,0,B|218:130|218:130|205:119|205:119|186:127|186:127|115:120|115:120|98:243,1,269.999991760254,6|0,0:0|0:0,0:0:0:0:
29,163,123460,2,0,B|-15:173|-15:173|11:136,1,89.9999972534181,12|0,0:0|0:0,0:0:0:0:
169,254,123647,2,0,B|195:291|195:291|151:281,1,89.9999972534181,2|0,0:0|0:0,0:0:0:0:
26,310,123835,70,0,B|2:263|18:225|18:225|35:183|4:123,1,179.999994506836,2|0,0:0|0:0,0:0:0:0:
65,48,124116,1,0,0:0:0:0:
78,21,124210,2,0,P|118:5|179:25,1,89.9999972534181,12|0,0:0|0:0,0:0:0:0:
228,144,124397,2,0,B|270:137|270:137|276:128|276:128|343:116,1,89.9999972534181,2|0,0:0|0:0,0:0:0:0:
445,139,124585,5,4,0:0:0:0:
468,166,124678,1,0,0:0:0:0:
469,202,124772,1,0,0:0:0:0:
407,249,124866,69,4,0:0:0:0:
394,272,124960,1,0,0:0:0:0:
394,298,125053,1,0,0:0:0:0:
461,338,125147,5,4,0:0:0:0:
468,321,125241,1,0,0:0:0:0:
468,302,125335,1,0,0:0:0:0:
407,249,125428,69,4,0:0:0:0:
400,232,125522,1,0,0:0:0:0:
400,213,125616,1,0,0:0:0:0:
445,139,125710,6,0,L|206:161,2,179.999994506836,6|0|4,0:0|0:0|0:0,0:0:0:0:
