osu file format v14

[General]
AudioFilename: audio.mp3
AudioLeadIn: 0
PreviewTime: 28574
Countdown: 0
SampleSet: None
StackLeniency: 0.2
Mode: 0
LetterboxInBreaks: 0
WidescreenStoryboard: 0

[Editor]
DistanceSpacing: 0.6
BeatDivisor: 4
GridSize: 32
TimelineZoom: 2.3

[Metadata]
Title:This Club is Not 4 U
TitleUnicode:This Club is Not 4 U
Artist:EmoCo
ArtistUnicode:EmoCo
Creator:P4ndemonium
Version:dasdasdasd
Source:G2R2018
Tags:
BeatmapID:1884165
BeatmapSetID:902455

[Difficulty]
HPDrainRate:3
CircleSize:4
OverallDifficulty:9
ApproachRate:9.4
SliderMultiplier:2
SliderTickRate:1

[Events]
//Background and Video events
0,0,"heh.jpg",0,0
//Break Periods
2,90368,94878
//Storyboard Layer 0 (Background)
//Storyboard Layer 1 (Fail)
//Storyboard Layer 2 (Pass)
//Storyboard Layer 3 (Foreground)
//Storyboard Sound Samples

[TimingPoints]
168,375,4,1,0,30,1,0
4668,-200,4,1,0,30,0,0
5793,-400,4,1,0,30,0,0
5980,-66.6666666666667,4,1,0,30,0,0
6168,-33.3333333333333,4,1,0,30,0,0
6918,-40,4,1,0,30,0,0
7668,-33.3333333333333,4,1,0,30,0,0
8418,-28.5714285714286,4,1,0,30,0,0
9168,-33.3333333333333,4,1,0,30,0,0
9918,-40,4,1,0,30,0,0
10668,-33.3333333333333,4,1,0,30,0,0
11418,-100,4,1,0,30,0,0
11793,-28.5714285714286,4,1,0,30,0,0
12168,-33.3333333333333,4,1,0,30,0,0
12918,-50,4,1,0,30,0,0
13293,-400,4,1,0,30,0,0
13668,-33.3333333333333,4,1,0,30,0,0
14043,-200,4,1,0,30,0,0
14418,-28.5714285714286,4,1,0,30,0,0
15168,-33.3333333333333,4,1,0,30,0,0
15918,-50,4,1,0,30,0,0
16293,-400,4,1,0,30,0,0
16668,-40,4,1,0,30,0,0
16949,-33.3333333333333,4,1,0,30,0,0
17230,-28.5714285714286,4,1,0,30,0,0
17511,-25,4,1,0,30,0,0
17793,-400,4,1,0,30,0,0
18168,-25,4,1,0,30,0,0
18543,-400,4,1,0,30,0,0
18918,-25,4,1,0,30,0,0
19293,-400,4,1,0,30,0,0
19668,-33.3333333333333,4,1,0,30,0,0
19949,-28.5714285714286,4,1,0,30,0,0
20136,-25,4,1,0,30,0,0
20418,-33.3333333333333,4,1,0,30,0,0
20793,-25,4,1,0,30,0,0
21168,-25,4,1,0,30,0,0
21543,-400,4,1,0,30,0,0
21918,-25,4,1,0,30,0,0
22293,-400,4,1,0,30,0,0
22668,-33.3333333333333,4,1,0,30,0,0
22949,-28.5714285714286,4,1,0,30,0,0
23230,-25,4,1,0,30,0,0
23418,-400,4,1,0,30,0,0
23605,-25,4,1,0,30,0,0
24168,-33.3333333333333,4,1,0,30,0,0
30168,-400,4,1,0,30,0,1
30730,-66.6666666666667,4,1,0,30,0,1
30918,-33.3333333333333,4,1,0,30,0,1
31668,-100,4,1,0,30,0,1
32793,-25,4,1,0,30,0,1
33168,-33.3333333333333,4,1,0,30,0,1
34668,-40,4,1,0,30,0,1
35043,-50,4,1,0,30,0,1
35418,-66.6666666666667,4,1,0,30,0,1
35699,-100,4,1,0,30,0,1
35980,-200,4,1,0,30,0,1
36168,-33.3333333333333,4,1,0,30,0,1
37668,-40,4,1,0,30,0,1
38043,-50,4,1,0,30,0,1
38418,-33.3333333333333,4,1,0,30,0,1
39168,-33.3333333333333,4,1,0,30,0,1
40668,-25,4,1,0,30,0,1
41043,-28.5714285714286,4,1,0,30,0,1
41418,-33.3333333333333,4,1,0,30,0,1
41793,-40,4,1,0,30,0,1
42168,-40,4,1,0,30,0,1
42543,-50,4,1,0,30,0,1
42918,-66.6666666666667,4,1,0,30,0,1
43293,-50,4,1,0,30,0,1
43668,-66.6666666666667,4,1,0,30,0,1
44043,-200,4,1,0,30,0,1
44418,-50,4,1,0,30,0,1
44699,-66.6666666666667,4,1,0,30,0,1
44980,-100,4,1,0,30,0,1
45168,-33.3333333333333,4,1,0,30,0,1
45355,-100,4,1,0,30,0,1
45543,-50,4,1,0,30,0,1
45730,-33.3333333333333,4,1,0,30,0,1
45918,-50,4,1,0,30,0,1
46480,-33.3333333333333,4,1,0,30,0,1
47043,-50,4,1,0,30,0,1
47699,-66.6666666666667,4,1,0,30,0,1
47980,-100,4,1,0,30,0,1
48168,-33.3333333333333,4,1,0,30,0,1
49293,-100,4,1,0,30,0,1
49668,-33.3333333333333,4,1,0,30,0,1
50793,-100,4,1,0,30,0,1
51168,-33.3333333333333,4,1,0,30,0,1
52668,-33.3333333333333,4,1,0,30,0,0
54168,-100,4,1,0,30,0,0
59793,-400,4,1,0,30,0,0
60168,-40,4,1,0,30,0,0
65793,-40,4,1,0,30,0,0
66168,-40,4,1,0,30,0,0
71793,-25,4,1,0,30,0,0
72168,-40,4,1,0,30,0,0
77418,-100,4,1,0,30,0,0
77793,-200,4,1,0,30,0,0
78168,-66.6666666666667,4,1,0,30,0,1
89418,-33.3333333333333,4,1,0,30,0,1
89793,-25,4,1,0,30,0,1
90168,-25,4,1,0,30,0,0
95418,-400,4,1,0,30,0,0
95605,-25,4,1,0,30,0,0
96168,-50,4,1,0,30,0,0
100668,-200,4,1,0,30,0,0
101793,-400,4,1,0,30,0,0
101980,-66.6666666666667,4,1,0,30,0,0
102168,-66.6666666666667,4,1,0,30,0,1
105168,-40,4,1,0,30,0,0
112668,-33.3333333333333,4,1,0,30,0,0
113043,-50,4,1,0,30,0,0
113418,-100,4,1,0,30,0,0
113793,-25,4,1,0,30,0,1
114168,-33.3333333333333,4,1,0,30,0,1
114918,-50,4,1,0,30,0,1
115293,-33.3333333333333,4,1,0,30,0,1
116793,-50,4,1,0,30,0,1
116980,-33.3333333333333,4,1,0,30,0,1
117168,-33.3333333333333,4,1,0,30,0,1
117918,-50,4,1,0,30,0,1
118293,-33.3333333333333,4,1,0,30,0,1
119418,-50,4,1,0,30,0,1
119793,-33.3333333333333,4,1,0,30,0,1
124668,-25,4,1,0,30,0,1
126168,-100,4,1,0,30,0,0
129168,-50,4,1,0,30,0,0
130668,-25,4,1,0,30,0,0

[HitObjects]
333,0,168,5,0,0:0:0:0:
380,66,543,1,0,0:0:0:0:
448,21,918,5,0,0:0:0:0:
375,149,1199,1,0,0:0:0:0:
248,75,1480,1,0,0:0:0:0:
175,203,1668,5,0,0:0:0:0:
128,269,2043,1,0,0:0:0:0:
60,224,2418,5,0,0:0:0:0:
133,352,2699,1,0,0:0:0:0:
260,278,2980,1,0,0:0:0:0:
389,384,3168,5,0,0:0:0:0:
346,359,3293,1,0,0:0:0:0:
334,312,3418,1,0,0:0:0:0:
395,253,3543,5,0,0:0:0:0:
441,194,3668,1,0,0:0:0:0:
435,122,3793,1,0,0:0:0:0:
319,24,3918,5,0,0:0:0:0:
348,107,4043,1,0,0:0:0:0:
406,39,4168,1,0,0:0:0:0:
350,230,4293,5,0,0:0:0:0:
263,127,4418,1,0,0:0:0:0:
219,252,4543,1,0,0:0:0:0:
24,109,4668,6,0,P|45:121|69:125,1,50
170,43,4949,2,0,P|148:55|132:74,1,50
153,177,5230,2,0,P|149:164|143:153,1,25
59,34,5418,5,0,0:0:0:0:
24,308,5543,1,0,0:0:0:0:
278,201,5668,1,0,0:0:0:0:
253,127,5793,6,0,L|240:129,1,12.5
229,131,5980,6,0,L|302:117,1,75.0000028610231
432,13,6168,6,0,P|385:69|394:142,1,150.000005722046
394,142,6543,1,0,0:0:0:0:
477,158,6730,1,0,0:0:0:0:
364,301,6918,6,0,P|348:241|298:205,1,125
278,201,7105,1,0,0:0:0:0:
246,275,7293,1,0,0:0:0:0:
31,318,7668,6,0,P|90:274|162:287,1,150.000005722046
161,287,8043,1,0,0:0:0:0:
194,208,8230,1,0,0:0:0:0:
0,27,8418,6,0,P|-21:108|32:173,1,175.00000166893
50,177,8605,1,0,0:0:0:0:
131,150,8793,6,0,P|152:68|98:3,1,175.00000166893
81,0,8980,1,0,0:0:0:0:
236,124,9168,6,0,P|291:170|364:162,1,150.000005722046
364,162,9543,1,0,0:0:0:0:
380,78,9730,1,0,0:0:0:0:
512,227,9918,6,0,P|452:242|416:292,1,125
412,313,10105,1,0,0:0:0:0:
489,338,10293,1,0,0:0:0:0:
313,383,10668,6,0,P|325:311|282:253,1,150.000005722046
281,253,11043,1,0,0:0:0:0:
215,306,11230,1,0,0:0:0:0:
35,261,11418,6,0,L|26:310,1,50
24,325,11605,1,0,0:0:0:0:
143,384,11793,6,0,L|112:211,1,175.00000166893
112,211,12168,6,0,P|254:56|446:143,1,450.000017166138
451,162,12543,6,0,P|379:179|342:241,1,150.000005722046
358,326,12730,2,0,P|423:358|492:334,1,150.000005722046
199,247,12918,6,0,P|246:260|278:298,1,100
240,369,13105,2,0,P|191:373|149:349,1,100
99,290,13293,6,0,L|62:296,1,37.5
0,107,13668,6,0,P|159:50|57:185,1,450.000017166138
42,176,14043,6,0,L|37:200,1,25
187,65,14231,2,0,L|191:89,1,25
397,204,14418,6,0,P|315:225|250:171,1,175.00000166893
247,154,14605,1,0,0:0:0:0:
274,73,14793,6,0,P|355:51|420:105,1,175.00000166893
424,123,14980,1,0,0:0:0:0:
480,235,15168,6,0,P|280:300|161:128,1,450.000017166138
164,112,15543,6,0,P|126:49|55:32,1,150.000005722046
4,201,15730,2,0,P|72:225|138:192,1,150.000005722046
284,199,15918,6,0,P|236:212|204:250,1,100
242,322,16105,2,0,P|291:325|333:301,1,100
411,272,16293,6,0,L|417:308,1,37.5
340,140,16668,6,0,L|463:162,1,125
333,5,16855,5,0,0:0:0:0:
399,42,16949,2,0,L|252:69,1,150.000005722046
266,265,17136,5,0,0:0:0:0:
212,205,17230,2,0,L|384:235,1,175.00000166893
161,21,17418,5,0,0:0:0:0:
238,57,17511,2,0,L|41:91,1,200
213,326,17699,5,0,0:0:0:0:
109,306,17793,2,0,L|133:310,1,25
389,117,18168,6,0,B|397:163|449:200|509:175|509:175|500:169|500:169|484:98|408:51|321:66|283:139|283:139|293:139|293:139|269:183|216:200|171:175,1,600
139,99,18543,6,0,L|143:74,1,25
111,340,18918,6,0,B|66:343|40:380|40:380|29:279|81:190|172:175|172:175|150:241|201:230|175:293|175:293|183:338|219:363|263:361,1,600
338,338,19293,6,0,L|342:362,1,25
466,193,19668,6,0,P|493:256|436:295,1,150.000005722046
386,195,19855,5,0,0:0:0:0:
346,130,19949,2,0,P|450:35|460:175,1,350.00000333786
364,321,20230,6,0,P|280:278|294:185,1,200
278,50,20418,5,0,0:0:0:0:
166,84,20511,2,0,P|199:22|268:35,1,150.000005722046
199,201,20793,6,0,P|107:219|62:137,1,200
71,109,20980,1,0,0:0:0:0:
485,1,21168,6,0,B|435:6|402:29|374:60|374:60|365:44|365:44|373:62|373:62|335:110|327:186|361:243|361:243|395:242|419:259|419:259|431:257|431:257|415:310|354:336|294:316,1,600
216,325,21543,6,0,L|220:349,1,25
135,178,21918,6,0,B|118:124|71:109|71:109|75:118|75:118|25:170|38:245|99:299|182:289|229:229|220:163|220:163|209:159|209:159|228:115|266:96|315:104,1,600
393,110,22293,6,0,L|388:134,1,25
493,322,22668,6,0,P|444:268|447:195,1,150.000005722046
227,325,22855,5,0,0:0:0:0:
153,214,22949,2,0,P|315:224|348:384,1,350.00000333786
215,364,23230,6,0,P|260:301|186:322,1,200
40,321,23418,6,0,L|37:333,1,12.5
46,347,23605,6,0,L|80:150,1,200
90,36,23793,6,0,B|67:41|55:68|55:68|44:78|44:78|104:50|174:63|213:116|213:116|203:122|203:122|282:176|392:172|454:108|465:25,1,600
447,15,24168,6,0,P|335:100|382:232,1,300.000011444092
398,332,24449,1,0,0:0:0:0:
477,312,24543,2,0,P|432:254|359:255,1,150.000005722046
160,299,24730,2,0,P|233:300|278:243,1,150.000005722046
154,124,24918,6,0,P|98:170|100:242,1,150.000005722046
247,37,25105,6,0,L|99:10,1,150.000005722046
96,29,25293,2,0,L|243:55,1,150.000005722046
280,225,25480,2,0,L|427:198,1,150.000005722046
52,327,25668,6,0,P|29:188|154:124,1,300.000011444092
207,335,25949,1,0,0:0:0:0:
131,303,26043,2,0,P|184:254|256:267,1,150.000005722046
332,370,26230,2,0,P|260:383|207:335,1,150.000005722046
310,197,26418,2,0,P|372:232|382:304,1,150.000005722046
512,104,26605,6,0,L|485:251,1,150.000005722046
467,248,26793,2,0,L|493:100,1,150.000005722046
217,0,26980,2,0,L|244:147,1,150.000005722046
61,347,27168,5,0,0:0:0:0:
131,303,27293,1,0,0:0:0:0:
182,369,27418,1,0,0:0:0:0:
366,264,27543,5,0,0:0:0:0:
278,209,27668,1,0,0:0:0:0:
214,292,27793,1,0,0:0:0:0:
8,178,27918,5,0,0:0:0:0:
118,109,28043,1,0,0:0:0:0:
198,213,28168,1,0,0:0:0:0:
432,89,28293,5,0,0:0:0:0:
294,3,28418,1,0,0:0:0:0:
194,133,28543,1,0,0:0:0:0:
0,0,28668,5,0,0:0:0:0:
0,0,29418,5,0,0:0:0:0:
81,13,29511,5,0,0:0:0:0:
134,98,29605,5,0,0:0:0:0:
95,209,29699,5,0,0:0:0:0:
147,332,29793,5,0,0:0:0:0:
297,351,29886,5,0,0:0:0:0:
420,233,29980,5,0,0:0:0:0:
377,44,30074,5,0,0:0:0:0:
512,164,30168,6,0,L|475:170,1,37.5
326,274,30543,6,0,L|339:276,1,12.5
350,278,30730,6,0,L|277:264,1,75.0000028610231
33,232,30918,6,0,P|169:247|172:384,1,300.000011444092
171,384,31199,2,0,P|168:246|32:232,1,300.000011444092
33,232,31480,2,0,P|104:214|169:247,1,150.000005722046
205,53,31668,6,0,L|187:151,1,100
205,53,32043,6,0,L|187:151,1,100
481,164,32418,5,0,0:0:0:0:
411,120,32543,1,0,0:0:0:0:
360,186,32668,1,0,0:0:0:0:
413,287,32793,6,0,P|347:215|249:212,1,200
162,184,32980,2,0,P|184:265|250:212,1,200
0,68,33168,6,0,P|137:104|235:0,1,300.000011444092
0,68,33543,6,0,P|137:104|235:0,1,300.000011444092
0,68,33918,6,0,P|137:104|235:0,1,300.000011444092
235,0,34199,2,0,P|137:104|0:68,1,300.000011444092
0,67,34480,2,0,P|63:105|138:104,1,150.000005722046
340,193,34668,6,0,P|301:145|296:83,1,125
300,67,34855,1,0,0:0:0:0:
491,119,35043,6,0,P|472:165|435:197,1,100
422,206,35230,1,0,0:0:0:0:
311,353,35418,6,0,L|297:279,1,75.0000028610231
295,263,35605,1,0,0:0:0:0:
213,289,35699,6,0,L|221:338,1,50
224,354,35886,1,0,0:0:0:0:
135,339,35980,6,0,L|131:315,1,25
81,201,36168,6,0,P|211:150|295:263,1,300.000011444092
81,201,36543,6,0,P|211:150|295:263,1,300.000011444092
81,201,36918,6,0,P|211:150|295:263,1,300.000011444092
295,262,37199,2,0,P|211:150|81:201,1,300.000011444092
81,201,37480,2,0,P|137:154|211:150,1,150.000005722046
400,11,37668,6,0,P|346:41|316:95,1,125
312,113,37855,1,0,0:0:0:0:
478,237,38043,6,0,P|436:209|387:201,1,100
370,204,38230,1,0,0:0:0:0:
147,325,38418,6,0,P|149:203|245:278,1,300.000011444092
242,295,38699,1,0,0:0:0:0:
302,352,38793,6,0,P|373:366|428:319,1,150.000005722046
383,103,38980,2,0,P|311:88|256:135,1,150.000005722046
17,88,39168,6,0,P|70:217|210:205,1,300.000011444092
17,88,39543,6,0,P|70:217|210:205,1,300.000011444092
17,88,39918,6,0,P|70:217|210:205,1,300.000011444092
210,205,40199,2,0,P|70:217|17:88,1,300.000011444092
17,88,40480,6,0,P|22:161|70:217,1,150.000005722046
447,207,40668,6,0,P|498:124|472:31,1,200
457,18,40855,1,0,0:0:0:0:
359,0,41043,6,0,P|288:48|269:132,1,175.00000166893
273,150,41230,1,0,0:0:0:0:
402,349,41418,6,0,P|388:276|335:225,1,150.000005722046
320,219,41605,1,0,0:0:0:0:
241,242,41793,6,0,P|207:294|204:355,1,125
209,374,41980,1,0,0:0:0:0:
0,21,42168,6,0,P|99:166|268:119,1,375
382,155,42543,6,0,P|357:34|267:119,1,300
383,384,42918,6,0,P|389:274|474:205,1,225.000008583069
492,215,43293,6,0,P|495:264|471:307,1,100
385,285,43480,2,0,P|344:313|295:313,1,100
149,212,43668,6,0,P|186:212|219:229,1,75.0000028610231
203,315,43855,2,0,P|220:347|223:384,1,75.0000028610231
98,277,44043,6,0,P|64:293|27:294,1,75.0000028610231
63,22,44418,6,0,L|161:4,1,100
183,0,44605,1,0,0:0:0:0:
184,86,44699,6,0,L|110:99,1,75.0000028610231
91,103,44886,1,0,0:0:0:0:
119,184,44980,6,0,L|168:175,1,50
259,42,45168,6,0,L|406:68,1,150.000005722046
423,59,45355,6,0,P|423:83|433:106,1,50
352,162,45543,6,0,P|395:185|445:186,1,100
419,341,45730,6,0,P|481:301|512:234,1,150.000005722046
256,150,45918,6,0,P|264:292|143:368,1,300.000011444092
124,367,46293,1,0,0:0:0:0:
0,0,46480,6,0,P|158:140|347:44,1,450.000017166138
357,17,46855,1,0,0:0:0:0:
490,222,47043,6,0,P|351:256|256:150,1,300.000011444092
194,224,47418,6,0,L|211:322,1,100
216,344,47605,1,0,0:0:0:0:
130,345,47699,6,0,L|116:271,1,75.0000028610231
113,252,47886,1,0,0:0:0:0:
32,280,47980,6,0,L|40:329,1,50
22,78,48168,6,0,P|160:44|256:150,1,300.000011444092
257,169,48449,1,0,0:0:0:0:
323,219,48543,2,0,P|393:236|452:194,1,150.000005722046
470,109,48730,2,0,P|427:50|355:44,1,150.000005722046
234,384,48918,6,0,L|207:236,1,150.000005722046
60,257,49105,2,0,L|200:308,1,150.000005722046
257,169,49293,6,0,L|142:265,1,150.000005722046
389,384,49668,6,0,P|362:243|473:153,1,300.000011444092
493,152,49949,1,0,0:0:0:0:
512,71,50043,2,0,P|471:10|398:3,1,150.000005722046
299,148,50230,2,0,P|258:208|185:215,1,150.000005722046
0,0,50418,6,0,L|26:147,1,150.000005722046
177,186,50605,2,0,L|150:333,1,150.000005722046
43,384,50793,6,0,L|69:236,1,150.000005722046
201,61,51168,6,0,P|406:46|450:248,1,450.000017166138
268,310,51543,2,0,P|152:138|305:0,1,450.000017166138
451,128,51918,6,0,P|420:269|287:325,1,300.000011444092
201,60,52199,2,0,P|338:17|453:103,1,300.000011444092
268,310,52480,2,0,P|202:274|161:212,1,150.000005722046
307,166,52668,5,0,0:0:0:0:
256,192,52761,12,0,53980,0:0:0:0:
44,126,54168,5,0,0:0:0:0:
78,34,54355,1,0,0:0:0:0:
86,42,54543,1,0,0:0:0:0:
86,54,54730,1,0,0:0:0:0:
170,168,54918,5,0,0:0:0:0:
61,274,55105,1,0,0:0:0:0:
61,255,55292,1,0,0:0:0:0:
73,242,55480,2,0,P|86:220|91:196,1,50
477,117,55668,5,0,0:0:0:0:
375,20,55855,1,0,0:0:0:0:
361,66,56043,1,0,0:0:0:0:
391,104,56230,1,0,0:0:0:0:
287,196,56418,5,0,0:0:0:0:
368,384,56606,1,0,0:0:0:0:
411,327,56793,1,0,0:0:0:0:
392,256,56980,2,0,P|378:234|373:210,1,50
40,61,57168,5,0,0:0:0:0:
247,119,57355,1,0,0:0:0:0:
162,135,57543,1,0,0:0:0:0:
146,50,57730,1,0,0:0:0:0:
146,50,57824,1,0,0:0:0:0:
178,220,57918,5,0,0:0:0:0:
484,277,58105,1,0,0:0:0:0:
356,253,58293,1,0,0:0:0:0:
332,380,58480,1,0,0:0:0:0:
332,380,58574,1,0,0:0:0:0:
161,237,58668,5,0,0:0:0:0:
283,215,58793,1,0,0:0:0:0:
239,331,58918,1,0,0:0:0:0:
178,220,59043,5,0,0:0:0:0:
288,239,59168,1,0,0:0:0:0:
216,324,59293,1,0,0:0:0:0:
250,136,59418,6,0,L|244:169,1,33.3333333333333
323,341,59543,2,0,L|298:320,1,33.3333333333333
107,303,59668,2,0,L|139:292,1,33.3333333333333
255,118,59793,6,0,L|261:80,1,37.5
323,341,60168,6,0,B|456:317|456:317|415:82,2,375
37,326,60918,6,0,B|57:207|57:207|270:245|270:245|263:283,2,375
455,118,61668,6,0,B|360:101|360:101|343:195|343:195|438:212|438:212|453:126,2,375
82,196,62418,6,0,B|88:235|88:235|183:218|183:218|150:29|150:29|103:37,2,375
424,286,63168,5,0,0:0:0:0:
393,280,63261,1,0,0:0:0:0:
362,275,63355,1,0,0:0:0:0:
331,269,63449,1,0,0:0:0:0:
300,264,63543,5,0,0:0:0:0:
306,220,63636,1,0,0:0:0:0:
313,177,63730,1,0,0:0:0:0:
322,133,63824,1,0,0:0:0:0:
329,90,63918,5,0,0:0:0:0:
268,79,64011,1,0,0:0:0:0:
208,68,64105,1,0,0:0:0:0:
148,58,64199,1,0,0:0:0:0:
88,47,64292,5,0,0:0:0:0:
73,131,64386,1,0,0:0:0:0:
58,215,64480,1,0,0:0:0:0:
43,299,64574,1,0,0:0:0:0:
28,384,64667,5,0,0:0:0:0:
43,299,64949,5,0,0:0:0:0:
43,299,65043,1,0,0:0:0:0:
58,215,65230,5,0,0:0:0:0:
73,131,65418,5,0,0:0:0:0:
88,47,65605,5,0,0:0:0:0:
28,384,65793,6,0,L|93:14,1,375
95,136,66168,6,0,B|83:199|83:199|267:231,1,250
374,213,66449,2,0,B|382:165|382:165|295:150|295:150|275:262,1,250
451,368,66730,2,0,B|466:281|466:281|429:274,1,125
137,275,66918,6,0,B|131:306|131:306|249:327|249:327|266:230,1,250
281,59,67199,2,0,B|202:45|202:45|175:194|175:194|193:197,1,250
466,173,67480,2,0,B|470:149|470:149|370:131,1,125
174,332,67668,6,0,B|260:347|260:347|267:310,1,125
296,151,67855,1,0,0:0:0:0:
472,56,68043,6,0,B|458:18|458:18|390:43|390:43|395:55,1,125
448,255,68230,1,0,0:0:0:0:
154,148,68418,6,0,B|209:180|209:180|219:163,1,83.3333333333333
352,119,68543,2,0,B|296:151|296:151|306:167,1,83.3333333333333
279,305,68668,2,0,B|279:240|279:240|259:241,1,83.3333333333333
103,69,68793,6,0,B|31:193|31:193|107:237|107:237|116:222,1,250
382,29,69168,6,0,B|400:131|400:131|256:156,1,250
109,202,69449,2,0,B|102:162|102:162|308:126,1,250
314,341,69730,2,0,B|298:343|298:343|279:236,1,125
468,179,69918,6,0,B|491:174|491:174|506:261|506:261|371:285,1,250
198,241,70199,2,0,B|184:162|184:162|262:148|262:148|279:236,1,250
98,361,70480,2,0,B|74:365|74:365|56:265,1,125
119,66,70668,6,0,B|134:63|134:63|153:170,1,125
182,321,70855,1,0,0:0:0:0:
356,326,71043,6,0,B|353:333|353:333|285:308|285:308|300:266,1,125
384,37,71230,1,0,0:0:0:0:
153,170,71418,6,0,B|150:154|150:154|216:142,1,83.3333333333333
312,91,71543,2,0,B|327:96|327:96|304:159,1,83.3333333333333
301,267,71668,2,0,B|288:277|288:277|245:225,1,83.3333333333333
60,66,71793,6,0,B|241:34|241:34|243:49,1,200
304,159,71980,2,0,B|485:190|485:190|487:175,1,200
428,45,72168,6,0,B|349:31|349:31|322:180|322:180|340:183,1,250
440,363,72449,2,0,B|453:284|453:284|286:254,1,250
110,299,72730,2,0,B|204:315|204:315|209:287,1,125
94,78,72918,6,0,B|46:69|46:69|32:148|32:148|152:169,1,250
385,77,73199,2,0,B|387:61|387:61|157:20,1,250
287,255,73480,2,0,B|350:266|350:266|360:206,1,125
490,32,73668,6,0,B|395:15|395:15|390:43,1,125
336,349,73855,1,0,0:0:0:0:
62,330,74043,6,0,B|64:337|64:337|169:299|169:299|168:294,1,125
82,34,74230,1,0,0:0:0:0:
307,114,74418,6,0,B|272:94|272:94|250:131,1,83.3333333333333
174,166,74543,2,0,B|173:206|173:206|217:206,1,83.3333333333333
287,255,74668,2,0,B|321:234|321:234|299:197,1,83.3333333333333
352,23,74793,6,0,B|432:161|432:161|494:125|494:125|485:109,1,250
341,346,75168,6,0,B|396:355|396:355|408:287,1,125
432,161,75355,1,0,0:0:0:0:
269,49,75543,6,0,B|221:57|221:57|235:133,1,125
268,303,75730,1,0,0:0:0:0:
93,384,75918,6,0,B|115:392|115:392|150:297,1,125
212,110,76105,1,0,0:0:0:0:
36,0,76293,6,0,B|28:2|28:2|68:112,1,125
157,333,76480,1,0,0:0:0:0:
288,80,76668,5,0,0:0:0:0:
272,166,76793,1,0,0:0:0:0:
359,181,76918,1,0,0:0:0:0:
510,158,77043,5,0,0:0:0:0:
474,58,77168,1,0,0:0:0:0:
375,95,77293,1,0,0:0:0:0:
215,308,77418,6,0,L|209:275,1,33.3333333333333
195,197,77543,6,0,L|189:164,1,33.3333333333333
176,87,77668,6,0,L|170:54,1,33.3333333333333
8,300,77793,6,0,P|44:297|74:318,1,75
93,322,78168,6,0,L|86:358,1,37.5000014305115
195,316,78261,2,0,L|166:291,1,37.5000014305115
255,94,78449,6,0,L|261:130,1,37.5000014305115
334,161,78542,2,0,L|362:136,1,37.5000014305115
386,379,78730,6,0,L|392:342,1,37.5000014305115
335,240,78918,6,0,L|363:264,1,37.5000014305115
480,265,79105,6,0,L|444:277,1,37.5000014305115
64,298,79293,6,0,L|57:334,1,37.5000014305115
137,267,79386,2,0,L|166:292,1,37.5000014305115
146,187,79480,2,0,L|181:174,1,37.5000014305115
408,87,79668,6,0,L|436:62,1,37.5000014305115
334,54,79761,2,0,L|327:17,1,37.5000014305115
271,102,79855,2,0,L|235:89,1,37.5000014305115
181,174,79949,2,0,L|174:137,1,37.5000014305115
71,129,80043,2,0,L|99:104,1,37.5000014305115
213,358,80230,6,0,L|206:321,1,37.5000014305115
264,219,80418,6,0,L|235:243,1,37.5000014305115
119,244,80605,6,0,L|154:256,1,37.5000014305115
450,260,80793,6,0,L|485:247,1,37.5000014305115
387,212,80886,2,0,L|393:175,1,37.5000014305115
313,245,80980,2,0,L|284:220,1,37.5000014305115
45,367,81168,6,0,L|81:373,1,37.5000014305115
39,265,81261,2,0,L|14:293,1,37.5000014305115
175,72,81449,6,0,L|138:65,1,37.5000014305115
181,174,81542,2,0,L|205:145,1,37.5000014305115
414,304,81730,6,0,L|377:297,1,37.5000014305115
275,355,81918,6,0,L|299:326,1,37.5000014305115
300,210,82105,6,0,L|312:245,1,37.5000014305115
497,61,82293,6,0,L|503:24,1,37.5000014305115
423,91,82386,2,0,L|394:66,1,37.5000014305115
415,172,82480,2,0,L|379:184,1,37.5000014305115
20,337,82668,6,0,L|13:373,1,37.5000014305115
94,307,82761,2,0,L|122:331,1,37.5000014305115
137,213,82855,2,0,L|101:225,1,37.5000014305115
145,132,82949,2,0,L|116:107,1,37.5000014305115
225,65,83043,2,0,L|218:101,1,37.5000014305115
317,137,83136,2,0,L|281:149,1,37.5000014305115
373,221,83230,2,0,L|379:184,1,37.5000014305115
482,179,83324,2,0,L|453:154,1,37.5000014305115
464,75,83418,2,0,L|500:63,1,37.5000014305115
318,284,83605,6,0,L|282:296,1,37.5000014305115
15,61,83793,6,0,L|8:24,1,37.5000014305115
89,91,83886,2,0,L|117:66,1,37.5000014305115
97,172,83980,2,0,L|132:184,1,37.5000014305115
298,95,84168,6,0,L|304:131,1,37.5000014305115
196,89,84261,2,0,L|224:64,1,37.5000014305115
94,307,84449,6,0,L|87:343,1,37.5000014305115
196,301,84542,2,0,L|167:276,1,37.5000014305115
412,170,84730,6,0,L|405:206,1,37.5000014305115
318,284,84918,6,0,L|353:271,1,37.5000014305115
463,309,85105,6,0,L|434:284,1,37.5000014305115
64,50,85293,6,0,L|27:56,1,37.5000014305115
118,107,85386,2,0,L|105:142,1,37.5000014305115
196,89,85480,2,0,L|220:117,1,37.5000014305115
83,378,85668,6,0,L|46:371,1,37.5000014305115
130,312,85761,2,0,L|117:276,1,37.5000014305115
209,322,85855,2,0,L|233:293,1,37.5000014305115
323,339,85949,2,0,L|310:303,1,37.5000014305115
395,245,86043,2,0,L|358:238,1,37.5000014305115
394,14,86230,6,0,L|387:50,1,37.5000014305115
300,128,86418,6,0,L|335:115,1,37.5000014305115
445,153,86605,6,0,L|416:128,1,37.5000014305115
95,194,86793,6,0,L|58:200,1,37.5000014305115
126,121,86886,2,0,L|101:92,1,37.5000014305115
205,112,86980,2,0,L|217:76,1,37.5000014305115
341,351,87168,5,0,0:0:0:0:
193,327,87293,1,0,0:0:0:0:
341,351,87418,1,0,0:0:0:0:
139,265,87543,5,0,0:0:0:0:
331,233,87668,1,0,0:0:0:0:
139,265,87793,1,0,0:0:0:0:
379,162,87918,5,0,0:0:0:0:
142,123,88043,1,0,0:0:0:0:
379,162,88168,1,0,0:0:0:0:
106,47,88293,5,0,0:0:0:0:
397,0,88418,1,0,0:0:0:0:
106,47,88543,1,0,0:0:0:0:
256,192,88668,5,0,0:0:0:0:
441,93,88855,6,0,L|480:99,1,37.5000014305115
427,171,88949,1,0,0:0:0:0:
413,250,89043,1,0,0:0:0:0:
413,250,89230,1,0,0:0:0:0:
79,199,89418,6,0,B|59:226|59:226|193:203,1,150.000005722046
256,192,89605,2,0,L|242:118,1,75.0000028610231
467,187,89793,6,0,B|492:149|492:149|340:176,1,200
256,192,89980,2,0,L|273:290,1,100
287,369,90168,5,0,0:0:0:0:
472,321,95418,6,0,L|475:333,1,12.5
466,347,95605,6,0,L|432:150,1,200
422,36,95793,6,0,B|445:41|457:68|457:68|468:78|468:78|408:50|338:63|299:116|299:116|309:122|309:122|230:176|120:172|58:108|47:25,1,600
65,13,96168,6,0,P|157:37|187:129,1,200
187,129,96449,1,0,0:0:0:0:
187,129,96543,1,0,0:0:0:0:
116,298,96730,1,0,0:0:0:0:
32,288,96918,2,0,P|52:243|94:215,1,100
186,343,97105,2,0,P|198:295|184:247,1,100
195,136,97293,2,0,P|335:169|441:72,1,300
512,362,97668,6,0,P|488:269|396:239,1,200
396,239,97949,1,0,0:0:0:0:
396,239,98043,1,0,0:0:0:0:
254,75,98230,1,0,0:0:0:0:
339,71,98418,2,0,P|326:118|290:152,1,100
177,42,98605,2,0,P|172:91|194:135,1,100
37,384,98793,2,0,L|89:88,1,300
80,274,99168,5,0,0:0:0:0:
120,302,99261,1,0,0:0:0:0:
169,309,99355,1,0,0:0:0:0:
215,292,99449,1,0,0:0:0:0:
249,255,99543,5,0,0:0:0:0:
304,207,99636,1,0,0:0:0:0:
377,215,99730,1,0,0:0:0:0:
422,272,99824,1,0,0:0:0:0:
413,344,99918,5,0,0:0:0:0:
334,347,100011,1,0,0:0:0:0:
264,309,100105,1,0,0:0:0:0:
223,242,100199,1,0,0:0:0:0:
223,163,100292,5,0,0:0:0:0:
276,77,100386,1,0,0:0:0:0:
211,2,100480,1,0,0:0:0:0:
119,38,100573,1,0,0:0:0:0:
125,137,100668,6,0,P|118:147|109:156,1,25
109,235,100855,1,0,0:0:0:0:
109,235,100949,2,0,P|96:234|84:231,1,25
16,270,101136,1,0,0:0:0:0:
16,270,101230,2,0,P|10:258|6:246,1,25
125,137,101418,1,0,0:0:0:0:
125,137,101511,2,0,P|118:147|109:156,1,25
170,347,101699,5,0,0:0:0:0:
170,347,101793,2,0,L|172:360,1,12.5
174,371,101980,6,0,L|160:298,1,75.0000028610231
415,0,102168,6,0,P|411:37|392:68,1,75.0000028610231
512,118,102355,1,0,0:0:0:0:
512,118,102449,2,0,P|474:117|440:132,1,75.0000028610231
458,261,102636,1,0,0:0:0:0:
458,261,102730,2,0,P|427:239|409:206,1,75.0000028610231
307,286,102918,1,0,0:0:0:0:
307,286,103011,2,0,P|326:254|329:217,1,75.0000028610231
210,167,103199,1,0,0:0:0:0:
210,167,103293,2,0,P|243:151|281:152,1,75.0000028610231
263,23,103480,2,0,P|280:55|311:77,1,75.0000028610231
125,384,103668,6,0,P|122:346|135:312,1,75.0000028610231
0,243,103855,1,0,0:0:0:0:
0,243,103949,2,0,P|37:245|71:230,1,75.0000028610231
94,80,104136,1,0,0:0:0:0:
94,80,104230,2,0,P|118:108|127:144,1,75.0000028610231
278,120,104418,1,0,0:0:0:0:
278,120,104511,2,0,P|246:140|227:171,1,75.0000028610231
298,306,104699,5,0,0:0:0:0:
297,305,104793,2,0,P|284:303|272:300,9,25.0000009536744
411,352,105168,6,0,P|380:234|449:134,1,250
340,72,105543,2,0,P|287:181|170:213,1,250
56,339,105918,2,0,P|47:193|151:294,2,375
441,224,106668,6,0,P|341:155|223:185,1,250
32,11,107043,2,0,B|95:-13|144:36|117:56|184:115|251:75,1,250
509,174,107418,2,0,P|492:29|406:147,2,375
203,360,108168,6,0,P|119:273|135:153,1,250
401,188,108543,2,0,P|388:308|286:373,1,250
69,111,108918,2,0,P|154:228|171:84,2,375
457,22,109668,6,0,P|347:74|314:190,1,250
147,384,110043,2,0,B|122:320|172:271|192:298|251:231|211:164,1,250
455,380,110418,2,0,P|463:234|359:335,2,375
38,125,111168,6,0,P|109:216|212:164,1,250
370,125,111543,2,0,P|298:33|195:85,1,250
147,384,111918,2,0,P|163:239|249:357,2,375
465,125,112668,6,0,P|397:153|364:219,1,150.000005722046
364,248,112855,1,0,0:0:0:0:
279,308,113043,6,0,P|262:261|224:230,1,100
207,223,113230,1,0,0:0:0:0:
124,301,113418,6,0,P|146:312|170:316,1,50
187,315,113605,1,0,0:0:0:0:
58,125,113793,6,0,B|78:128|94:116|94:116|69:180|-10:162|-30:74|19:-3|126:1|169:87|169:87|180:138|227:165|286:144|310:94|286:48,1,600
231,77,114168,6,0,P|267:259|405:134,1,450.000017166138
383,140,114543,6,0,P|339:196|357:267,1,150.000005722046
301,384,114730,2,0,P|274:316|204:297,1,150.000005722046
58,376,114918,6,0,P|105:385|146:358,1,100
117,218,115105,2,0,P|69:208|29:236,1,100
87,297,115293,6,0,P|287:273|255:73,1,450.000017166138
467,0,115668,6,0,P|431:147|496:10,1,450.000017166138
361,204,116043,2,0,P|430:234|504:228,1,150.000005722046
282,53,116230,2,0,P|213:23|139:29,1,150.000005722046
200,349,116418,6,0,B|269:302|289:215|267:137|267:137|242:158|210:159,1,300.000011444092
4,278,116699,1,0,0:0:0:0:
22,272,116793,2,0,P|52:308|98:299,1,100
144,230,116980,2,0,P|98:174|28:188,1,150.000005722046
481,227,117168,6,0,B|463:301|370:341|281:308|281:308|259:270|218:261|218:261|266:266|287:295|287:295|310:301|332:299,1,450.000017166138
408,25,117543,6,0,P|448:86|434:158,1,150.000005722046
290,295,117730,2,0,P|249:233|263:161,1,150.000005722046
169,26,117918,6,0,P|141:66|146:114,1,100
276,147,118105,2,0,P|303:106|298:58,1,100
0,322,118293,6,0,B|-22:254|-22:254|87:216|141:306|141:306|197:398|303:377,1,450.000017166138
485,60,118668,6,0,B|375:117|338:258|406:381|406:381|421:344|460:325,1,450.000017166138
393,17,119042,6,0,P|389:90|433:149,1,150.000005722046
226,258,119230,2,0,P|279:207|289:134,1,150.000005722046
118,50,119418,6,0,P|165:63|199:98,1,100
207,119,119605,1,0,0:0:0:0:
56,224,119793,6,0,P|16:162|26:89,1,150.000005722046
38,73,119980,1,0,0:0:0:0:
84,339,120168,6,0,B|116:259|200:221|286:245|286:245|264:263|258:292,1,300.000011444092
343,314,120449,1,0,0:0:0:0:
343,314,120543,2,0,P|413:330|473:288,1,150.000005722046
441,112,120730,2,0,P|371:96|311:138,1,150.000005722046
119,0,120918,6,0,B|135:-2|152:-14|152:-14|130:96,1,150.000005722046
109,370,121105,2,0,B|92:372|75:384|75:384|97:273,1,150.000005722046
25,206,121293,6,0,B|109:186|109:186|101:176|101:176|109:186|109:186|225:162|225:162|290:270|290:270|283:258|283:258|361:272,1,450.000017166138
451,0,121668,6,0,B|496:-14|496:-14|522:58|461:95|461:95|400:132|414:202,1,300.000011444092
512,381,121949,1,0,0:0:0:0:
511,381,122043,2,0,P|527:309|485:250,1,150.000005722046
332,235,122230,2,0,P|279:285|283:358,1,150.000005722046
340,116,122418,6,0,B|342:100|354:83|354:83|242:105,1,150.000005722046
3,221,122605,2,0,B|1:237|-11:254|-11:254|99:232,1,150.000005722046
173,58,122793,6,0,B|186:36|212:27|212:27|172:24|146:-6|146:-6|167:41|163:92|133:128|133:128|125:130|125:130|133:128|133:128|142:160|168:182|199:186|199:186|192:186|192:186|196:220|182:249,1,450.000017166138
74,347,123168,5,0,0:0:0:0:
126,131,123293,1,0,0:0:0:0:
226,325,123418,1,0,0:0:0:0:
85,51,123543,5,0,0:0:0:0:
144,298,123668,1,0,0:0:0:0:
282,86,123793,1,0,0:0:0:0:
12,249,123918,5,0,0:0:0:0:
392,211,124043,1,0,0:0:0:0:
64,32,124168,1,0,0:0:0:0:
482,284,124293,5,0,0:0:0:0:
80,204,124418,1,0,0:0:0:0:
429,0,124543,1,0,0:0:0:0:
0,38,124668,6,0,B|57:57|116:50|168:24|168:24|138:47|93:61|93:61|75:133|112:200,1,400
464,66,124949,6,0,P|309:59|420:166,1,400
208,372,125230,6,0,B|173:347|129:358|129:358|147:347|172:343|172:343|183:266|215:195|215:195|195:183|186:166|186:166|216:193|255:191,1,400
380,374,125511,6,0,B|398:313|377:256|377:256|426:322|502:347|502:347|461:301|465:234,1,400
141,99,125793,6,0,B|115:95|88:80|88:80|113:73|132:53|132:53|112:94|110:140,1,200
351,55,125980,6,0,P|370:136|435:83,1,200
256,0,126168,5,0,0:0:0:0:
256,32,126543,1,0,0:0:0:0:
256,64,126918,5,0,0:0:0:0:
256,128,127199,1,0,0:0:0:0:
256,224,127480,1,0,0:0:0:0:
100,312,127668,6,0,P|123:269|170:258,1,100
220,331,128043,2,0,P|196:373|149:384,1,100
256,224,128418,6,0,P|280:266|325:286,1,100
488,221,128699,2,0,P|439:221|400:250,1,100
399,383,128980,2,0,P|400:359|393:335,1,50
461,14,129168,6,0,P|509:97|470:185,1,200
307,157,129543,2,0,P|300:60|374:0,1,200
82,42,129918,6,0,L|278:76,1,200
94,294,130199,2,0,L|25:106,1,200
307,157,130480,2,0,L|242:233,1,100
431,383,130668,6,0,P|509:214|368:93,1,400
80,383,131043,2,0,P|2:214|143:93,1,400
173,316,131418,6,0,P|162:180|142:315,1,400
0,156,131699,2,0,P|171:73|326:183,1,400
484,0,131980,2,0,P|417:68|325:42,1,200
