osu file format v14

[General]
AudioFilename: audio.mp3
AudioLeadIn: 0
PreviewTime: 4684
Countdown: 1
SampleSet: Normal
StackLeniency: 0.7
Mode: 0
LetterboxInBreaks: 0
WidescreenStoryboard: 1

[Editor]
Bookmarks: 3007
DistanceSpacing: 0.3
BeatDivisor: 4
GridSize: 4
TimelineZoom: 1

[Metadata]
Title:Poudre de Perlimpinpin
TitleUnicode:Poudre de Perlimpinpin
Artist:Emmanuel Macron ft. Marine Le Pen (Khaled Freak Mix)
ArtistUnicode:Emmanuel Macron ft. Marine Le Pen (Khaled Freak Mix)
Creator:Usubiki
Version:finaze's perl1p1p1
Source:
Tags:-Kryu- [ IWeenox ] Jager-kun Blowy Fina Hino [Haku] Kyuukai Pomroz Atsuhito Bakkalo val0108 Ezys5 Ameyy Owens Linada Musty [ SnoWin ] Mooha Mitsuna-
BeatmapID:1289717
BeatmapSetID:610054

[Difficulty]
HPDrainRate:8
CircleSize:5
OverallDifficulty:9
ApproachRate:8
SliderMultiplier:2.1
SliderTickRate:1

[Events]
//Background and Video events
0,0,"Presidentielle-Marine-le-Pen-et-Emmanuel-Macron-les-nouveaux-duellistes-de-la-campagne.jpg",0,0
//Break Periods
2,16361,21941
//Storyboard Layer 0 (Background)
//Storyboard Layer 1 (Fail)
//Storyboard Layer 2 (Pass)
//Storyboard Layer 3 (Foreground)
//Storyboard Sound Samples

[TimingPoints]
449,352.941176470588,4,1,0,100,1,0
5566,-66.6666666666667,4,1,0,100,0,0
5750,352.941176470588,4,1,0,100,1,0
6279,-50,4,1,0,100,0,0
13338,-100,4,1,0,100,0,0
14132,-50,4,1,0,100,0,0
16867,-100,4,1,0,100,0,0
25426,-66.6666666666667,4,1,0,100,0,0
26132,-50,4,1,0,100,0,0

[HitObjects]
112,176,449,6,0,P|204:132|332:108,1,210
408,128,1154,1,0,0:1:0:0:
400,208,1860,2,0,P|308:252|180:276,1,210
104,256,2565,1,0,0:0:0:0:
112,176,3272,6,0,P|204:132|332:108,1,210
408,128,3977,1,0,0:1:0:0:
400,208,4683,2,0,P|308:252|180:276,1,210
104,256,5388,1,0,0:0:0:0:
136,164,5750,5,0,0:0:0:0:
184,124,5926,1,0,0:0:0:0:
240,92,6102,1,0,0:0:0:0:
300,76,6279,1,0,0:0:0:0:
256,192,6455,12,0,6985,0:0:0:0:
376,220,7162,5,0,0:0:0:0:
328,260,7338,1,0,0:0:0:0:
272,292,7514,1,0,0:0:0:0:
212,308,7691,1,0,0:0:0:0:
256,192,7867,12,0,8397,0:0:0:0:
196,128,8573,5,0,0:0:0:0:
116,184,8749,1,0,0:0:0:0:
108,80,8926,1,0,0:0:0:0:
196,128,9102,1,0,0:0:0:0:
256,192,9279,12,0,9809,0:1:0:0:
172,336,9985,6,0,B|172:28|128:56|128:56|184:20|384:36|424:156|384:252|324:264|120:188|112:184|112:184,2,840
324,204,11750,5,0,0:0:0:0:
404,148,11926,1,0,0:0:0:0:
412,252,12103,1,0,0:0:0:0:
48,44,12808,5,0,0:0:0:0:
464,340,12985,1,0,0:0:0:0:
464,44,13161,5,0,0:0:0:0:
48,340,13338,1,0,0:0:0:0:
48,340,13514,2,0,L|156:340,1,105
48,340,13867,2,0,L|156:340,1,105
152,240,14220,5,0,0:0:0:0:
192,208,14397,1,0,0:0:0:0:
232,192,14573,1,0,0:0:0:0:
276,184,14749,1,0,0:0:0:0:
324,168,15632,5,0,0:0:0:0:
276,132,15808,1,0,0:0:0:0:
220,128,15985,1,0,0:0:0:0:
168,156,16161,1,0,0:0:0:0:
256,192,22691,12,0,25161,0:0:0:0:
192,256,25514,5,0,0:0:0:0:
272,136,25691,1,0,0:0:0:0:
204,144,25867,1,0,0:0:0:0:
328,228,26044,1,0,0:0:0:0:
204,248,26926,5,0,0:0:0:0:
256,128,27102,1,0,0:0:0:0:
256,252,27279,1,0,0:0:0:0:
256,128,27455,1,0,0:0:0:0:
300,248,27632,1,0,0:0:0:0:
196,92,28338,5,0,0:0:0:0:
316,152,28514,1,0,0:0:0:0:
196,196,28691,1,0,0:0:0:0:
316,256,28867,1,0,0:0:0:0:
196,320,29044,1,0,0:0:0:0:
164,216,29749,6,0,P|272:180|360:212,3,210
212,228,31161,5,0,0:0:0:0:
204,176,31338,1,0,0:0:0:0:
256,136,31514,1,0,0:0:0:0:
308,176,31691,1,0,0:0:0:0:
300,228,31867,1,0,0:0:0:0:
192,124,32573,5,0,0:0:0:0:
232,172,32749,1,0,0:0:0:0:
276,220,32926,1,0,0:0:0:0:
320,268,33102,1,0,0:0:0:0:
48,44,33985,5,0,0:0:0:0:
464,340,34162,1,0,0:0:0:0:
464,44,34338,5,0,0:0:0:0:
48,340,34515,1,0,0:0:0:0:
