osu file format v14

[General]
AudioFilename: audio.mp3
AudioLeadIn: 0
PreviewTime: 4684
Countdown: 0
SampleSet: Soft
StackLeniency: 0.4
Mode: 0
LetterboxInBreaks: 0
WidescreenStoryboard: 1

[Editor]
DistanceSpacing: 3
BeatDivisor: 4
GridSize: 4
TimelineZoom: 1

[Metadata]
Title:Poudre de Perlimpinpin
TitleUnicode:Poudre de Perlimpinpin
Artist:Emmanuel Macron ft. Marine Le Pen (Khaled Freak Mix)
ArtistUnicode:Emmanuel Macron ft. Marine Le Pen (Khaled Freak Mix)
Creator:Usubiki
Version:SnoWin's poudre de 1212
Source:
Tags:-Kryu- [ IWeenox ] Jager-kun Blowy Fina Hino [Haku] Kyuukai Pomroz Atsuhito Bakkalo val0108 Ezys5 Ameyy Owens Linada Musty [ SnoWin ] Mooha Mitsuna-
BeatmapID:1289107
BeatmapSetID:610054

[Difficulty]
HPDrainRate:7
CircleSize:4.2
OverallDifficulty:8.5
ApproachRate:9.5
SliderMultiplier:2.1
SliderTickRate:1

[Events]
//Background and Video events
0,0,"Presidentielle-Marine-le-Pen-et-Emmanuel-Macron-les-nouveaux-duellistes-de-la-campagne.jpg",0,0
//Break Periods
//Storyboard Layer 0 (Background)
//Storyboard Layer 1 (Fail)
//Storyboard Layer 2 (Pass)
//Storyboard Layer 3 (Foreground)
//Storyboard Sound Samples

[TimingPoints]
449,352.941176470588,4,2,0,40,1,0
5566,-66.6666666666667,4,2,0,40,0,0
5750,352.941176470588,4,2,0,40,1,0
6279,-100,4,2,0,40,0,0
13338,-100,4,2,0,40,0,0
14132,-100,4,2,0,40,0,0
16867,-100,4,2,0,40,0,0
17661,-100,4,2,0,5,0,0
17749,-100,4,2,0,40,0,0
18014,-100,4,2,0,5,0,0
18102,-100,4,2,0,40,0,0
19073,-100,4,2,0,5,0,0
19161,-100,4,2,0,40,0,0
19426,-100,4,2,0,5,0,0
19514,-100,4,2,0,40,0,0
25426,-100,4,2,0,40,0,0
26132,-100,4,2,0,40,0,0

[HitObjects]
112,153,449,5,0,0:0:0:0:
361,86,801,1,0,0:0:0:0:
294,335,1154,1,4,0:0:0:0:
359,85,1860,5,0,0:0:0:0:
296,334,2212,1,0,0:0:0:0:
111,156,2565,1,4,0:0:0:0:
296,334,3272,5,0,0:0:0:0:
111,156,3624,1,0,0:0:0:0:
359,85,3977,1,4,0:0:0:0:
111,156,4684,5,0,0:0:0:0:
359,85,5036,1,0,0:0:0:0:
296,334,5389,1,4,0:0:0:0:
100,64,5750,5,2,0:0:0:0:
384,200,5926,1,0,0:0:0:0:
100,208,6102,5,0,0:0:0:0:
384,348,6279,1,0,0:0:0:0:
144,190,6455,5,0,0:0:0:0:
367,193,6632,1,0,0:0:0:0:
257,80,6808,5,0,0:0:0:0:
254,303,6985,1,4,0:0:0:0:
424,36,7161,5,2,0:0:0:0:
384,348,7338,1,0,0:0:0:0:
208,32,7514,5,0,0:0:0:0:
168,344,7691,1,0,0:0:0:0:
48,152,7867,6,0,L|164:176,1,105
460,236,8220,2,0,L|316:208,1,105,0|4,0:0|0:0,0:0:0:0:
48,88,8573,5,2,0:0:0:0:
364,88,8749,1,0,0:0:0:0:
144,304,8926,5,0,0:0:0:0:
460,304,9102,1,0,0:0:0:0:
144,304,9279,6,0,P|84:292|116:268,1,105
308,60,9632,2,0,P|368:72|336:96,1,105,0|4,0:0|0:0,0:0:0:0:
296,336,9985,5,2,0:0:0:0:
196,40,10161,1,0,0:0:0:0:
172,356,10338,5,0,0:0:0:0:
312,76,10514,1,0,0:0:0:0:
172,356,10691,5,0,0:0:0:0:
196,40,10867,1,0,0:0:0:0:
452,228,11044,5,0,0:0:0:0:
132,288,11220,1,4,0:0:0:0:
288,60,11397,5,2,0:0:0:0:
432,352,11573,1,0,0:0:0:0:
144,200,11749,5,0,0:0:0:0:
464,144,11926,1,0,0:0:0:0:
204,40,12102,6,0,P|256:120|232:148,1,105
56,368,12455,6,0,P|4:288|28:260,1,105,0|4,0:0|0:0,0:0:0:0:
80,52,12808,5,2,0:0:0:0:
296,300,12985,1,0,0:0:0:0:
56,368,13161,5,0,0:0:0:0:
292,140,13338,1,0,0:0:0:0:
80,52,13514,5,0,0:0:0:0:
296,300,13691,1,0,0:0:0:0:
56,368,13867,5,0,0:0:0:0:
292,140,14044,1,4,0:0:0:0:
256,356,14220,5,2,0:0:0:0:
256,28,14397,1,0,0:0:0:0:
256,356,14573,5,0,0:0:0:0:
256,28,14749,1,0,0:0:0:0:
180,344,14926,6,0,P|132:296|112:256,1,105
332,40,15279,2,0,P|380:88|400:128,1,105,0|4,0:0|0:0,0:0:0:0:
400,192,15632,5,2,0:0:0:0:
76,192,15808,1,0,0:0:0:0:
400,192,15985,5,0,0:0:0:0:
76,192,16161,1,0,0:0:0:0:
256,192,16338,12,4,17044,0:0:0:0:
340,56,17397,6,0,P|388:132|336:184,1,157.5
332,180,17749,2,0,P|284:104|336:52,1,157.5
340,56,18102,2,0,P|388:132|336:184,1,157.5
172,248,18808,6,0,P|127:326|57:304,1,157.5
58,299,19160,2,0,P|102:220|172:242,1,157.5
172,248,19513,2,0,P|127:326|57:304,1,157.5
428,296,20220,6,0,L|320:296,1,105
80,92,20573,2,0,L|220:92,1,105
432,292,20926,6,0,L|316:292,1,105
80,92,21279,6,0,L|192:92,2,105
327,292,21985,2,0,L|439:292,2,105
80,48,22691,5,8,0:0:0:0:
200,340,22867,1,8,0:0:0:0:
204,40,23220,5,8,0:0:0:0:
324,332,23396,1,8,0:0:0:0:
324,28,23749,5,8,0:0:0:0:
444,320,23925,1,8,0:0:0:0:
256,44,25514,5,2,0:0:0:0:
256,360,25691,1,0,0:0:0:0:
96,160,25867,5,2,0:0:0:0:
412,160,26044,1,0,0:0:0:0:
56,344,26220,6,0,L|56:288,1,52.5
452,36,26573,2,4,L|452:108,1,52.5,0|4,0:0|0:0,0:0:0:0:
85,48,26926,5,2,0:0:0:0:
399,21,27102,1,0,0:0:0:0:
426,335,27279,5,2,0:0:0:0:
112,362,27455,1,0,0:0:0:0:
399,21,27632,6,0,L|400:100,1,52.5
112,362,27985,2,0,L|112:264,1,52.5
134,378,28338,5,2,0:0:0:0:
69,70,28514,1,0,0:0:0:0:
442,313,28691,5,2,0:0:0:0:
377,5,28867,1,0,0:0:0:0:
134,378,29044,6,0,L|104:328,1,52.5
377,5,29397,2,0,L|435:76,1,52.5
377,5,29749,5,2,0:0:0:0:
442,313,29925,1,0,0:0:0:0:
69,70,30102,5,2,0:0:0:0:
134,378,30278,1,0,0:0:0:0:
377,5,30455,6,0,L|408:56,1,52.5
134,379,30808,2,0,L|76:307,1,52.5
100,88,31161,5,2,0:0:0:0:
416,88,31338,1,0,0:0:0:0:
100,280,31514,5,2,0:0:0:0:
416,280,31691,1,0,0:0:0:0:
256,380,31867,6,0,L|256:312,1,52.5
256,0,32220,2,0,L|256:76,1,52.5
256,128,32573,5,10,0:0:0:0:
256,252,32749,1,8,0:0:0:0:
184,192,32926,5,10,0:0:0:0:
328,192,33102,1,8,0:0:0:0:
0,0,33279,5,12,0:0:0:0:
512,384,33455,1,12,0:0:0:0:
512,0,33632,5,12,0:0:0:0:
0,384,33808,1,12,0:0:0:0:
256,192,33985,12,4,35372,0:0:0:0:
