osu file format v14

[General]
AudioFilename: audio.mp3
AudioLeadIn: 0
PreviewTime: 4684
Countdown: 1
SampleSet: Soft
StackLeniency: 0.4
Mode: 0
LetterboxInBreaks: 0
WidescreenStoryboard: 1

[Editor]
DistanceSpacing: 1.1
BeatDivisor: 4
GridSize: 16
TimelineZoom: 2

[Metadata]
Title:Poudre de Perlimpinpin
TitleUnicode:Poudre de Perlimpinpin
Artist:Emmanuel Macron ft. Marine Le Pen (Khaled Freak Mix)
ArtistUnicode:Emmanuel Macron ft. Marine Le Pen (Khaled Freak Mix)
Creator:Usubiki
Version:Musty's Le Pen
Source:
Tags:-Kryu- [ IWeenox ] Jager-kun Blowy Fina Hino [Haku] Kyuukai Pomroz Atsuhito Bakkalo val0108 Ezys5 Ameyy Owens Linada Musty [ SnoWin ] Mooha Mitsuna-
BeatmapID:1289755
BeatmapSetID:610054

[Difficulty]
HPDrainRate:4
CircleSize:5.2
OverallDifficulty:8
ApproachRate:9.2
SliderMultiplier:1.6
SliderTickRate:1

[Events]
//Background and Video events
0,0,"le pen.jpg",0,0
//Break Periods
//Storyboard Layer 0 (Background)
//Storyboard Layer 1 (Fail)
//Storyboard Layer 2 (Pass)
//Storyboard Layer 3 (Foreground)
//Storyboard Sound Samples

[TimingPoints]
449,352.941176470588,4,2,1,30,1,0
5750,352.941176470588,4,2,70,30,1,0
5926,-100,4,2,1,50,0,0
17044,-100,4,2,72,50,0,0
17397,-100,4,2,1,30,0,0
22691,-100,4,2,69,70,0,0
24455,-100,4,2,1,30,0,0
25161,-100,4,2,1,5,0,0
25514,-100,4,2,70,30,0,0
25602,-100,4,2,1,50,0,0
28338,-66.6666666666667,4,2,1,50,0,0
28691,-100,4,2,1,50,0,0
35044,-100,4,2,71,100,0,0

[Colours]
Combo1 : 255,230,151
Combo2 : 170,213,255
Combo3 : 255,193,255
Combo4 : 224,193,255

[HitObjects]
108,258,449,6,0,L|89:262,1,20,2|0,0:0|0:0,0:0:0:0:
449,335,801,2,0,L|430:339,1,20,2|0,0:0|0:0,0:0:0:0:
134,145,1154,2,0,L|115:149,1,20,2|0,0:0|0:0,0:0:0:0:
134,145,1860,6,0,L|115:149,1,20,2|0,0:0|0:0,0:0:0:0:
449,335,2212,2,0,L|430:339,1,20,2|0,0:0|0:0,0:0:0:0:
180,50,2566,2,0,L|161:54,1,20,2|0,0:0|0:0,0:0:0:0:
461,353,2919,6,0,B|471:321|469:283|469:283|458:320|460:354,1,140,2|0,0:0|0:0,0:0:0:0:
466,218,3272,6,0,L|445:220,1,20,2|0,0:0|0:0,0:0:0:0:
239,208,3625,2,0,L|260:210,1,20,2|0,0:0|0:0,0:0:0:0:
461,353,3978,2,0,L|440:355,1,20,2|0,0:0|0:0,0:0:0:0:
60,360,4684,6,0,L|81:362,1,20,2|0,0:0|0:0,0:0:0:0:
273,208,5037,2,0,L|252:210,1,20,2|0,0:0|0:0,0:0:0:0:
60,360,5390,2,0,L|81:362,1,20,2|0,0:0|0:0,0:0:0:0:
391,151,5750,6,0,L|386:58,1,80,4|0,0:0|0:0,0:0:0:0:
207,357,6102,1,0,0:0:0:0:
512,73,6279,1,0,0:0:0:0:
165,42,6455,2,0,P|105:36|58:52,1,80,10|0,0:0|0:0,0:0:0:0:
434,313,6808,2,0,P|494:319|541:303,1,80,2|0,0:0|0:0,0:0:0:0:
101,342,7161,5,0,1:0:0:0:
319,211,7338,1,2,0:0:0:0:
58,59,7514,2,0,L|52:108,1,40,0|0,1:0|0:0,0:0:0:0:
156,195,7691,2,0,L|162:244,1,40,2|0,0:0|0:0,0:0:0:0:
272,357,7867,2,0,L|169:349,1,80,8|0,0:0|0:0,0:0:0:0:
356,24,8220,2,0,L|459:32,1,80,2|0,1:2|0:0,0:0:0:0:
14,319,8573,6,0,L|5:215,1,80,4|0,1:0|0:0,0:0:0:0:
512,281,8926,2,0,L|505:360,1,80,2|0,0:0|0:0,0:0:0:0:
64,92,9279,1,8,0:0:0:0:
281,343,9455,1,0,0:0:0:0:
422,23,9632,2,0,P|365:49|349:69,1,80,2|0,0:0|0:0,0:0:0:0:
362,357,9985,6,0,L|510:353,1,120,0|0,1:0|0:0,0:0:0:0:
196,355,10338,6,0,L|144:350,1,40,2|0,1:2|0:0,0:0:0:0:
369,239,10514,2,0,L|317:234,1,40,2|0,0:2|0:0,0:0:0:0:
512,114,10691,2,0,L|426:105,1,80,10|0,1:2|1:0,0:0:0:0:
111,132,11044,2,0,B|195:112|185:176|269:157,1,160,2|0,0:0|1:0,0:0:0:0:
41,154,11485,1,0,0:0:0:0:
29,135,11573,2,0,P|21:92|25:71,1,40,2|0,0:0|0:0,0:0:0:0:
161,239,11749,2,0,P|159:259|153:278,1,40,2|0,0:0|0:0,0:0:0:0:
48,101,11926,2,0,P|40:58|44:37,1,40,2|0,0:0|0:0,0:0:0:0:
127,57,12102,5,8,0:0:0:0:
13,368,12279,1,0,0:0:0:0:
345,343,12455,2,0,L|185:335,1,160,2|0,0:0|1:0,0:0:0:0:
391,272,12897,1,0,0:0:0:0:
409,288,12985,2,0,L|476:293,1,40,2|0,0:0|0:0,0:0:0:0:
492,161,13161,2,0,L|446:158,1,40,2|0,1:2|0:0,0:0:0:0:
440,363,13338,2,0,L|507:368,1,40,2|0,0:0|0:0,0:0:0:0:
371,143,13514,5,8,0:0:0:0:
87,298,13691,1,0,0:0:0:0:
468,289,13867,2,0,P|481:339|477:382,1,80,2|0,1:2|0:0,0:0:0:0:
260,25,14220,2,0,L|387:38,1,120,4|0,1:0|0:0,0:0:0:0:
180,54,14573,5,2,0:0:0:0:
266,347,14749,1,0,0:0:0:0:
260,25,14926,1,8,0:0:0:0:
179,375,15102,1,0,0:0:0:0:
94,31,15279,2,0,P|63:84|91:153,1,120,2|0,0:0|0:0,0:0:0:0:
132,92,15632,5,0,1:0:0:0:
398,332,15808,1,0,0:0:0:0:
380,92,15985,5,0,1:0:0:0:
114,332,16161,1,0,0:0:0:0:
16,77,16338,2,0,L|36:-2,1,80,2|0,1:2|0:0,0:0:0:0:
493,303,16691,2,0,L|512:380,1,80,2|0,0:2|0:0,0:0:0:0:
0,384,17044,6,0,B|256:240|512:384|512:384|176:368|16:256|16:256|96:-32|512:3|512:3|448:256|112:224|112:224|160:96|384:80,1,2480,2|0,0:0|0:0,0:0:0:0:
512,89,22691,6,0,B|96:169|96:169|485:246,1,800
480,272,24455,6,0,L|400:256,1,80
244,227,24808,2,0,L|420:259,1,160,2|0,0:0|0:0,0:0:0:0:
244,227,25338,5,0,0:0:0:0:
385,42,25514,6,0,B|420:22|420:22|454:43,1,80,6|0,0:0|0:0,0:0:0:0:
256,342,25867,1,0,0:0:0:0:
190,183,25955,1,0,0:0:0:0:
126,42,26044,1,0,0:0:0:0:
484,282,26220,5,8,0:0:0:0:
28,282,26397,1,2,0:0:0:0:
437,340,26573,5,8,0:0:0:0:
72,340,26750,1,2,0:0:0:0:
451,122,26926,5,0,1:0:0:0:
7,328,27102,1,0,0:0:0:0:
302,272,27279,2,0,L|258:290,1,40,0|0,1:0|0:0,0:0:0:0:
256,32,27455,1,0,1:0:0:0:
183,309,27632,5,8,0:0:0:0:
329,75,27808,1,2,0:0:0:0:
375,383,27985,5,8,0:0:0:0:
136,0,28161,1,2,0:0:0:0:
80,304,28338,6,0,P|32:352|48:288,1,180.000006866455,4|0,0:0|0:0,0:0:0:0:
250,359,28691,2,0,L|329:353,1,80,2|0,0:0|0:0,0:0:0:0:
11,105,29044,6,0,L|21:45,1,40,8|0,0:0|0:0,0:0:0:0:
46,231,29220,1,0,0:0:0:0:
453,257,29397,6,0,L|443:197,1,40,8|0,0:0|0:0,0:0:0:0:
390,111,29573,1,0,0:0:0:0:
51,322,29749,5,0,1:0:0:0:
375,274,29926,1,0,0:0:0:0:
36,187,30102,2,0,B|47:155|47:155|90:139,1,80,0|0,1:0|0:0,0:0:0:0:
45,321,30455,6,0,L|92:326,1,40,8|0,0:0|0:0,0:0:0:0:
276,346,30632,1,0,0:0:0:0:
415,36,30808,6,0,L|368:41,1,40,8|0,0:0|0:0,0:0:0:0:
166,71,30985,1,0,0:0:0:0:
427,349,31161,6,0,L|416:262,1,80,4|0,0:0|0:0,0:0:0:0:
404,181,31426,1,0,0:0:0:0:
393,100,31514,1,2,0:0:0:0:
39,258,31691,1,0,0:0:0:0:
185,9,31867,2,0,L|248:-5,1,40,8|0,0:0|0:0,0:0:0:0:
263,361,32044,1,0,0:0:0:0:
409,32,32220,6,0,L|346:18,1,40,8|0,0:0|0:0,0:0:0:0:
98,333,32397,1,0,0:0:0:0:
80,60,32573,6,0,P|118:67|143:67,1,40,4|0,1:0|0:0,0:0:0:0:
329,283,32749,1,0,0:0:0:0:
439,134,32926,2,0,P|401:127|376:127,1,40,4|0,1:0|0:0,0:0:0:0:
144,249,33102,1,0,0:0:0:0:
47,50,33279,5,8,0:0:0:0:
83,321,33455,1,0,0:0:0:0:
429,321,33632,1,8,0:0:0:0:
465,50,33808,1,0,0:0:0:0:
20,353,33985,6,0,L|13:305,1,40,2|0,0:0|0:0,0:0:0:0:
280,200,34161,2,0,P|286:243|275:291,1,80,2|0,0:0|0:0,0:0:0:0:
60,41,34514,1,0,0:0:0:0:
474,356,34691,1,8,0:0:0:0:
14,313,34867,1,0,0:0:0:0:
511,2,35044,5,4,0:0:0:0:
