osu file format v14

[General]
AudioFilename: audio.mp3
AudioLeadIn: 0
PreviewTime: 4684
Countdown: 1
SampleSet: Normal
StackLeniency: 0.7
Mode: 0
LetterboxInBreaks: 0
WidescreenStoryboard: 1

[Editor]
DistanceSpacing: 2.5
BeatDivisor: 4
GridSize: 4
TimelineZoom: 1.8

[Metadata]
Title:Poudre de Perlimpinpin
TitleUnicode:Poudre de Perlimpinpin
Artist:Emmanuel Macron ft. Marine Le Pen (Khaled Freak Mix)
ArtistUnicode:Emmanuel Macron ft. Marine Le Pen (Khaled Freak Mix)
Creator:Usubiki
Version:Kryu's candidature
Source:
Tags:-Kryu- [ IWeenox ] Jager-kun Blowy Fina Hino [Haku] Kyuukai Pomroz Atsuhito Bakkalo val0108 Ezys5 Ameyy Owens Linada Musty [ SnoWin ] Mooha Mitsuna-
BeatmapID:1289704
BeatmapSetID:610054

[Difficulty]
HPDrainRate:5
CircleSize:3
OverallDifficulty:6
ApproachRate:9
SliderMultiplier:1.3
SliderTickRate:1

[Events]
//Background and Video events
0,0,"Presidentielle-Marine-le-Pen-et-Emmanuel-Macron-les-nouveaux-duellistes-de-la-campagne.jpg",0,0
//Break Periods
//Storyboard Layer 0 (Background)
//Storyboard Layer 1 (Fail)
//Storyboard Layer 2 (Pass)
//Storyboard Layer 3 (Foreground)
//Storyboard Sound Samples

[TimingPoints]
449,352.941176470588,4,1,0,50,1,0
1154,1411.76470588235,4,1,0,50,1,0
2212,352.941176470588,4,1,0,50,1,0
3976,1411.76470588235,4,1,0,50,1,0
5034,352.941176470588,4,1,0,50,1,0
5134,-133.333333333333,4,1,0,50,0,0
26210,58.8235294117647,4,1,0,50,1,0
26210,-66.6666666666667,4,1,0,50,0,0
26915,352.941176470588,4,1,0,50,1,0
29032,58.8235294117647,4,1,0,50,1,0
29032,-66.6666666666667,4,1,0,50,0,0
29737,352.941176470588,4,1,0,50,1,0
30442,58.8235294117647,4,1,0,50,1,0
30442,-66.6666666666667,4,1,0,50,0,0
31147,352.941176470588,4,1,0,50,1,0
31859,58.8235294117647,4,1,0,50,1,0
31859,-66.6666666666667,4,1,0,50,0,0
32564,352.941176470588,4,1,0,50,1,0
33269,58.8235294117647,4,1,0,50,1,0
33269,-66.6666666666667,4,1,0,50,0,0
33974,352.941176470588,4,1,0,50,1,0

[HitObjects]
300,104,449,6,0,B|328:136|352:176|352:176|308:168,1,130
192,120,1154,2,0,B|156:132|156:132|140:168,1,64.9999999999999
152,252,2212,2,0,B|200:292|232:296|232:296|220:256,1,130
188,144,2917,1,0,0:0:0:0:
256,68,3270,2,0,B|276:32|276:32|288:60|296:124,1,130
320,212,3976,2,0,B|312:256|312:256|268:240,1,64.9999999999999
184,232,5034,6,0,B|116:204|116:204|160:192|192:180,1,130
256,140,5563,1,0,0:0:0:0:
336,224,5739,2,0,L|372:228,1,24.3750009298325
348,272,5916,2,0,P|304:272|280:264,1,48.750001859665
152,188,6269,2,0,P|180:160|200:148,1,48.750001859665
328,88,6622,1,0,0:0:0:0:
188,108,6798,2,0,P|168:156|168:168,1,48.750001859665
192,264,7151,6,0,L|164:272,1,24.3750009298325
200,308,7328,2,0,P|244:304|268:296,1,48.750001859665
376,220,7681,1,0,0:0:0:0:
344,116,7857,2,0,P|288:88|284:88,1,48.750001859665
136,104,8210,2,0,P|164:136|188:148,1,48.750001859665
256,188,8563,2,0,L|288:192,1,24.3750009298325
276,232,8739,2,0,P|220:228|208:224,1,48.750001859665
100,168,9092,2,0,P|148:144|164:140,1,48.750001859665
284,120,9445,2,0,L|348:112,2,48.750001859665
152,156,9975,6,0,L|116:156,1,24.3750009298325
128,196,10151,2,0,L|192:220,1,48.750001859665
308,248,10504,1,0,0:0:0:0:
436,232,10681,2,0,P|416:200|396:184,1,48.750001859665
296,144,11033,2,0,P|252:156|232:172,1,48.750001859665
160,216,11386,6,0,L|120:228,1,24.3750009298325
164,264,11563,2,0,L|224:244,1,48.750001859665
332,112,11916,2,0,L|272:144,1,48.750001859665
164,208,12269,1,0,0:0:0:0:
232,296,12445,2,0,P|264:288|288:276,1,48.750001859665
372,240,12798,6,0,L|400:224,1,24.3750009298325
368,192,12975,2,0,P|308:200|300:200,1,48.750001859665
176,172,13328,1,0,0:0:0:0:
68,108,13504,2,0,P|128:80|132:80,1,48.750001859665
308,96,13857,2,0,P|324:120|328:144,1,48.750001859665
300,228,14210,6,0,L|320:252,1,24.3750009298325
284,276,14386,2,0,P|244:236|240:228,1,48.750001859665
152,96,14739,2,0,L|112:48,2,48.750001859665
160,208,15269,2,0,P|188:228|212:236,1,48.750001859665
312,180,15622,6,0,L|340:168,1,24.3750009298325
336,136,15798,2,0,P|284:136|268:136,1,48.750001859665
172,188,16151,2,0,P|224:188|240:184,1,48.750001859665
336,240,16504,2,0,P|284:240|272:236,1,48.750001859665
168,308,16857,1,0,0:0:0:0:
336,340,17033,1,0,0:0:0:0:
328,160,17386,6,0,P|364:144|420:112,2,97.5000037193299
160,244,18798,2,0,P|120:260|64:300,2,97.5000037193299
180,128,20210,2,0,P|132:100|100:64,2,97.5000037193299
312,244,21622,2,0,P|364:272|408:304,2,97.5000037193299
256,192,22328,12,0,24092,0:0:0:0:
236,128,25504,6,0,L|204:140,1,24.3750009298325
224,176,25681,2,0,L|288:168,1,48.7500018596649
380,152,26033,1,0,0:0:0:0:
380,272,26210,6,0,B|296:336|296:336|300:276|300:276|236:272|236:272|324:196,1,341.250013017655
124,124,26562,6,0,B|208:60|208:60|204:120|204:120|268:124|268:124|180:200,1,341.250013017655
240,200,26915,2,0,L|208:224,1,32.5
260,256,27091,2,0,L|316:216,1,64.9999999999999
392,136,27444,1,0,0:0:0:0:
436,240,27620,2,0,P|404:276|372:288,1,64.9999999999999
236,288,27973,2,0,P|256:248|288:232,1,64.9999999999999
332,168,28326,6,0,L|356:144,1,32.5
328,120,28503,2,0,P|284:132|240:148,1,64.9999999999999
144,200,28856,1,0,0:0:0:0:
200,304,29032,2,0,B|248:320|248:320|204:288|204:288|248:296|248:296|212:264|212:264|260:284|260:284|212:252|212:252|260:268|260:268,1,341.250013017655
344,100,29384,2,0,B|296:84|296:84|340:116|340:116|296:108|296:108|332:140|332:140|284:120|284:120|332:152|332:152|284:136|284:136,1,341.250013017655
204,180,29737,6,0,L|168:200,1,32.5
208,232,29913,2,0,P|248:224|276:212,1,64.9999999999999
392,136,30266,1,0,0:0:0:0:
272,60,30442,2,0,B|320:60|272:84|272:84|256:64|264:48|284:52|308:76|296:92|260:104|232:84|236:56|256:48|276:40|288:48|288:64|280:88|244:84|236:52|256:32|284:36|300:48|304:56|300:76|272:96|240:80|232:56|256:40|272:40|292:48|304:52|304:72|296:88|268:96|236:72|236:72|248:24|276:24|288:36|288:36|288:72|264:84|260:84,1,390.00001487732
232,292,30794,2,0,B|184:292|232:268|232:268|248:288|240:304|220:300|196:276|208:260|244:248|272:268|268:296|248:304|228:312|216:304|216:288|224:264|260:268|268:300|248:320|220:316|204:304|200:296|204:276|232:256|264:272|272:296|248:312|232:312|212:304|200:300|200:280|208:264|236:256|268:280|268:280|256:328|228:328|216:316|216:316|216:280|240:268|244:268,1,390.00001487732
320,248,31147,6,0,L|380:236,1,32.5
344,208,31323,2,0,P|288:196|264:200,1,65
136,168,31676,1,0,0:0:0:0:
208,72,31859,2,0,B|248:32|248:32|288:64|288:64|256:104|256:104|212:76|212:76|244:36|244:36|288:68|288:68|252:108|252:108|212:80,1,390.000014877319
288,280,32211,2,0,B|248:320|248:320|208:288|208:288|240:248|240:248|284:276|284:276|252:316|252:316|208:284|208:284|244:244|244:244|284:272,1,390.000014877319
188,248,32564,6,0,L|152:244,1,32.5
148,212,32740,2,0,P|196:184|220:180,1,65
316,112,33093,1,0,0:0:0:0:
276,296,33269,2,0,B|376:184|376:184|352:340|352:340|360:296|360:296|312:268,1,390.000014877319
220,108,33621,2,0,B|144:188|144:188|180:152|180:152|124:100|124:100|80:140|80:140|152:64,1,390.000014877319
296,180,33974,6,0,L|324:196,1,32.5
328,232,34150,2,0,P|292:244|248:244,1,64.9999999999999
164,192,34503,2,0,P|216:192|244:184,1,64.9999999999999
316,88,34856,2,0,P|276:112|236:120,1,64.9999999999999
120,92,35209,1,0,0:0:0:0:
236,16,35385,1,0,0:0:0:0:
