osu file format v14

[General]
AudioFilename: audio.mp3
AudioLeadIn: 0
PreviewTime: 4684
Countdown: 0
SampleSet: Soft
StackLeniency: 0.4
Mode: 0
LetterboxInBreaks: 0
WidescreenStoryboard: 1

[Editor]
DistanceSpacing: 0.7
BeatDivisor: 4
GridSize: 8
TimelineZoom: 1

[Metadata]
Title:Poudre de Perlimpinpin
TitleUnicode:Poudre de Perlimpinpin
Artist:Emmanuel Macron ft. Marine Le Pen (Khaled Freak Mix)
ArtistUnicode:Emmanuel Macron ft. Marine Le Pen (Khaled Freak Mix)
Creator:Usubiki
Version:Hino's saut de cabri
Source:
Tags:-Kryu- [ IWeenox ] Jager-kun Blowy Fina Hino [Haku] Kyuukai Pomroz Atsuhito Bakkalo val0108 Ezys5 Ameyy Owens Linada Musty [ SnoWin ] Mooha Mitsuna-
BeatmapID:1289605
BeatmapSetID:610054

[Difficulty]
HPDrainRate:5
CircleSize:4.2
OverallDifficulty:8
ApproachRate:5
SliderMultiplier:2.1
SliderTickRate:1

[Events]
//Background and Video events
0,0,"Presidentielle-Marine-le-Pen-et-Emmanuel-Macron-les-nouveaux-duellistes-de-la-campagne.jpg",0,0
//Break Periods
//Storyboard Layer 0 (Background)
//Storyboard Layer 1 (Fail)
//Storyboard Layer 2 (Pass)
//Storyboard Layer 3 (Foreground)
//Storyboard Sound Samples

[TimingPoints]
449,352.941176470588,4,2,0,40,1,0
17037,-133.333333333333,4,2,0,100,0,0
26213,-33.3333333333333,4,1,0,40,0,0
26743,-33.3333333333333,4,2,0,100,0,0
27625,-33.3333333333333,4,2,0,40,0,0
28154,-33.3333333333333,4,2,0,100,0,0
29037,-33.3333333333333,4,1,0,90,0,0
29566,-33.3333333333333,4,2,0,100,0,0
30448,-33.3333333333333,4,3,0,40,0,0
30978,-33.3333333333333,4,2,0,100,0,0
31860,-33.3333333333333,4,2,0,100,0,0
32390,-33.3333333333333,4,2,0,100,0,0
33272,-33.3333333333333,4,3,0,100,0,0
33801,-33.3333333333333,4,2,0,100,0,0

[HitObjects]
256,192,5750,5,0,0:0:0:0:
256,192,5926,1,0,0:0:0:0:
336,124,6102,2,0,L|240:204,1,105
336,124,6455,1,0,0:0:0:0:
256,80,6808,1,0,0:0:0:0:
256,192,7161,6,0,P|240:256|272:272,1,105
264,271,7514,1,0,0:0:0:0:
264,271,7684,2,0,P|231:234|256:192,1,105
264,271,8220,1,0,0:0:0:0:
256,192,8573,6,0,P|352:128|352:128,1,105
168,133,8926,2,0,B|160:128|256:192,1,105
256,192,9279,1,0,0:0:0:0:
168,133,9632,1,0,0:0:0:0:
256,192,9985,6,0,L|256:304,1,105
256,297,10338,1,0,0:0:0:0:
256,360,10514,1,0,0:0:0:0:
256,360,10691,1,0,0:0:0:0:
256,297,10867,1,0,0:0:0:0:
256,360,11044,1,0,0:0:0:0:
256,192,11390,6,0,L|256:80,1,105
256,87,11743,6,0,L|256:192,1,105
256,87,12102,1,0,0:0:0:0:
368,88,12455,1,0,0:0:0:0:
256,192,12808,5,0,0:0:0:0:
312,240,12985,1,0,0:0:0:0:
320,168,13161,1,0,0:0:0:0:
376,208,13338,1,0,0:0:0:0:
320,168,13514,1,0,0:0:0:0:
312,240,13867,1,0,0:0:0:0:
256,192,14213,6,0,L|136:192,1,105
151,192,14566,1,0,0:0:0:0:
151,192,14743,2,0,B|40:192|40:192|32:192,1,105
256,192,15272,1,0,0:0:0:0:
256,192,15625,6,0,L|256:80,1,105
256,192,15978,2,0,L|360:192,1,105
256,87,16331,2,0,L|256:191,1,105
256,87,16684,1,0,0:0:0:0:
256,192,17390,5,0,0:0:0:0:
256,192,17743,2,0,L|416:192,1,157.500006008148
256,192,18801,2,0,L|416:192,1,157.500006008148
256,192,19507,1,0,0:0:0:0:
256,192,19860,1,0,0:0:0:0:
416,192,20213,1,0,0:0:0:0:
416,192,20566,1,0,0:0:0:0:
416,192,20919,2,0,L|256:192,1,157.500006008148
258,192,21625,1,0,0:0:0:0:
258,192,21978,2,0,L|96:192,1,157.500006008148
256,192,22684,12,0,24096,0:0:0:0:
224,216,25507,5,0,0:0:0:0:
288,168,25684,1,0,0:0:0:0:
320,264,25860,1,0,0:0:0:0:
192,120,26037,1,0,0:0:0:0:
256,192,26213,6,8,P|192:64|320:0,1,315.000012016297
256,192,26566,2,8,P|320:320|192:384,1,315.000012016297
256,192,26919,1,0,0:0:0:0:
192,384,27096,1,0,0:0:0:0:
192,384,27272,1,0,0:0:0:0:
256,192,27448,1,0,0:0:0:0:
256,192,27625,6,8,B|240:288|240:288|168:200|168:200|136:344,1,315.000012016297
256,192,27978,2,8,B|272:96|272:96|344:184|344:184|376:40,1,315.000012016297
144,304,28331,5,0,0:0:0:0:
368,80,28507,1,0,0:0:0:0:
144,304,28684,1,0,0:0:0:0:
256,192,28860,1,0,0:0:0:0:
256,192,29037,6,4,L|512:384,1,315.000012016297
256,192,29390,2,4,L|0:0,1,315.000012016297
256,192,29743,5,0,0:0:0:0:
256,192,29919,1,0,0:0:0:0:
512,384,30096,1,0,0:0:0:0:
256,192,30272,1,0,0:0:0:0:
256,192,30448,6,8,P|256:80|287:182,1,315.000012016297
256,192,30801,2,8,P|256:304|224:201,1,315.000012016297
240,80,31154,5,0,0:0:0:0:
272,304,31331,1,0,0:0:0:0:
272,80,31507,1,0,0:0:0:0:
240,304,31684,1,0,0:2:0:0:
256,192,31860,6,4,B|384:96|384:96|512:192|512:192,1,315.000012016297
256,192,32213,2,4,B|128:288|128:288|0:192|0:192,1,315.000012016297
256,192,32566,5,0,0:0:0:0:
512,192,32743,1,0,0:0:0:0:
8,200,32919,1,0,0:0:0:0:
256,192,33096,1,0,0:0:0:0:
256,192,33272,6,2,B|390:253|358:-10|512:64,1,315.000012016297
256,192,33625,2,2,B|121:130|153:394|0:319,1,315.000012016297
136,256,33978,5,0,0:0:0:0:
192,72,34154,1,0,0:0:0:0:
376,128,34331,1,0,0:0:0:0:
320,312,34507,1,0,0:0:0:0:
