osu file format v14

[General]
AudioFilename: audio.mp3
AudioLeadIn: 0
PreviewTime: 4684
Countdown: 1
SampleSet: Normal
StackLeniency: 0.7
Mode: 0
LetterboxInBreaks: 0
WidescreenStoryboard: 1

[Editor]
DistanceSpacing: 2.5
BeatDivisor: 4
GridSize: 4
TimelineZoom: 1

[Metadata]
Title:Poudre de Perlimpinpin
TitleUnicode:Poudre de Perlimpinpin
Artist:Emmanuel Macron ft. Marine Le Pen (Khaled Freak Mix)
ArtistUnicode:Emmanuel Macron ft. Marine Le Pen (Khaled Freak Mix)
Creator:Usubiki
Version:Haku's pas trop dur
Source:
Tags:-Kryu- [ IWeenox ] Jager-kun Blowy Fina Hino [Haku] Kyuukai Pomroz Atsuhito Bakkalo val0108 Ezys5 Ameyy Owens Linada Musty [ SnoWin ] Mooha Mitsuna-
BeatmapID:1288858
BeatmapSetID:610054

[Difficulty]
HPDrainRate:6
CircleSize:4
OverallDifficulty:6
ApproachRate:9
SliderMultiplier:2.09999990463257
SliderTickRate:1

[Events]
//Background and Video events
0,0,"Presidentielle-Marine-le-Pen-et-Emmanuel-Macron-les-nouveaux-duellistes-de-la-campagne.jpg",0,0
//Break Periods
2,16884,24907
//Storyboard Layer 0 (Background)
//Storyboard Layer 1 (Fail)
//Storyboard Layer 2 (Pass)
//Storyboard Layer 3 (Foreground)
//Storyboard Sound Samples

[TimingPoints]
449,352.941176470588,4,1,0,50,1,0
33978,-50,4,1,0,50,0,0

[HitObjects]
56,168,5743,5,0,0:0:0:0:
140,104,5919,1,0,0:0:0:0:
244,92,6096,1,0,0:0:0:0:
344,120,6272,1,0,0:0:0:0:
408,200,6448,2,0,P|444:312|372:336,1,209.999990463257
456,168,7154,5,0,0:0:0:0:
372,104,7330,1,0,0:0:0:0:
268,92,7507,1,0,0:0:0:0:
168,120,7683,1,0,0:0:0:0:
104,200,7859,2,0,P|68:312|140:336,1,209.999990463257
456,216,8566,5,0,0:0:0:0:
372,280,8742,1,0,0:0:0:0:
268,292,8919,1,0,0:0:0:0:
168,264,9095,1,0,0:0:0:0:
103,183,9271,2,0,P|53:102|130:46,1,209.999990463257
56,216,9978,5,0,0:0:0:0:
140,280,10154,1,0,0:0:0:0:
244,292,10331,1,0,0:0:0:0:
344,264,10507,1,0,0:0:0:0:
408,183,10683,2,0,P|458:102|381:46,1,209.999990463257
72,164,11390,6,0,L|140:76,3,104.999995231628
184,172,12096,1,0,0:0:0:0:
184,172,12448,1,0,0:0:0:0:
440,220,12801,6,0,L|375:303,3,104.999995231628
328,212,13507,1,0,0:0:0:0:
328,212,13859,1,0,0:0:0:0:
200,280,14213,6,0,B|84:320|84:320|128:208|128:208,2,209.999990463257
256,192,15272,1,0,0:0:0:0:
312,104,15625,6,0,B|428:64|428:64|384:176|384:176,2,209.999990463257
256,192,16684,1,0,0:0:0:0:
100,264,25507,5,0,0:0:0:0:
188,72,25684,1,0,0:0:0:0:
324,232,25860,2,0,L|224:300,1,104.999995231628
100,172,26213,2,0,L|40:92,1,52.4999976158142
188,136,26566,2,0,L|128:56,1,52.4999976158142
420,292,26919,5,0,0:0:0:0:
104,292,27096,1,0,0:0:0:0:
256,16,27272,1,0,0:0:0:0:
260,332,27448,1,0,0:0:0:0:
256,192,27625,1,0,0:0:0:0:
256,192,27978,1,0,0:0:0:0:
412,120,28331,5,0,0:0:0:0:
324,312,28508,1,0,0:0:0:0:
188,152,28684,2,0,L|274:92,1,104.999995231628
504,216,29037,2,0,L|418:276,1,104.999995231628
156,272,29390,2,0,L|70:212,1,104.999995231628
92,92,29743,5,0,0:0:0:0:
408,92,29920,1,0,0:0:0:0:
256,368,30096,1,0,0:0:0:0:
252,52,30272,1,0,0:0:0:0:
256,192,30449,1,0,0:0:0:0:
256,192,30802,1,0,0:0:0:0:
304,312,31154,5,0,0:0:0:0:
468,44,31331,1,0,0:0:0:0:
236,260,31507,1,0,0:0:0:0:
508,104,31684,1,0,0:0:0:0:
352,104,31860,2,0,L|196:104,1,104.999995231628
316,224,32213,2,0,L|160:224,1,104.999995231628
208,312,32566,5,0,0:0:0:0:
44,44,32743,1,0,0:0:0:0:
276,260,32919,1,0,0:0:0:0:
4,104,33096,1,0,0:0:0:0:
160,104,33272,2,0,L|316:104,1,104.999995231628
196,224,33625,2,0,L|352:224,1,104.999995231628
180,320,33978,6,0,B|84:208|56:104,1,209.999990463257
332,320,34331,6,0,B|428:208|456:104,1,209.999990463257
256,192,34684,1,0,0:0:0:0:
256,192,35037,1,0,0:0:0:0:
