osu file format v14

[General]
AudioFilename: audio.mp3
AudioLeadIn: 0
PreviewTime: 4684
Countdown: 1
SampleSet: Normal
StackLeniency: 0.7
Mode: 0
LetterboxInBreaks: 0
WidescreenStoryboard: 1

[Editor]
DistanceSpacing: 2
BeatDivisor: 4
GridSize: 4
TimelineZoom: 1

[Metadata]
Title:Poudre de Perlimpinpin
TitleUnicode:Poudre de Perlimpinpin
Artist:Emmanuel Macron ft. Marine Le Pen (Khaled Freak Mix)
ArtistUnicode:Emmanuel Macron ft. Marine Le Pen (Khaled Freak Mix)
Creator:Usubiki
Version:Ameyy's Poudre Salee
Source:
Tags:-Kryu- [ IWeenox ] Jager-kun Blowy Fina Hino [Haku] Kyuukai Pomroz Atsuhito Bakkalo val0108 Ezys5 Ameyy Owens Linada Musty [ SnoWin ] Mooha Mitsuna-
BeatmapID:1289183
BeatmapSetID:610054

[Difficulty]
HPDrainRate:7
CircleSize:4
OverallDifficulty:8
ApproachRate:9.5
SliderMultiplier:2.09999990463257
SliderTickRate:1

[Events]
//Background and Video events
0,0,"Presidentielle-Marine-le-Pen-et-Emmanuel-Macron-les-nouveaux-duellistes-de-la-campagne.jpg",0,0
//Break Periods
2,17236,22084
//Storyboard Layer 0 (Background)
//Storyboard Layer 1 (Fail)
//Storyboard Layer 2 (Pass)
//Storyboard Layer 3 (Foreground)
//Storyboard Sound Samples

[TimingPoints]
449,352.941176470588,4,1,0,50,1,0
22684,-200,4,2,0,20,0,0
25507,-83.3333333333333,4,1,0,50,0,0
26213,-50,4,1,0,50,0,0
26919,-100,4,1,0,50,0,0
30448,-50,4,1,0,50,0,0
33978,-50,4,1,0,50,0,0

[HitObjects]
167,84,5743,6,0,P|139:164|147:228,1,104.999995231629,8|0,0:0|0:0,0:0:0:0:
348,23,6096,1,2,0:0:0:0:
86,43,6272,1,0,0:0:0:0:
297,197,6448,1,8,0:0:0:0:
248,48,6625,1,0,0:0:0:0:
358,283,6801,2,0,P|284:299|225:271,1,104.999995231629,2|0,0:0|0:0,0:0:0:0:
500,180,7154,5,8,0:0:0:0:
321,373,7331,1,0,0:0:0:0:
366,115,7507,1,2,0:0:0:0:
464,359,7684,1,0,0:0:0:0:
391,41,7860,2,0,P|319:50|290:112,1,104.999995231629,8|0,0:0|0:0,0:0:0:0:
230,288,8213,2,0,P|302:279|331:217,1,104.999995231629,2|0,0:0|0:0,0:0:0:0:
76,159,8566,5,8,0:0:0:0:
102,254,8743,1,0,0:0:0:0:
151,101,8919,1,2,0:0:0:0:
14,249,9096,1,0,0:0:0:0:
205,165,9272,2,0,L|305:228,1,104.999995231629,8|0,0:0|0:0,0:0:0:0:
167,20,9625,2,0,P|115:27|77:66,1,104.999995231629,2|0,0:0|0:0,0:0:0:0:
341,57,9978,5,8,0:0:0:0:
132,215,10154,1,0,0:0:0:0:
391,218,10331,1,2,0:0:0:0:
261,17,10507,1,0,0:0:0:0:
133,297,10684,2,0,P|69:268|49:214,1,104.999995231629,8|0,0:0|0:0,0:0:0:0:
469,241,11037,2,0,P|444:279|389:298,1,104.999995231629,2|0,0:0|0:0,0:0:0:0:
200,115,11390,5,8,0:0:0:0:
282,363,11566,1,0,0:0:0:0:
220,200,11743,1,2,0:0:0:0:
225,302,11919,1,0,0:0:0:0:
319,125,12096,2,0,L|447:117,1,104.999995231629,8|0,0:0|0:0,0:0:0:0:
123,328,12448,2,0,L|-5:348,1,104.999995231629,2|0,0:0|0:0,0:0:0:0:
183,138,12801,5,8,0:0:0:0:
311,352,12978,1,0,0:0:0:0:
81,225,13154,1,2,0:0:0:0:
344,216,13331,1,0,0:0:0:0:
119,81,13507,2,0,B|82:131|109:188,1,104.999995231629,8|0,0:0|0:0,0:0:0:0:
406,278,13860,2,0,B|445:227|416:171,1,104.999995231629,2|0,0:0|0:0,0:0:0:0:
199,34,14213,5,8,0:0:0:0:
274,286,14390,1,0,0:0:0:0:
352,36,14566,1,2,0:0:0:0:
139,190,14743,1,0,0:0:0:0:
400,186,14919,1,8,0:0:0:0:
149,104,15096,1,0,0:0:0:0:
358,260,15272,1,2,0:0:0:0:
108,337,15448,1,0,0:0:0:0:
262,124,15625,5,8,0:0:0:0:
408,341,15801,1,0,0:0:0:0:
325,74,15978,2,0,P|262:43|209:72,1,104.999995231629,2|0,0:0|0:0,0:0:0:0:
228,238,16331,2,0,P|278:244|321:215,1,104.999995231629,8|0,0:0|0:0,0:0:0:0:
469,146,16684,2,0,B|369:111|368:181|232:125,1,209.999990463257,2|4,0:0|0:0,0:0:0:0:
218,66,22684,6,0,B|258:11|361:37|418:103|379:170|302:202|247:223|247:223|246:301,1,419.999980926514,8|8,0:0|0:0,0:0:0:0:
250,368,24272,1,0,0:0:0:0:
419,307,24448,1,0,0:0:0:0:
455,268,24537,1,0,0:0:0:0:
463,216,24625,1,0,0:0:0:0:
274,119,24801,1,8,0:0:0:0:
117,343,25331,5,0,0:0:0:0:
466,90,25507,2,0,L|461:263,1,125.99999043274
228,108,25860,1,8,0:0:0:0:
392,328,26037,1,0,0:0:0:0:
149,65,26213,6,2,P|46:137|178:167,1,314.999985694885
117,130,26566,2,2,P|125:237|207:121,1,314.999985694885,10|2,0:0|0:0,0:0:0:0:
222,58,26919,5,2,0:0:0:0:
445,364,27096,1,0,0:0:0:0:
466,35,27272,1,8,0:0:0:0:
64,290,27448,1,0,0:0:0:0:
463,182,27625,2,0,L|411:283,1,104.999995231629,2|0,0:0|0:0,0:0:0:0:
89,229,27978,2,0,L|163:102,1,104.999995231629,8|0,0:0|0:0,0:0:0:0:
345,84,28331,5,2,0:0:0:0:
186,271,28507,1,0,0:0:0:0:
512,132,28684,1,8,0:0:0:0:
6,211,28860,1,0,0:0:0:0:
411,34,29037,2,0,P|424:99|395:149,1,104.999995231629,2|0,0:0|0:0,0:0:0:0:
83,340,29390,2,0,P|141:320|281:322,1,157.499992847443,8|0,0:0|0:0,0:0:0:0:
314,354,29743,5,2,0:0:0:0:
170,28,29919,1,0,0:0:0:0:
506,308,30096,1,8,0:0:0:0:
0,235,30272,1,0,0:0:0:0:
308,94,30448,2,2,B|173:123|239:216|369:187|330:154|201:213|206:277|280:301|361:264,1,314.999985694885,2|0,0:0|0:0,0:0:0:0:
377,272,30801,2,2,B|379:121|379:121|431:172|479:119|479:119|483:308,1,419.999980926514,10|2,0:0|0:0,0:0:0:0:
99,38,31331,5,0,0:0:0:0:
418,363,31507,1,8,0:0:0:0:
446,27,31684,1,0,0:0:0:0:
144,177,31860,2,0,P|216:279|52:314,1,314.999985694885,2|0,0:0|0:0,0:0:0:0:
114,262,32213,2,0,P|220:285|211:108,1,314.999985694885,8|0,0:0|0:0,0:0:0:0:
125,84,32566,5,2,0:0:0:0:
452,192,32743,1,0,0:0:0:0:
16,246,32919,1,8,0:0:0:0:
486,20,33096,1,0,0:0:0:0:
215,182,33272,2,2,B|140:222|140:222|261:361|261:361|203:294|218:289|218:289|281:241,1,419.999980926514,2|10,0:0|0:0,0:0:0:0:
375,288,33713,2,2,B|326:211|326:211|436:221|436:221|354:84,1,314.999985694885,0|2,0:0|0:0,0:0:0:0:
65,123,34154,5,0,0:0:0:0:
482,350,34331,1,8,0:0:0:0:
19,236,34507,1,0,0:0:0:0:
473,37,34684,1,6,0:0:0:0:
