osu file format v14

[General]
AudioFilename: audio.mp3
AudioLeadIn: 0
PreviewTime: 4684
Countdown: 1
SampleSet: Normal
StackLeniency: 0.7
Mode: 3
LetterboxInBreaks: 0
SpecialStyle: 0
WidescreenStoryboard: 1

[Editor]
DistanceSpacing: 2.5
BeatDivisor: 4
GridSize: 4
TimelineZoom: 1.8

[Metadata]
Title:Poudre de Perlimpinpin
TitleUnicode:Poudre de Perlimpinpin
Artist:Emmanuel Macron ft. Marine Le Pen (Khaled Freak Mix)
ArtistUnicode:Emmanuel Macron ft. Marine Le Pen (Khaled Freak Mix)
Creator:Usubiki
Version:Adri's Perlimpinjack
Source:
Tags:-Kryu- [ IWeenox ] Jager-kun Blowy Fina Hino [Haku] Kyuukai Pomroz Atsuhito Bakkalo val0108 Ezys5 Ameyy Owens Linada Musty [ SnoWin ] Mooha Mitsuna-
BeatmapID:1289143
BeatmapSetID:610054

[Difficulty]
HPDrainRate:7
CircleSize:4
OverallDifficulty:8.5
ApproachRate:9.3
SliderMultiplier:2.1
SliderTickRate:1

[Events]
//Background and Video events
0,0,"Presidentielle-Marine-le-Pen-et-Emmanuel-Macron-les-nouveaux-duellistes-de-la-campagne.jpg",0,0
//Break Periods
2,17244,24960
//Storyboard Layer 0 (Background)
//Storyboard Layer 1 (Fail)
//Storyboard Layer 2 (Pass)
//Storyboard Layer 3 (Foreground)
//Storyboard Sound Samples

[TimingPoints]
5750,352.941176470588,4,1,0,50,1,0

[HitObjects]
448,192,5750,5,0,0:0:0:0:
64,192,5750,1,0,0:0:0:0:
320,192,5750,1,0,0:0:0:0:
192,192,5838,1,0,0:0:0:0:
320,192,5926,1,0,0:0:0:0:
64,192,5926,1,0,0:0:0:0:
448,192,5926,1,0,0:0:0:0:
192,192,6014,1,0,0:0:0:0:
64,192,6102,1,0,0:0:0:0:
320,192,6102,1,0,0:0:0:0:
448,192,6191,1,0,0:0:0:0:
192,192,6279,1,0,0:0:0:0:
320,192,6279,1,0,0:0:0:0:
64,192,6455,1,0,0:0:0:0:
448,192,6808,128,0,7161:0:0:0:0:
192,192,7161,1,0,0:0:0:0:
64,192,7161,1,0,0:0:0:0:
320,192,7249,1,0,0:0:0:0:
64,192,7338,1,0,0:0:0:0:
448,192,7338,1,0,0:0:0:0:
192,192,7426,1,0,0:0:0:0:
320,192,7426,1,0,0:0:0:0:
64,192,7514,1,0,0:0:0:0:
448,192,7514,1,0,0:0:0:0:
192,192,7602,1,0,0:0:0:0:
320,192,7602,1,0,0:0:0:0:
448,192,7691,1,0,0:0:0:0:
64,192,7691,1,0,0:0:0:0:
64,192,7867,1,0,0:0:0:0:
448,192,8220,128,0,8573:0:0:0:0:
64,192,8573,1,0,0:0:0:0:
320,192,8573,1,0,0:0:0:0:
192,192,8661,1,0,0:0:0:0:
320,192,8749,1,0,0:0:0:0:
448,192,8749,1,0,0:0:0:0:
64,192,8838,1,0,0:0:0:0:
192,192,8838,1,0,0:0:0:0:
320,192,8926,1,0,0:0:0:0:
64,192,9014,1,0,0:0:0:0:
192,192,9014,1,0,0:0:0:0:
448,192,9102,1,0,0:0:0:0:
320,192,9102,1,0,0:0:0:0:
64,192,9279,1,0,0:0:0:0:
64,192,9455,1,0,0:0:0:0:
448,192,9632,128,0,9985:0:0:0:0:
320,192,9632,1,0,0:0:0:0:
64,192,9985,1,0,0:0:0:0:
192,192,9985,1,0,0:0:0:0:
320,192,10073,1,0,0:0:0:0:
448,192,10161,1,0,0:0:0:0:
64,192,10161,1,0,0:0:0:0:
192,192,10249,1,0,0:0:0:0:
64,192,10338,1,0,0:0:0:0:
320,192,10338,1,0,0:0:0:0:
192,192,10426,1,0,0:0:0:0:
448,192,10426,1,0,0:0:0:0:
64,192,10514,1,0,0:0:0:0:
320,192,10514,1,0,0:0:0:0:
192,192,10691,128,0,11044:0:0:0:0:
320,192,10691,1,0,0:0:0:0:
64,192,10867,1,0,0:0:0:0:
320,192,11044,128,0,11397:0:0:0:0:
448,192,11044,1,0,0:0:0:0:
192,192,11397,1,0,0:0:0:0:
448,192,11397,1,0,0:0:0:0:
64,192,11485,1,0,0:0:0:0:
192,192,11573,1,0,0:0:0:0:
320,192,11573,1,0,0:0:0:0:
64,192,11661,1,0,0:0:0:0:
192,192,11749,1,0,0:0:0:0:
320,192,11749,1,0,0:0:0:0:
448,192,11749,1,0,0:0:0:0:
64,192,11838,1,0,0:0:0:0:
192,192,11926,1,0,0:0:0:0:
448,192,11926,1,0,0:0:0:0:
320,192,12102,128,0,12455:0:0:0:0:
64,192,12102,1,0,0:0:0:0:
192,192,12279,1,0,0:0:0:0:
448,192,12455,128,0,12808:0:0:0:0:
64,192,12455,1,0,0:0:0:0:
192,192,12632,1,0,0:0:0:0:
64,192,12808,1,0,0:0:0:0:
320,192,12808,1,0,0:0:0:0:
192,192,12897,1,0,0:0:0:0:
448,192,12985,1,0,0:0:0:0:
64,192,12985,1,0,0:0:0:0:
320,192,13073,1,0,0:0:0:0:
192,192,13161,1,0,0:0:0:0:
64,192,13161,1,0,0:0:0:0:
448,192,13249,1,0,0:0:0:0:
64,192,13338,1,0,0:0:0:0:
320,192,13338,1,0,0:0:0:0:
192,192,13426,1,0,0:0:0:0:
64,192,13514,1,0,0:0:0:0:
192,192,13691,1,0,0:0:0:0:
448,192,13867,128,0,14220:0:0:0:0:
320,192,13867,1,0,0:0:0:0:
192,192,14044,1,0,0:0:0:0:
64,192,14220,1,0,0:0:0:0:
320,192,14220,1,0,0:0:0:0:
192,192,14308,1,0,0:0:0:0:
320,192,14397,1,0,0:0:0:0:
448,192,14397,1,0,0:0:0:0:
64,192,14485,1,0,0:0:0:0:
320,192,14573,1,0,0:0:0:0:
192,192,14573,1,0,0:0:0:0:
448,192,14661,1,0,0:0:0:0:
192,192,14749,1,0,0:0:0:0:
320,192,14749,1,0,0:0:0:0:
448,192,14838,1,0,0:0:0:0:
64,192,14926,1,0,0:0:0:0:
192,192,15102,1,0,0:0:0:0:
320,192,15279,128,0,15632:0:0:0:0:
448,192,15279,1,0,0:0:0:0:
192,192,15455,1,0,0:0:0:0:
192,192,15632,1,0,0:0:0:0:
448,192,15632,1,0,0:0:0:0:
64,192,15720,1,0,0:0:0:0:
448,192,15808,1,0,0:0:0:0:
192,192,15808,1,0,0:0:0:0:
64,192,15897,1,0,0:0:0:0:
448,192,15985,1,0,0:0:0:0:
192,192,15985,1,0,0:0:0:0:
320,192,16073,1,0,0:0:0:0:
64,192,16161,1,0,0:0:0:0:
192,192,16161,1,0,0:0:0:0:
320,192,16338,128,0,16691:0:0:0:0:
192,192,16338,1,0,0:0:0:0:
192,192,16514,1,0,0:0:0:0:
448,192,16691,128,0,17044:0:0:0:0:
192,192,16691,1,0,0:0:0:0:
320,192,16867,1,0,0:0:0:0:
64,192,17044,1,0,0:0:0:0:
64,192,25514,5,0,0:0:0:0:
320,192,25514,1,0,0:0:0:0:
448,192,25514,1,0,0:0:0:0:
192,192,25602,1,0,0:0:0:0:
448,192,25691,1,0,0:0:0:0:
64,192,25691,1,0,0:0:0:0:
320,192,25691,1,0,0:0:0:0:
192,192,25779,1,0,0:0:0:0:
64,192,25867,1,0,0:0:0:0:
320,192,25867,1,0,0:0:0:0:
192,192,25955,1,0,0:0:0:0:
320,192,26044,1,0,0:0:0:0:
448,192,26044,1,0,0:0:0:0:
64,192,26044,1,0,0:0:0:0:
192,192,26132,1,0,0:0:0:0:
64,192,26220,1,0,0:0:0:0:
448,192,26220,1,0,0:0:0:0:
320,192,26220,128,0,26573:0:0:0:0:
448,192,26397,1,0,0:0:0:0:
64,192,26397,1,0,0:0:0:0:
192,192,26573,1,0,0:0:0:0:
448,192,26573,128,0,26926:0:0:0:0:
64,192,26573,128,0,26926:0:0:0:0:
192,192,26749,1,0,0:0:0:0:
192,192,26926,1,0,0:0:0:0:
320,192,27014,1,0,0:0:0:0:
192,192,27102,1,0,0:0:0:0:
448,192,27102,1,0,0:0:0:0:
320,192,27191,1,0,0:0:0:0:
192,192,27279,1,0,0:0:0:0:
64,192,27279,128,0,27632:0:0:0:0:
448,192,27279,128,0,27632:0:0:0:0:
320,192,27367,1,0,0:0:0:0:
192,192,27455,1,0,0:0:0:0:
192,192,27632,128,0,27985:0:0:0:0:
320,192,27632,1,0,0:0:0:0:
64,192,27808,1,0,0:0:0:0:
320,192,27808,1,0,0:0:0:0:
320,192,27985,128,0,28338:0:0:0:0:
448,192,27985,1,0,0:0:0:0:
64,192,28161,1,0,0:0:0:0:
192,192,28161,1,0,0:0:0:0:
448,192,28338,128,0,29044:0:0:0:0:
64,192,28338,128,0,29044:0:0:0:0:
192,192,28426,1,0,0:0:0:0:
320,192,28514,1,0,0:0:0:0:
192,192,28602,1,0,0:0:0:0:
320,192,28691,1,0,0:0:0:0:
192,192,28779,1,0,0:0:0:0:
320,192,28867,1,0,0:0:0:0:
192,192,29044,1,0,0:0:0:0:
320,192,29044,1,0,0:0:0:0:
192,192,29397,1,0,0:0:0:0:
320,192,29397,1,0,0:0:0:0:
64,192,29749,1,0,0:0:0:0:
448,192,29749,1,0,0:0:0:0:
320,192,29749,1,0,0:0:0:0:
192,192,29926,1,0,0:0:0:0:
320,192,29926,1,0,0:0:0:0:
64,192,29926,1,0,0:0:0:0:
64,192,30102,1,0,0:0:0:0:
448,192,30102,1,0,0:0:0:0:
320,192,30102,1,0,0:0:0:0:
192,192,30279,1,0,0:0:0:0:
320,192,30279,1,0,0:0:0:0:
320,192,30455,1,0,0:0:0:0:
64,192,30455,1,0,0:0:0:0:
64,192,30632,1,0,0:0:0:0:
448,192,30632,1,0,0:0:0:0:
320,192,30632,1,0,0:0:0:0:
320,192,30808,1,0,0:0:0:0:
192,192,30808,1,0,0:0:0:0:
192,192,30985,1,0,0:0:0:0:
448,192,30985,1,0,0:0:0:0:
64,192,31161,1,0,0:0:0:0:
448,192,31161,1,0,0:0:0:0:
320,192,31161,1,0,0:0:0:0:
64,192,31338,1,0,0:0:0:0:
192,192,31338,1,0,0:0:0:0:
64,192,31514,1,0,0:0:0:0:
320,192,31514,1,0,0:0:0:0:
448,192,31514,1,0,0:0:0:0:
192,192,31691,1,0,0:0:0:0:
320,192,31779,1,0,0:0:0:0:
448,192,31867,1,0,0:0:0:0:
192,192,32044,1,0,0:0:0:0:
64,192,32132,1,0,0:0:0:0:
320,192,32220,1,0,0:0:0:0:
64,192,32397,1,0,0:0:0:0:
320,192,32485,1,0,0:0:0:0:
192,192,32573,1,0,0:0:0:0:
320,192,32749,1,0,0:0:0:0:
192,192,32926,1,0,0:0:0:0:
320,192,33102,1,0,0:0:0:0:
64,192,33279,1,0,0:0:0:0:
448,192,33279,1,0,0:0:0:0:
192,192,33367,1,0,0:0:0:0:
320,192,33455,1,0,0:0:0:0:
64,192,33544,1,0,0:0:0:0:
448,192,33632,128,0,33985:0:0:0:0:
192,192,33632,128,0,33985:0:0:0:0:
64,192,33985,1,0,0:0:0:0:
320,192,33985,1,0,0:0:0:0:
