osu file format v14

[General]
AudioFilename: audio.mp3
AudioLeadIn: 0
PreviewTime: 4684
Countdown: 1
SampleSet: Normal
StackLeniency: 0.7
Mode: 0
LetterboxInBreaks: 0
WidescreenStoryboard: 1

[Editor]
DistanceSpacing: 1
BeatDivisor: 4
GridSize: 4
TimelineZoom: 1

[Metadata]
Title:Poudre de Perlimpinpin
TitleUnicode:Poudre de Perlimpinpin
Artist:Emmanuel Macron ft. Marine Le Pen (Khaled Freak Mix)
ArtistUnicode:Emmanuel Macron ft. Marine Le Pen (Khaled Freak Mix)
Creator:Usubiki
Version:Stream of poudre
Source:
Tags:-Kryu- [ IWeenox ] Jager-kun Blowy Fina Hino [Haku] Kyuukai Pomroz Atsuhito Bakkalo val0108 Ezys5 Ameyy Owens Linada Musty [ SnoWin ] Mooha Mitsuna-
BeatmapID:1289657
BeatmapSetID:610054

[Difficulty]
HPDrainRate:6
CircleSize:4.5
OverallDifficulty:9.3
ApproachRate:9.8
SliderMultiplier:2.09999990463257
SliderTickRate:1

[Events]
//Background and Video events
0,0,"Presidentielle-Marine-le-Pen-et-Emmanuel-Macron-les-nouveaux-duellistes-de-la-campagne.jpg",0,0
//Break Periods
2,17060,25028
//Storyboard Layer 0 (Background)
//Storyboard Layer 1 (Fail)
//Storyboard Layer 2 (Pass)
//Storyboard Layer 3 (Foreground)
//Storyboard Sound Samples

[TimingPoints]
449,352.941176470588,4,1,0,50,1,0
5390,-100,4,1,0,50,0,0
9801,-66.6666666666667,4,1,0,50,0,0
11301,-80,4,1,0,50,0,0
28243,-71.4285714285714,4,1,0,50,0,0
31066,-66.6666666666667,4,1,0,50,0,0
33978,-200,4,1,0,50,0,0

[HitObjects]
144,64,5743,5,0,0:0:0:0:
122,111,5831,1,0,0:0:0:0:
127,163,5919,1,0,0:0:0:0:
157,205,6007,1,0,0:0:0:0:
204,227,6095,1,0,0:0:0:0:
256,236,6184,1,0,0:0:0:0:
307,232,6272,1,0,0:0:0:0:
345,198,6360,1,0,0:0:0:0:
372,152,6448,2,0,P|384:100|360:32,1,104.999995231629
160,60,6801,2,0,P|136:112|152:164,1,104.999995231629
228,224,7154,5,0,0:0:0:0:
267,257,7242,1,0,0:0:0:0:
318,263,7330,1,0,0:0:0:0:
364,239,7418,1,0,0:0:0:0:
364,188,7507,1,0,0:0:0:0:
330,149,7595,1,0,0:0:0:0:
327,97,7683,1,0,0:0:0:0:
356,55,7771,1,0,0:0:0:0:
408,40,7860,2,0,P|468:40|520:72,1,104.999995231629
484,268,8213,2,0,P|416:288|368:264,1,104.999995231629
284,248,8566,5,0,0:0:0:0:
241,218,8654,1,0,0:0:0:0:
190,221,8742,1,0,0:0:0:0:
151,255,8830,1,0,0:0:0:0:
100,248,8919,1,0,0:0:0:0:
74,203,9007,1,0,0:0:0:0:
77,152,9095,1,0,0:0:0:0:
109,112,9183,1,0,0:0:0:0:
160,100,9272,2,0,L|268:76,1,104.999995231629
352,268,9625,2,0,L|240:304,1,104.999995231629
104,248,9978,5,0,0:0:0:0:
98,171,10066,1,0,0:0:0:0:
149,113,10154,1,0,0:0:0:0:
226,109,10242,1,0,0:0:0:0:
288,148,10331,1,0,0:0:0:0:
349,194,10419,1,0,0:0:0:0:
426,188,10507,1,0,0:0:0:0:
479,132,10595,1,0,0:0:0:0:
504,56,10684,2,0,P|444:0|356:24,1,157.499998855591
400,164,11037,2,0,P|324:196|248:156,1,157.499998855591
140,108,11390,5,0,0:0:0:0:
76,119,11478,1,0,0:0:0:0:
26,161,11566,1,0,0:0:0:0:
5,222,11654,1,0,0:0:0:0:
18,286,11742,1,0,0:0:0:0:
62,334,11831,1,0,0:0:0:0:
123,353,11919,1,0,0:0:0:0:
187,338,12007,1,0,0:0:0:0:
240,300,12096,2,0,P|280:244|272:168,1,131.249994039536
176,100,12448,2,0,P|140:164|180:216,1,131.249994039536
276,280,12801,5,0,0:0:0:0:
340,285,12889,1,0,0:0:0:0:
397,254,12977,1,0,0:0:0:0:
429,198,13065,1,0,0:0:0:0:
425,133,13153,1,0,0:0:0:0:
387,81,13242,1,0,0:0:0:0:
327,57,13330,1,0,0:0:0:0:
263,70,13418,1,0,0:0:0:0:
212,112,13507,2,0,L|124:220,1,131.249994039536
232,296,13860,2,0,L|316:192,1,131.249994039536
400,92,14213,5,0,0:0:0:0:
360,152,14301,1,0,0:0:0:0:
400,92,14390,1,0,0:0:0:0:
360,152,14478,1,0,0:0:0:0:
400,92,14566,1,0,0:0:0:0:
360,152,14654,1,0,0:0:0:0:
400,92,14743,1,0,0:0:0:0:
360,152,14831,1,0,0:0:0:0:
400,92,14919,2,0,L|516:176,1,131.249994039536
360,152,15272,2,0,L|252:72,1,131.249994039536
124,132,15625,5,0,0:0:0:0:
175,79,15713,1,0,0:0:0:0:
124,132,15802,1,0,0:0:0:0:
175,79,15890,1,0,0:0:0:0:
124,132,15978,1,0,0:0:0:0:
175,79,16066,1,0,0:0:0:0:
124,132,16155,1,0,0:0:0:0:
175,79,16243,1,0,0:0:0:0:
124,132,16331,2,0,L|26:27,1,131.249994039536
175,79,16684,2,0,L|265:178,1,131.249994039536
352,56,25507,5,0,0:0:0:0:
409,83,25595,1,0,0:0:0:0:
433,143,25683,1,0,0:0:0:0:
409,202,25771,1,0,0:0:0:0:
352,236,25860,1,0,0:0:0:0:
287,238,25948,1,0,0:0:0:0:
229,209,26036,1,0,0:0:0:0:
193,155,26124,1,0,0:0:0:0:
184,88,26213,5,0,0:0:0:0:
184,88,26301,1,0,0:0:0:0:
184,88,26390,1,0,0:0:0:0:
300,144,26566,5,0,0:0:0:0:
300,144,26654,1,0,0:0:0:0:
300,144,26743,1,0,0:0:0:0:
420,196,26919,5,0,0:0:0:0:
393,254,27007,1,0,0:0:0:0:
337,286,27095,1,0,0:0:0:0:
273,277,27183,1,0,0:0:0:0:
226,232,27271,1,0,0:0:0:0:
208,168,27360,1,0,0:0:0:0:
172,114,27448,1,0,0:0:0:0:
109,105,27536,1,0,0:0:0:0:
56,148,27625,5,0,0:0:0:0:
56,148,27713,1,0,0:0:0:0:
56,148,27801,1,0,0:0:0:0:
136,252,27978,5,0,0:0:0:0:
136,252,28066,1,0,0:0:0:0:
136,252,28154,1,0,0:0:0:0:
252,344,28331,5,0,0:0:0:0:
299,290,28419,1,0,0:0:0:0:
295,218,28507,1,0,0:0:0:0:
242,170,28595,1,0,0:0:0:0:
172,132,28684,1,0,0:0:0:0:
132,75,28772,1,0,0:0:0:0:
171,19,28860,1,0,0:0:0:0:
244,8,28948,1,0,0:0:0:0:
316,32,29037,2,0,P|384:80|396:160,1,146.999988838196
264,200,29390,2,0,L|104:260,1,146.999988838196
36,132,29743,5,0,0:0:0:0:
83,78,29831,1,0,0:0:0:0:
154,64,29919,1,0,0:0:0:0:
219,96,30007,1,0,0:0:0:0:
251,161,30095,1,0,0:0:0:0:
232,232,30184,1,0,0:0:0:0:
218,300,30272,1,0,0:0:0:0:
271,346,30360,1,0,0:0:0:0:
344,336,30448,2,0,P|408:280|408:204,1,146.999988838196
332,100,30801,2,0,P|252:136|224:204,1,146.999988838196
352,280,31154,5,0,0:0:0:0:
424,259,31242,1,0,0:0:0:0:
449,187,31330,1,0,0:0:0:0:
405,126,31418,1,0,0:0:0:0:
328,120,31507,1,0,0:0:0:0:
255,146,31595,1,0,0:0:0:0:
211,210,31683,1,0,0:0:0:0:
140,248,31772,1,0,0:0:0:0:
68,216,31860,2,0,B|32:136|32:136|104:88,1,157.499998855591
248,72,32213,2,0,B|320:128|320:128|288:196,1,157.499998855591
156,268,32566,5,0,0:0:0:0:
83,247,32654,1,0,0:0:0:0:
58,175,32742,1,0,0:0:0:0:
102,114,32830,1,0,0:0:0:0:
180,108,32919,1,0,0:0:0:0:
253,134,33007,1,0,0:0:0:0:
296,198,33095,1,0,0:0:0:0:
368,236,33184,1,0,0:0:0:0:
444,256,33272,2,0,B|520:216|520:216|464:136,1,157.499998855591
360,52,33625,2,0,B|280:80|280:80|308:172,1,157.499998855591
256,192,33978,12,0,35037,0:0:0:0:
