osu file format v14

[General]
AudioFilename: audio.mp3
AudioLeadIn: 0
PreviewTime: 4684
Countdown: 1
SampleSet: Normal
StackLeniency: 0.7
Mode: 0
LetterboxInBreaks: 0
WidescreenStoryboard: 0

[Editor]
DistanceSpacing: 1.5
BeatDivisor: 4
GridSize: 4
TimelineZoom: 1

[Metadata]
Title:Poudre de Perlimpinpin
TitleUnicode:Poudre de Perlimpinpin
Artist:Emmanuel Macron ft. Marine Le Pen (Khaled Freak Mix)
ArtistUnicode:Emmanuel Macron ft. Marine Le Pen (Khaled Freak Mix)
Creator:Usubiki
Version:Poudre electorale
Source:
Tags:-Kryu- [ IWeenox ] Jager-kun Blowy Fina Hino [Haku] Kyuukai Pomroz Atsuhito Bakkalo val0108 Ezys5 Ameyy Owens Linada Musty [ SnoWin ] Mooha Mitsuna-
BeatmapID:1289863
BeatmapSetID:610054

[Difficulty]
HPDrainRate:7
CircleSize:4
OverallDifficulty:8.5
ApproachRate:9.3
SliderMultiplier:2.1
SliderTickRate:1

[Events]
//Background and Video events
0,0,"Presidentielle-Marine-le-Pen-et-Emmanuel-Macron-les-nouveaux-duellistes-de-la-campagne.jpg",0,0
//Break Periods
//Storyboard Layer 0 (Background)
//Storyboard Layer 1 (Fail)
//Storyboard Layer 2 (Pass)
//Storyboard Layer 3 (Foreground)
//Storyboard Sound Samples

[TimingPoints]
449,352.941176470588,4,1,0,50,1,0
5566,-66.6666666666667,4,1,0,50,0,0
5750,352.941176470588,4,1,0,50,1,0
6279,-50,4,1,0,50,0,0
13338,-100,4,1,0,50,0,0
14132,-50,4,1,0,50,0,0
16867,-100,4,1,0,50,0,0
25426,-66.6666666666667,4,1,0,50,0,0
26132,-50,4,1,0,50,0,0

[HitObjects]
128,152,5750,6,0,P|168:100|240:88,1,105
288,80,6102,1,0,0:0:0:0:
340,217,6279,1,0,0:0:0:0:
196,192,6455,2,0,B|89:142|89:142|76:36,1,210
228,200,6808,2,0,B|336:244|336:244|372:352,1,210
164,276,7161,5,0,0:0:0:0:
344,168,7338,1,0,0:0:0:0:
248,352,7514,1,0,0:0:0:0:
200,148,7691,1,0,0:0:0:0:
372,268,7867,2,0,P|472:236|468:128,1,210
296,244,8220,2,0,P|208:172|232:92,1,210
428,172,8573,5,0,0:0:0:0:
268,308,8749,1,0,0:0:0:0:
248,100,8926,1,0,0:0:0:0:
380,264,9102,1,0,0:0:0:0:
380,264,9279,2,0,L|152:244,1,210
380,264,9632,2,0,L|352:48,1,210
176,172,9985,5,0,0:0:0:0:
176,172,10073,1,0,0:0:0:0:
176,172,10161,1,0,0:0:0:0:
384,196,10338,1,0,0:0:0:0:
72,148,10514,1,0,0:0:0:0:
488,208,10691,2,0,L|264:176,1,210
72,148,11044,2,0,L|288:180,1,210
279,178,11397,5,0,0:0:0:0:
279,178,11485,1,0,0:0:0:0:
279,178,11573,1,0,0:0:0:0:
104,292,11749,1,0,0:0:0:0:
208,108,11926,1,0,0:0:0:0:
320,284,12102,2,0,B|432:232|432:232|432:128,1,210
236,268,12455,2,0,B|116:288|116:288|72:368,1,210
192,72,12808,5,0,0:0:0:0:
336,352,12985,1,0,0:0:0:0:
44,240,13161,1,0,0:0:0:0:
356,188,13338,1,0,0:0:0:0:
204,224,13514,1,0,0:0:0:0:
152,235,13602,1,0,0:0:0:0:
101,247,13690,1,0,0:0:0:0:
212,132,13867,1,0,0:0:0:0:
262,118,13955,1,0,0:0:0:0:
313,105,14043,1,0,0:0:0:0:
188,276,14220,5,0,0:0:0:0:
356,148,14397,1,0,0:0:0:0:
76,288,14573,1,0,0:0:0:0:
480,176,14749,1,0,0:0:0:0:
164,192,14926,2,0,B|72:112|72:112|56:4,1,210
272,256,15279,2,0,B|376:336|376:336|412:408,1,210
252,136,15632,5,0,0:0:0:0:
252,240,15808,1,0,0:0:0:0:
252,28,15985,1,0,0:0:0:0:
252,136,16161,1,0,0:0:0:0:
336,200,16338,2,0,L|508:344,1,210
168,196,16691,2,0,L|4:360,1,210
60,168,17044,6,0,L|152:92,1,105
212,180,17397,2,0,L|128:256,1,105
236,280,17749,2,0,L|356:304,1,105
268,224,18102,2,0,L|348:152,1,105
396,112,18808,1,0,0:0:0:0:
336,220,19161,2,0,L|212:208,1,105
256,108,19514,2,0,L|144:112,1,105
108,300,19867,6,0,L|224:332,1,105
204,224,20220,2,0,L|312:224,1,105
380,300,20573,2,0,L|260:304,1,105
168,296,20926,2,0,L|256:220,1,105
340,100,21632,6,0,L|384:200,1,105
284,156,21985,6,0,L|264:264,1,105
180,200,22338,6,0,L|112:284,1,105
260,276,25514,6,0,B|344:240|344:240|356:164,1,157.500006008148
160,40,25867,1,0,0:0:0:0:
120,272,26044,1,0,0:0:0:0:
376,92,26220,2,0,B|484:36|484:36|560:96,1,210
144,192,26573,2,0,B|32:224|32:224|-24:308,1,210
296,316,26926,5,0,0:0:0:0:
112,60,27102,1,0,0:0:0:0:
48,368,27279,1,0,0:0:0:0:
260,136,27455,1,0,0:0:0:0:
296,316,27632,2,0,L|520:308,1,210
192,264,27985,2,0,L|168:44,1,210
428,232,28338,5,0,0:0:0:0:
116,252,28514,1,0,0:0:0:0:
428,232,28691,1,0,0:0:0:0:
116,252,28867,1,0,0:0:0:0:
400,116,29044,2,0,L|592:8,1,210
116,252,29397,2,0,L|-80:364,1,210
168,8,29749,5,0,0:0:0:0:
352,264,29926,1,0,0:0:0:0:
168,8,30102,1,0,0:0:0:0:
352,264,30279,1,0,0:0:0:0:
80,108,30455,2,0,B|-72:80|-72:80|-124:128,1,210
412,160,30808,2,0,B|536:208|536:208|576:284,1,210
48,240,31161,5,0,0:0:0:0:
436,72,31338,1,0,0:0:0:0:
272,340,31514,1,0,0:0:0:0:
168,40,31691,1,0,0:0:0:0:
396,256,31867,1,0,0:0:0:0:
92,176,32044,1,0,0:0:0:0:
396,256,32220,1,0,0:0:0:0:
92,176,32397,1,0,0:0:0:0:
400,116,32573,6,0,L|608:60,1,210
356,256,32926,1,0,0:0:0:0:
156,12,33102,1,0,0:0:0:0:
436,156,33279,2,0,L|624:260,1,210
304,248,33632,2,0,L|156:408,1,210
256,192,33985,12,0,35044,0:0:0:0:
