osu file format v14

[General]
AudioFilename: audio.mp3
AudioLeadIn: 0
PreviewTime: 4684
Countdown: 1
SampleSet: Normal
StackLeniency: 0.7
Mode: 0
LetterboxInBreaks: 0
WidescreenStoryboard: 1

[Editor]
DistanceSpacing: 1.5
BeatDivisor: 2
GridSize: 8
TimelineZoom: 1

[Metadata]
Title:Poudre de Perlimpinpin
TitleUnicode:Poudre de Perlimpinpin
Artist:Emmanuel Macron ft. Marine Le Pen (Khaled Freak Mix)
ArtistUnicode:Emmanuel Macron ft. Marine Le Pen (Khaled Freak Mix)
Creator:Usubiki
Version:Pomroz's escampette
Source:
Tags:-Kryu- [ IWeenox ] Jager-kun Blowy Fina Hino [Haku] Kyuukai Pomroz Atsuhito Bakkalo val0108 Ezys5 Ameyy Owens Linada Musty [ SnoWin ] Mooha Mitsuna-
BeatmapID:1288860
BeatmapSetID:610054

[Difficulty]
HPDrainRate:7
CircleSize:4
OverallDifficulty:8
ApproachRate:9.3
SliderMultiplier:1.4
SliderTickRate:1

[Events]
//Background and Video events
0,0,"Presidentielle-Marine-le-Pen-et-Emmanuel-Macron-les-nouveaux-duellistes-de-la-campagne.jpg",0,0
//Break Periods
//Storyboard Layer 0 (Background)
//Storyboard Layer 1 (Fail)
//Storyboard Layer 2 (Pass)
//Storyboard Layer 3 (Foreground)
//Storyboard Sound Samples

[TimingPoints]
449,352.941176470588,4,1,0,50,1,0
449,-133.333333333333,4,1,0,50,0,0
5750,352.941176470588,4,1,0,50,1,0
5750,-100,4,3,50,50,0,1
5926,-100,4,2,50,50,0,1
7161,-66.6666666666667,4,2,50,50,0,1
8573,-66.6666666666667,4,3,50,50,0,1
8749,-66.6666666666667,4,2,50,50,0,1
11397,-66.6666666666667,4,3,50,50,0,1
11573,-66.6666666666667,4,2,50,50,0,1
14220,-66.6666666666667,4,3,50,50,0,1
14397,-66.6666666666667,4,2,50,50,0,1
17044,-133.333333333333,4,2,70,20,0,0
17397,-133.333333333333,4,1,0,50,0,0
24455,-133.333333333333,4,2,70,20,0,0
25514,-66.6666666666667,4,3,50,50,0,1
25691,-66.6666666666667,4,2,50,50,0,1
28338,-66.6666666666667,4,3,50,50,0,1
28514,-66.6666666666667,4,2,50,50,0,1
30455,-50,4,2,50,50,0,1
31161,-66.6666666666667,4,3,50,50,0,1
31338,-66.6666666666667,4,2,50,50,0,1
34691,-66.6666666666667,4,2,70,20,0,0

[HitObjects]
48,40,449,6,0,L|136:104,2,105.000004005432
464,344,1860,2,0,L|376:280,2,105.000004005432
464,40,3272,2,0,L|376:104,2,105.000004005432
48,344,4684,2,0,L|136:280,2,105.000004005432
184,96,5750,5,8,0:0:0:0:
240,233,5926,1,0,0:0:0:0:
408,169,6102,1,0,0:0:0:0:
277,303,6279,1,0,0:0:0:0:
241,32,6455,2,0,P|131:30|107:62,1,140,8|0,0:0|0:0,0:0:0:0:
334,218,7161,6,0,B|395:211|395:211|442:169,1,105.000004005432
171,245,7514,2,0,B|110:252|110:252|62:294,1,105.000004005432
61,34,7867,1,8,0:0:0:0:
238,144,8044,1,0,0:0:0:0:
205,2,8220,1,0,0:0:0:0:
95,179,8397,1,0,0:0:0:0:
401,107,8573,5,8,0:0:0:0:
291,284,8750,1,0,0:0:0:0:
433,251,8926,1,0,0:0:0:0:
291,284,9102,1,0,0:0:0:0:
433,251,9279,2,0,P|484:208|497:157,1,105.000004005432,8|0,0:0|0:0,0:0:0:0:
464,29,9632,2,0,P|413:72|399:123,1,105.000004005432
106,72,9985,5,0,0:0:0:0:
71,67,10073,1,0,0:0:0:0:
36,63,10161,1,0,0:0:0:0:
195,83,10338,2,0,L|325:98,1,105.000004005432
50,241,10691,1,8,0:0:0:0:
171,179,10867,1,0,0:0:0:0:
149,320,11044,1,0,0:0:0:0:
52,226,11220,1,0,0:0:0:0:
359,158,11397,6,0,L|450:231,1,105.000004005432,8|0,0:0|0:0,0:0:0:0:
241,139,11749,2,0,L|150:66,1,105.000004005432
327,221,12102,1,8,0:0:0:0:
272,75,12279,1,0,0:0:0:0:
236,226,12455,1,0,0:0:0:0:
363,70,12632,1,0,0:0:0:0:
144,260,12808,6,0,L|196:362,1,105.000004005432
28,90,13161,1,0,0:0:0:0:
220,158,13338,1,0,0:0:0:0:
23,217,13514,1,8,0:0:0:0:
149,56,13691,1,0,0:0:0:0:
30,245,13867,1,0,0:0:0:0:
256,159,14044,1,0,0:0:0:0:
57,336,14220,6,0,B|109:319|109:319|147:273,1,105.000004005432,8|0,0:0|0:0,0:0:0:0:
195,114,14573,2,0,B|142:131|142:131|105:177,1,105.000004005432
258,229,14926,2,0,B|310:212|310:212|348:166,1,105.000004005432,8|0,0:0|0:0,0:0:0:0:
396,7,15279,2,0,B|343:24|343:24|306:70,1,105.000004005432
131,193,15632,5,0,0:0:0:0:
333,240,15808,1,0,0:0:0:0:
256,115,15985,1,0,0:0:0:0:
209,318,16161,1,0,0:0:0:0:
333,150,16338,1,8,0:0:0:0:
333,150,16691,1,0,0:0:0:0:
333,150,17044,1,4,0:0:0:0:
87,42,17397,6,0,P|124:98|175:121,2,105.000004005432
425,342,18808,2,0,P|388:286|337:263,2,105.000004005432
87,342,20220,2,0,P|124:286|175:263,2,105.000004005432
425,42,21632,2,0,P|388:98|337:121,2,105.000004005432
256,192,22691,12,4,24455,0:0:0:0:
171,177,25514,5,8,0:0:0:0:
376,92,25691,1,0,0:0:0:0:
232,31,25867,1,0,0:0:0:0:
315,238,26044,1,0,0:0:0:0:
71,217,26220,5,8,0:0:0:0:
476,52,26573,1,8,0:0:0:0:
230,246,26926,6,0,P|206:277|196:299,1,52.5000020027161
230,246,27102,1,0,0:0:0:0:
248,101,27279,1,0,0:0:0:0:
374,227,27456,1,0,0:0:0:0:
143,165,27632,5,8,0:0:0:0:
398,107,27809,1,0,0:0:0:0:
309,300,27984,1,8,0:0:0:0:
57,59,28338,5,8,0:0:0:0:
253,168,28514,1,0,0:0:0:0:
78,105,28691,1,0,0:0:0:0:
231,121,28867,1,0,0:0:0:0:
89,207,29044,2,2,B|69:228|69:228|61:250,1,35.0000013351441,8|0,0:0|0:0,0:0:0:0:
319,74,29397,2,2,B|338:52|338:52|346:30,1,35.0000013351441,8|0,0:0|0:0,0:0:0:0:
205,323,29749,5,0,0:0:0:0:
299,164,29926,1,0,0:0:0:0:
205,323,30102,1,0,0:0:0:0:
386,293,30279,1,0,0:0:0:0:
151,204,30455,6,2,P|119:215|153:215,1,93.3333333333333,8|0,0:0|0:0,0:0:0:0:
426,201,30808,2,2,P|458:212|424:212,1,93.3333333333333,8|0,0:0|0:0,0:0:0:0:
146,119,31161,6,0,P|85:89|46:37,1,105.000004005432,8|0,0:0|0:0,0:0:0:0:
264,119,31514,2,0,P|325:149|364:201,1,105.000004005432
101,219,31867,5,8,0:0:0:0:
308,18,32220,1,8,0:0:0:0:
202,290,32573,6,0,P|177:307|158:325,1,52.5000020027161
383,204,32749,1,0,0:0:0:0:
383,204,32926,1,0,0:0:0:0:
383,204,33102,1,0,0:0:0:0:
191,127,33279,6,2,B|149:83|149:83|96:62,1,105.000004005432,8|0,0:0|0:0,0:0:0:0:
339,300,33632,2,2,B|381:344|381:344|434:365,1,105.000004005432,8|0,0:0|0:0,0:0:0:0:
256,192,33985,12,4,34691,0:0:0:0:
