osu file format v14

[General]
AudioFilename: audio.mp3
AudioLeadIn: 0
PreviewTime: 4684
Countdown: 1
SampleSet: Normal
StackLeniency: 0.7
Mode: 0
LetterboxInBreaks: 0
WidescreenStoryboard: 1

[Editor]
DistanceSpacing: 1.5
BeatDivisor: 4
GridSize: 16
TimelineZoom: 2

[Metadata]
Title:Poudre de Perlimpinpin
TitleUnicode:Poudre de Perlimpinpin
Artist:Emmanuel Macron ft. Marine Le Pen (Khaled Freak Mix)
ArtistUnicode:Emmanuel Macron ft. Marine Le Pen (Khaled Freak Mix)
Creator:Usubiki
Version:Owens' Election
Source:
Tags:-Kryu- [ IWeenox ] Jager-kun Blowy Fina Hino [Haku] Kyuukai Pomroz Atsuhito Bakkalo val0108 Ezys5 Ameyy Owens Linada Musty [ SnoWin ] Mooha Mitsuna-
BeatmapID:1289606
BeatmapSetID:610054

[Difficulty]
HPDrainRate:6
CircleSize:4
OverallDifficulty:9
ApproachRate:9.5
SliderMultiplier:1.6
SliderTickRate:1

[Events]
//Background and Video events
0,0,"Presidentielle-Marine-le-Pen-et-Emmanuel-Macron-les-nouveaux-duellistes-de-la-campagne.jpg",0,0
//Break Periods
//Storyboard Layer 0 (Background)
//Storyboard Layer 1 (Fail)
//Storyboard Layer 2 (Pass)
//Storyboard Layer 3 (Foreground)
//Storyboard Sound Samples

[TimingPoints]
449,352.941176470588,4,1,0,30,1,0
5750,352.941176470588,4,1,0,50,1,0
17397,-100,4,1,0,30,0,0
25161,-100,4,1,0,5,0,0
25514,-100,4,1,0,50,0,0

[HitObjects]
144,224,449,5,0,0:0:0:0:
176,112,801,1,0,0:0:0:0:
256,195,1154,1,0,0:0:0:0:
137,201,1860,5,0,0:0:0:0:
188,96,2212,1,0,0:0:0:0:
252,191,2565,1,0,0:0:0:0:
135,177,3272,5,0,0:0:0:0:
203,83,3624,1,0,0:0:0:0:
250,188,3977,1,0,0:0:0:0:
137,201,4684,5,0,0:0:0:0:
188,96,5036,1,0,0:0:0:0:
252,191,5389,1,0,0:0:0:0:
252,191,5750,6,0,L|321:179,1,40,2|0,0:0|0:0,0:0:0:0:
434,166,5926,1,0,0:0:0:0:
322,21,6102,1,0,0:0:0:0:
365,336,6279,1,0,0:0:0:0:
252,191,6455,5,8,0:0:0:0:
277,373,6632,1,0,0:0:0:0:
252,191,6808,5,8,0:0:0:0:
182,361,6985,1,0,0:0:0:0:
252,191,7161,6,0,L|183:203,1,40,2|0,0:0|0:0,0:0:0:0:
70,216,7338,1,0,0:0:0:0:
182,361,7514,1,0,0:0:0:0:
139,46,7691,1,0,0:0:0:0:
252,191,7867,5,8,0:0:0:0:
227,9,8044,1,0,0:0:0:0:
252,191,8220,5,8,0:0:0:0:
322,21,8397,1,0,0:0:0:0:
434,166,8573,6,0,L|416:240,1,40,2|0,0:0|0:0,0:0:0:0:
364,336,8749,1,0,0:0:0:0:
252,191,8926,1,0,0:0:0:0:
461,301,9102,1,0,0:0:0:0:
226,311,9279,5,8,0:0:0:0:
425,185,9455,1,0,2:0:0:0:
226,311,9632,5,8,0:0:0:0:
335,102,9808,1,0,2:0:0:0:
226,311,9985,2,0,L|224:240,1,40,2|0,0:0|0:0,0:0:0:0:
215,75,10161,1,0,2:0:0:0:
139,332,10338,5,0,2:0:0:0:
128,64,10514,1,0,0:0:0:0:
116,309,10691,5,8,2:0:0:0:
152,43,10867,1,0,0:0:0:0:
98,283,11044,5,8,2:0:0:0:
179,27,11220,1,0,0:0:0:0:
84,254,11397,6,0,L|144:264,1,40,2|0,0:0|0:0,0:0:0:0:
352,296,11573,1,0,0:0:0:0:
254,43,11749,1,0,0:0:0:0:
82,252,11926,1,0,0:0:0:0:
384,115,12102,5,8,0:0:0:0:
117,71,12279,1,0,0:0:0:0:
213,327,12455,1,8,0:0:0:0:
384,115,12632,1,0,0:0:0:0:
98,283,12808,6,0,L|158:282,1,40,2|0,0:0|0:0,0:0:0:0:
368,277,12984,1,0,0:0:0:0:
228,45,13160,1,0,0:0:0:0:
95,281,13337,1,0,0:0:0:0:
368,94,13513,5,8,0:0:0:0:
98,97,13690,1,0,0:0:0:0:
238,332,13866,1,8,0:0:0:0:
368,93,14043,1,0,0:0:0:0:
116,309,14220,6,0,L|175:297,1,40,2|0,0:0|0:0,0:0:0:0:
381,256,14396,1,0,0:0:0:0:
203,52,14572,1,0,0:0:0:0:
113,307,14749,1,0,0:0:0:0:
350,76,14926,5,8,0:0:0:0:
84,126,15102,1,0,0:0:0:0:
262,333,15279,1,8,0:0:0:0:
349,75,15455,1,0,0:0:0:0:
138,331,15632,6,0,L|195:310,1,40,2|0,0:0|0:0,0:0:0:0:
391,234,15808,1,0,0:0:0:0:
179,63,15984,1,0,0:0:0:0:
135,330,16161,1,0,0:0:0:0:
328,61,16337,5,8,0:0:0:0:
75,156,16514,1,0,0:0:0:0:
287,330,16690,1,8,0:0:0:0:
328,61,16867,1,0,0:0:0:0:
135,330,17044,5,14,0:0:0:0:
384,288,17397,5,0,0:0:0:0:
392,256,17749,1,0,0:0:0:0:
400,224,18102,1,0,0:0:0:0:
108,254,18808,5,0,0:0:0:0:
132,277,19160,1,0,0:0:0:0:
156,300,19513,1,0,0:0:0:0:
275,33,20220,5,0,0:0:0:0:
243,42,20572,1,0,0:0:0:0:
211,51,20925,1,0,0:0:0:0:
384,288,21632,5,0,0:0:0:0:
392,255,21984,1,0,0:0:0:0:
400,224,22337,1,0,0:0:0:0:
256,192,22691,12,0,25161,0:0:0:0:
64,240,25514,6,0,L|128:224,1,40,2|0,0:0|0:0,0:0:0:0:
448,144,25691,1,0,0:0:0:0:
64,144,25867,5,0,0:0:0:0:
448,240,26044,1,0,0:0:0:0:
208,0,26220,5,8,0:0:0:0:
304,384,26396,1,0,0:0:0:0:
304,0,26573,5,8,0:0:0:0:
208,384,26749,1,0,0:0:0:0:
384,48,26926,6,0,L|336:96,1,40,2|0,0:0|0:0,0:0:0:0:
112,336,27102,1,0,0:0:0:0:
448,240,27279,1,0,0:0:0:0:
197,0,27455,1,0,0:0:0:0:
310,382,27632,1,8,0:0:0:0:
392,44,27808,1,0,0:0:0:0:
59,139,27985,1,8,0:0:0:0:
310,382,28161,1,0,0:0:0:0:
448,144,28338,6,0,L|384:160,1,40,2|0,0:0|0:0,0:0:0:0:
64,240,28515,1,0,0:0:0:0:
448,240,28691,5,0,0:0:0:0:
64,144,28868,1,0,0:0:0:0:
304,384,29044,5,8,0:0:0:0:
208,0,29220,1,0,0:0:0:0:
208,384,29397,5,8,0:0:0:0:
304,0,29573,1,0,0:0:0:0:
128,336,29750,6,0,L|176:288,1,40,2|0,0:0|0:0,0:0:0:0:
400,48,29926,1,0,0:0:0:0:
64,144,30103,1,0,0:0:0:0:
315,384,30279,1,0,0:0:0:0:
201,1,30456,1,8,0:0:0:0:
119,339,30632,1,0,0:0:0:0:
452,244,30809,1,8,0:0:0:0:
201,1,30985,1,0,0:0:0:0:
308,387,31161,5,10,0:0:0:0:
308,387,31249,1,8,0:0:0:0:
308,387,31338,1,8,0:0:0:0:
64,144,31514,1,0,0:0:0:0:
400,48,31691,1,0,0:0:0:0:
169,376,31867,1,8,0:0:0:0:
139,26,32044,1,0,0:0:0:0:
452,171,32220,1,8,0:0:0:0:
78,278,32397,1,0,0:0:0:0:
273,0,32573,5,10,0:0:0:0:
273,0,32661,1,8,0:0:0:0:
273,0,32749,1,8,0:0:0:0:
422,307,32925,1,0,0:0:0:0:
60,140,33102,1,0,0:0:0:0:
393,49,33279,1,8,0:0:0:0:
308,388,33455,1,0,0:0:0:0:
139,25,33632,1,8,0:0:0:0:
457,173,33808,1,0,0:0:0:0:
175,372,33985,5,10,0:0:0:0:
175,372,34073,1,8,0:0:0:0:
175,372,34161,1,8,0:0:0:0:
269,0,34338,1,0,0:0:0:0:
422,308,34514,1,0,0:0:0:0:
72,278,34691,2,0,L|64:192,2,80,8|0|14,0:0|0:0|0:0,0:0:0:0:
