osu file format v14

[General]
AudioFilename: audio.mp3
AudioLeadIn: 0
PreviewTime: 4684
Countdown: 1
SampleSet: Soft
StackLeniency: 0.4
Mode: 0
LetterboxInBreaks: 0
WidescreenStoryboard: 1

[Editor]
DistanceSpacing: 0.4
BeatDivisor: 4
GridSize: 16
TimelineZoom: 2

[Metadata]
Title:Poudre de Perlimpinpin
TitleUnicode:Poudre de Perlimpinpin
Artist:Emmanuel Macron ft. Marine Le Pen (Khaled Freak Mix)
ArtistUnicode:Emmanuel Macron ft. Marine Le Pen (Khaled Freak Mix)
Creator:Usubiki
Version:Linada's Macron
Source:
Tags:-Kryu- [ IWeenox ] Jager-kun Blowy Fina Hino [Haku] Kyuukai Pomroz Atsuhito Bakkalo val0108 Ezys5 Ameyy Owens Linada Musty [ SnoWin ] Mooha Mitsuna-
BeatmapID:1289705
BeatmapSetID:610054

[Difficulty]
HPDrainRate:4
CircleSize:5.2
OverallDifficulty:8
ApproachRate:9.2
SliderMultiplier:1.6
SliderTickRate:1

[Events]
//Background and Video events
0,0,"macron.jpg",0,0
//Break Periods
2,22890,24944
//Storyboard Layer 0 (Background)
//Storyboard Layer 1 (Fail)
//Storyboard Layer 2 (Pass)
//Storyboard Layer 3 (Foreground)
//Storyboard Sound Samples

[TimingPoints]
449,352.941176470588,4,2,1,30,1,0
5750,352.941176470588,4,2,70,30,1,0
5926,-100,4,2,1,50,0,0
17044,-100,4,2,72,50,0,0
17397,-100,4,2,1,30,0,0
22691,-100,4,2,69,70,0,0
24455,-100,4,2,1,30,0,0
25161,-100,4,2,1,5,0,0
25514,-100,4,2,70,30,0,0
25602,-100,4,2,1,50,0,0
35044,-100,4,2,71,100,0,0

[Colours]
Combo1 : 255,230,151
Combo2 : 170,213,255
Combo3 : 255,193,255
Combo4 : 224,193,255

[HitObjects]
155,345,449,5,0,0:0:0:0:
136,288,801,1,0,0:0:0:0:
117,231,1153,1,0,0:0:0:0:
395,231,1860,5,0,0:0:0:0:
376,288,2212,1,0,0:0:0:0:
357,345,2564,1,0,0:0:0:0:
155,39,3272,5,0,0:0:0:0:
136,96,3624,1,0,0:0:0:0:
117,153,3976,1,0,0:0:0:0:
395,153,4683,5,0,0:0:0:0:
376,96,5035,1,0,0:0:0:0:
357,39,5387,1,0,0:0:0:0:
256,384,5750,5,4,0:0:0:0:
135,327,5926,1,0,0:0:0:0:
291,170,6102,5,0,0:0:0:0:
234,291,6285,1,0,0:0:0:0:
2,103,6455,6,0,P|39:91|79:96,1,80,8|0,0:0|0:0,0:0:0:0:
291,170,6808,2,0,P|251:174|213:162,1,80,8|0,0:0|0:0,0:0:0:0:
337,58,7161,5,2,0:0:0:0:
458,115,7344,1,0,0:0:0:0:
170,227,7514,5,0,0:0:0:0:
291,170,7697,1,0,0:0:0:0:
510,333,7867,6,0,B|468:343|468:343|432:330,1,80,8|0,0:0|0:0,0:0:0:0:
101,144,8220,2,0,B|143:154|143:154|178:141,1,80,8|0,0:0|0:0,0:0:0:0:
342,276,8573,5,2,0:0:0:0:
170,276,8749,1,0,0:0:0:0:
411,144,8926,5,0,0:0:0:0:
101,144,9102,1,0,0:0:0:0:
255,0,9279,6,0,L|256:68,1,80,8|0,0:0|2:0,0:0:0:0:
255,395,9632,2,0,L|256:316,1,80,8|0,0:0|2:0,0:0:0:0:
376,46,9985,5,2,0:0:0:0:
136,46,10161,1,0,2:0:0:0:
426,224,10338,5,0,2:0:0:0:
86,224,10514,1,0,0:0:0:0:
344,110,10691,6,0,P|382:119|418:104,1,80,8|0,2:0|0:0,0:0:0:0:
120,171,11044,2,0,P|81:161|45:176,1,80,8|0,2:0|0:0,0:0:0:0:
376,46,11397,5,2,0:0:0:0:
86,224,11573,1,0,0:0:0:0:
426,224,11749,5,0,0:0:0:0:
136,46,11926,1,0,0:0:0:0:
255,277,12102,6,0,L|255:356,1,80,8|0,0:0|0:0,0:0:0:0:
255,107,12455,2,0,L|255:27,1,80,8|0,0:0|0:0,0:0:0:0:
139,294,12808,5,2,0:0:0:0:
373,294,12985,1,0,0:0:0:0:
136,46,13161,5,0,0:0:0:0:
255,277,13338,1,0,0:0:0:0:
376,46,13514,6,0,P|415:36|456:46,1,80,8|0,0:0|0:0,0:0:0:0:
136,46,13867,2,0,P|97:56|56:46,1,80,8|0,0:0|0:0,0:0:0:0:
413,103,14220,5,2,0:0:0:0:
86,224,14397,1,0,0:0:0:0:
426,224,14573,5,0,0:0:0:0:
87,328,14749,1,0,0:0:0:0:
188,81,14926,6,0,P|200:43|187:6,1,80,8|0,0:0|0:0,0:0:0:0:
35,291,15279,2,0,P|22:328|35:365,1,80,8|0,0:0|0:0,0:0:0:0:
413,103,15632,5,2,0:0:0:0:
87,328,15808,1,0,0:0:0:0:
328,13,15985,5,0,0:0:0:0:
160,373,16161,1,0,0:0:0:0:
56,36,16338,6,0,L|135:45,1,80,8|0,0:0|0:0,0:0:0:0:
456,348,16691,2,0,L|376:357,1,80,8|0,0:0|0:0,0:0:0:0:
160,373,17044,5,10,0:0:0:0:
221,353,17397,1,0,0:0:0:0:
282,335,17749,1,0,0:0:0:0:
343,315,18102,1,0,0:0:0:0:
0,117,18808,5,0,0:0:0:0:
18,178,19160,1,0,0:0:0:0:
38,239,19513,1,0,0:0:0:0:
256,0,19867,5,0,0:0:0:0:
512,267,20220,5,0,0:0:0:0:
494,206,20572,1,0,0:0:0:0:
474,145,20925,1,0,0:0:0:0:
113,270,21632,5,0,0:0:0:0:
256,384,21985,1,0,0:0:0:0:
399,270,22338,2,0,B|371:193|429:194|403:114,1,160,0|0,0:0|0:0,0:0:0:0:
119,319,25514,6,0,L|158:311,1,40,6|0,0:0|0:0,0:0:0:0:
404,263,25691,1,0,0:0:0:0:
176,143,25867,1,0,0:0:0:0:
312,384,26044,1,0,0:0:0:0:
320,120,26220,6,0,L|372:110,1,40,8|0,0:0|0:0,0:0:0:0:
176,143,26397,2,0,L|136:135,1,40,0|0,0:0|0:0,0:0:0:0:
272,250,26573,5,8,0:0:0:0:
237,44,26749,1,0,0:0:0:0:
85,254,26926,6,0,L|124:246,1,40,2|0,0:0|0:0,0:0:0:0:
344,197,27102,1,0,0:0:0:0:
216,370,27279,1,0,0:0:0:0:
176,143,27455,1,0,0:0:0:0:
374,297,27632,6,0,L|413:293,1,40,8|0,0:0|0:0,0:0:0:0:
493,288,27808,1,0,0:0:0:0:
255,306,27985,6,0,L|294:302,1,40,8|0,0:0|0:0,0:0:0:0:
374,297,28161,1,0,0:0:0:0:
136,315,28338,6,0,L|175:311,1,40,2|0,0:0|0:0,0:0:0:0:
493,288,28514,1,0,0:0:0:0:
118,201,28691,1,0,0:0:0:0:
481,174,28867,1,0,0:0:0:0:
130,101,29044,6,0,L|91:91,1,40,8|0,0:0|0:0,0:0:0:0:
91,91,29397,6,0,L|130:101,1,40,8|0,0:0|0:0,0:0:0:0:
213,128,29573,1,0,0:0:0:0:
49,277,29749,6,0,L|88:271,1,40,2|0,0:0|0:0,0:0:0:0:
372,221,29926,1,0,0:0:0:0:
58,158,30102,1,0,0:0:0:0:
294,301,30279,1,0,0:0:0:0:
173,54,30455,5,8,0:0:0:0:
382,311,30632,1,0,0:0:0:0:
91,91,30808,5,8,0:0:0:0:
443,265,30985,1,0,0:0:0:0:
59,340,31161,6,0,L|98:334,1,40,10|8,0:0|0:0,0:0:0:0:
328,361,31338,1,8,0:0:0:0:
42,231,31514,1,0,0:0:0:0:
421,129,31691,1,0,0:0:0:0:
18,99,31867,5,8,0:0:0:0:
463,70,32044,1,0,0:0:0:0:
11,173,32220,5,8,0:0:0:0:
492,198,32397,1,0,0:0:0:0:
67,41,32573,6,0,L|107:46,1,40,10|8,0:0|0:0,0:0:0:0:
403,21,32749,1,8,0:0:0:0:
79,166,32926,1,0,0:0:0:0:
443,265,33102,1,0,0:0:0:0:
98,334,33279,6,0,B|15:325|15:325|47:307,1,120,8|0,0:0|0:0,0:0:0:0:
370,155,33632,6,0,B|453:146|453:146|420:128,1,120,8|0,0:0|0:0,0:0:0:0:
131,31,33985,6,0,L|157:62,1,40,10|8,0:0|0:0,0:0:0:0:
329,347,34161,1,8,0:0:0:0:
369,21,34338,1,0,0:0:0:0:
133,268,34514,1,0,0:0:0:0:
453,146,34691,5,8,0:0:0:0:
121,124,34867,1,0,0:0:0:0:
389,301,35044,1,14,0:0:0:0:soft-hitwhistle72.wav
