osu file format v14

[General]
AudioFilename: audio.mp3
AudioLeadIn: 0
PreviewTime: 4684
Countdown: 1
SampleSet: Normal
StackLeniency: 0.7
Mode: 0
LetterboxInBreaks: 0
WidescreenStoryboard: 1

[Editor]
DistanceSpacing: 2.5
BeatDivisor: 4
GridSize: 4
TimelineZoom: 1.8

[Metadata]
Title:Poudre de Perlimpinpin
TitleUnicode:Poudre de Perlimpinpin
Artist:Emmanuel Macron ft. Marine Le Pen (Khaled Freak Mix)
ArtistUnicode:Emmanuel Macron ft. Marine Le Pen (Khaled Freak Mix)
Creator:Usubiki
Version:Bakkalo's Perlimpinpin
Source:
Tags:-Kryu- [ IWeenox ] Jager-kun Blowy Fina Hino [Haku] Kyuukai Pomroz Atsuhito Bakkalo val0108 Ezys5 Ameyy Owens Linada Musty [ SnoWin ] Mooha Mitsuna-
BeatmapID:1288857
BeatmapSetID:610054

[Difficulty]
HPDrainRate:7
CircleSize:4.6
OverallDifficulty:9
ApproachRate:9.6
SliderMultiplier:2
SliderTickRate:1

[Events]
//Background and Video events
0,0,"Presidentielle-Marine-le-Pen-et-Emmanuel-Macron-les-nouveaux-duellistes-de-la-campagne.jpg",0,0
//Break Periods
//Storyboard Layer 0 (Background)
//Storyboard Layer 1 (Fail)
//Storyboard Layer 2 (Pass)
//Storyboard Layer 3 (Foreground)
//Storyboard Sound Samples

[TimingPoints]
449,352.941176470588,4,1,0,50,1,0
2919,-66.6666666666667,4,1,0,50,0,0
3272,-100,4,1,0,50,0,0
5743,-83.3333333333333,4,1,0,50,0,0
17037,-66.6666666666667,4,1,0,50,0,0
17390,-100,4,1,0,50,0,0
19860,-66.6666666666667,4,1,0,50,0,0
20213,-100,4,1,0,50,0,0
25507,-76.9230769230769,4,1,0,50,0,0

[HitObjects]
157,40,449,5,0,0:0:0:0:
159,136,801,2,0,L|159:251,1,100
233,321,1154,2,0,P|250:270|280:236,1,100
360,113,1860,5,0,0:0:0:0:
332,254,2213,2,0,P|281:288|229:305,1,100
133,264,2566,2,0,P|127:206|143:139,1,100
208,85,2919,6,0,B|222:76|237:72|251:67|271:62|297:73|306:99|310:121|305:143|317:146|315:174|304:198|275:205|245:205|225:188|208:161|198:143|204:119|241:83|266:88|277:144|269:174|231:163|248:123|284:116,1,300.000011444092
94,146,3625,2,0,P|82:224|98:273,1,100
230,340,3978,2,0,P|234:290|222:242,1,100
85,203,4684,5,0,0:0:0:0:
196,157,5037,1,0,0:0:0:0:
307,112,5390,1,0,0:0:0:0:
122,67,5743,6,0,L|163:223,1,119.999996337891
195,313,6096,1,0,0:0:0:0:
285,82,6272,1,0,0:0:0:0:
222,292,6448,6,0,P|289:255|340:216,1,119.999996337891
387,19,6801,2,0,P|334:47|284:81,1,119.999996337891
243,184,7154,5,0,0:0:0:0:
125,34,7331,1,0,0:0:0:0:
78,315,7507,1,0,0:0:0:0:
120,59,7684,1,0,0:0:0:0:
72,340,7860,6,0,P|142:333|191:299,1,119.999996337891
238,150,8213,2,0,P|283:190|319:258,1,119.999996337891
351,347,8566,5,0,0:0:0:0:
436,121,8743,1,0,0:0:0:0:
209,42,8919,1,0,0:0:0:0:
124,268,9096,1,0,0:0:0:0:
330,82,9272,6,0,P|283:39|201:47,1,119.999996337891
172,170,9625,2,0,L|99:65,1,119.999996337891
16,32,9978,5,0,0:0:0:0:
185,278,10154,1,0,0:0:0:0:
213,66,10331,1,0,0:0:0:0:
24,201,10507,1,0,0:0:0:0:
178,98,10684,6,0,P|247:90|326:125,1,119.999996337891
356,207,11037,2,0,L|419:71,1,119.999996337891
476,41,11390,5,0,0:0:0:0:
464,196,11566,1,0,0:0:0:0:
359,312,11743,1,0,0:0:0:0:
204,326,11919,1,0,0:0:0:0:
204,326,12096,6,0,P|138:293|95:232,1,119.999996337891
58,139,12448,2,0,L|200:110,1,119.999996337891
311,83,12801,5,0,0:0:0:0:
301,323,12978,1,0,0:0:0:0:
435,84,13154,1,0,0:0:0:0:
425,324,13331,1,0,0:0:0:0:
256,176,13507,6,0,P|191:151|98:148,1,119.999996337891
21,73,13860,2,0,P|78:44|164:34,1,119.999996337891
267,58,14213,6,0,P|270:119|251:187,1,119.999996337891
164,245,14566,1,0,0:0:0:0:
421,143,14743,1,0,0:0:0:0:
389,276,14919,6,0,L|284:199,1,119.999996337891
189,129,15272,2,0,P|166:201|166:276,1,119.999996337891
207,343,15625,5,0,0:0:0:0:
342,117,15801,1,0,0:0:0:0:
207,343,15978,1,0,0:0:0:0:
342,117,16154,1,0,0:0:0:0:
190,77,16331,6,0,P|209:153|243:199,1,119.999996337891
396,14,16684,2,0,P|367:92|325:127,1,119.999996337891
213,189,17037,6,0,B|184:208|147:215|96:203|54:172|89:81|144:62|202:95|204:129|198:152|167:176|116:166,1,300.000011444092
72,193,17743,5,0,0:0:0:0:
264,50,18096,1,0,0:0:0:0:
281,178,18801,6,0,P|261:266|234:293,1,100
111,310,19154,2,0,P|98:252|108:205,1,100
196,111,19507,1,0,0:0:0:0:
339,112,19860,6,0,B|405:112|437:161|436:202|412:240|382:257|341:248|305:197|313:158|360:151|398:176,1,300.000011444092
488,168,20566,5,0,0:0:0:0:
270,272,20919,1,0,0:0:0:0:
270,272,21625,5,0,0:0:0:0:
179,183,21978,2,0,L|103:97,1,100
168,17,22331,2,0,L|234:91,1,100
256,192,23037,12,0,25154,0:0:0:0:
312,80,25507,6,0,P|370:103|420:163,1,129.999994049073
342,240,25860,1,0,0:0:0:0:
413,28,26037,1,0,0:0:0:0:
342,240,26213,6,0,P|298:311|241:344,1,129.999994049073
107,253,26566,2,0,P|183:231|242:236,1,129.999994049073
427,317,26919,5,0,0:0:0:0:
267,66,27096,1,0,0:0:0:0:
174,353,27272,1,0,0:0:0:0:
27,181,27448,1,0,0:0:0:0:
215,163,27625,6,0,P|281:139|327:74,1,129.999994049073
363,9,27978,1,0,0:0:0:0:
419,293,28154,1,0,0:0:0:0:
257,139,28331,6,0,L|394:156,1,129.999994049073
502,170,28684,1,0,0:0:0:0:
204,347,28860,1,0,0:0:0:0:
149,79,29037,5,0,0:0:0:0:
284,208,29213,1,0,0:0:0:0:
284,208,29390,2,0,L|390:301,1,129.999994049073
464,364,29743,5,0,0:0:0:0:
171,110,29919,1,0,0:0:0:0:
440,347,30096,1,0,0:0:0:0:
196,132,30272,1,0,0:0:0:0:
137,372,30448,6,0,P|210:323|229:253,1,129.999994049073
279,113,30801,2,0,L|338:244,1,129.999994049073
368,328,31154,5,0,0:0:0:0:
118,253,31331,1,0,0:0:0:0:
207,9,31507,1,0,0:0:0:0:
457,84,31684,1,0,0:0:0:0:
254,105,31860,6,0,L|104:121,1,129.999994049073
102,294,32213,2,0,P|158:249|174:189,1,129.999994049073
172,35,32566,5,0,0:0:0:0:
250,283,32743,1,0,0:0:0:0:
254,105,32919,1,0,0:0:0:0:
176,353,33096,1,0,0:0:0:0:
173,159,33272,6,0,P|213:98|274:73,1,129.999994049073
421,32,33625,2,0,L|410:163,1,129.999994049073
397,314,33978,5,0,0:0:0:0:
134,123,34154,1,0,0:0:0:0:
345,127,34331,1,0,0:0:0:0:
82,318,34507,1,0,0:0:0:0:
241,157,34684,5,0,0:0:0:0:
241,341,34860,1,0,0:0:0:0:
241,157,35037,6,0,L|241:27,1,129.999994049073
