osu file format v14

[General]
AudioFilename: audio.mp3
AudioLeadIn: 0
PreviewTime: 175174
Countdown: 1
SampleSet: Soft
StackLeniency: 0.7
Mode: 0
LetterboxInBreaks: 0
WidescreenStoryboard: 0

[Editor]
Bookmarks: 4172,31600,59029,113886,148172,175600,220226
DistanceSpacing: 1.7
BeatDivisor: 12
GridSize: 32
TimelineZoom: 1

[Metadata]
Title:Lost and Found
TitleUnicode:Lost and Found
Artist:Emma Smetana & Jordan Haj
ArtistUnicode:Emma Smetana & Jordan Haj
Creator:Alvieee
Version:Hard
Source:
Tags:
BeatmapID:2071418
BeatmapSetID:990268

[Difficulty]
HPDrainRate:5
CircleSize:5
OverallDifficulty:6
ApproachRate:7
SliderMultiplier:0.900000005960464
SliderTickRate:1

[Events]
//Background and Video events
0,0,"47349.jpg",0,0
//Break Periods
2,86657,98457
//Storyboard Layer 0 (Background)
//Storyboard Layer 1 (Fail)
//Storyboard Layer 2 (Pass)
//Storyboard Layer 3 (Foreground)
//Storyboard Sound Samples

[TimingPoints]
4172,428.571428571429,4,2,1,60,1,0
59029,-76.9230769230769,4,2,1,60,0,1
86457,-100,4,2,1,60,0,0
100922,-100,4,2,1,5,0,0
101029,-100,4,2,1,60,0,0
105564,-100,4,2,1,5,0,0
105743,-100,4,2,1,60,0,0
127600,-100,4,2,1,25,0,0
131029,-100,4,2,1,60,0,0
148172,-76.9230769230769,4,2,1,60,0,1
202172,-100,4,2,1,60,0,0
215860,428.571428571429,4,2,1,60,1,0
217788,-100,4,2,1,5,0,0

[Colours]
Combo1 : 168,96,255
Combo2 : 255,128,192
Combo3 : 109,176,242
Combo4 : 242,109,131

[HitObjects]
98,296,4172,6,0,L|189:307,1,90.0000005960464,2|0,0:0|0:0,0:0:0:0:
323,236,5029,2,0,L|232:225,1,90.0000005960464,8|0,0:0|0:0,0:0:0:0:
165,167,5707,6,0,L|294:142,1,127.500000844399,2|2,0:0|0:0,0:0:0:0:
354,100,6529,1,0,0:0:0:0:
354,100,6743,2,0,L|366:189,1,90.0000005960464,8|0,0:0|0:0,0:0:0:0:
415,263,7422,1,2,0:0:0:0:
442,267,7600,6,0,L|459:177,1,90.0000005960464,2|0,0:0|0:0,0:0:0:0:
487,28,8457,2,0,L|397:39,1,90.0000005960464,8|0,0:0|0:0,0:0:0:0:
325,91,9136,6,0,L|456:112,1,127.500000844399,2|2,0:0|0:0,0:0:0:0:
511,251,10172,2,0,L|421:262,1,90.0000005960464,8|0,0:0|0:0,0:0:0:0:
366,332,10850,1,0,0:0:0:0:
339,328,11029,6,0,L|249:317,1,90.0000005960464,2|0,0:0|0:0,0:0:0:0:
97,297,11886,2,0,L|119:385,1,90.0000005960464,8|0,0:0|0:0,0:0:0:0:
195,338,12564,6,0,L|215:211,1,127.500000844399,2|2,0:0|0:0,0:0:0:0:
228,136,13386,1,0,0:0:0:0:
228,136,13600,2,0,L|137:146,1,90.0000005960464,8|0,0:0|0:0,0:0:0:0:
43,157,14297,1,8,0:0:0:0:
52,140,14457,6,0,L|42:46,1,90.0000005960464,2|0,0:0|0:0,0:0:0:0:
187,1,15314,2,0,L|176:94,1,90.0000005960464,8|0,0:0|0:0,0:0:0:0:
162,178,15993,2,0,L|200:183,1,37.5000002483527,2|0,0:0|0:0,0:0:0:0:
199,182,17886,6,0,P|191:233|200:273,1,90.0000005960464,2|0,0:0|0:0,0:0:0:0:
303,381,18743,2,0,L|392:372,1,90.0000005960464,8|0,0:0|0:0,0:0:0:0:
435,293,19422,6,0,L|304:282,1,127.500000844399,2|0,0:0|0:0,0:0:0:0:
250,205,20297,1,0,0:0:0:0:
252,186,20457,2,0,L|261:97,1,90.0000005960464,8|0,0:0|0:0,0:0:0:0:
332,42,21136,1,2,0:0:0:0:
350,61,21314,6,0,L|359:150,1,90.0000005960464,2|0,0:0|0:0,0:0:0:0:
503,202,22172,2,0,L|512:113,1,90.0000005960464,8|0,0:0|0:0,0:0:0:0:
444,54,22850,6,0,L|430:184,1,127.500000844399,2|2,0:0|0:0,0:0:0:0:
417,269,23707,1,0,0:0:0:0:
414,295,23886,2,0,L|365:287,1,45.0000002980232,8|0,0:0|0:0,0:0:0:0:
312,288,24261,2,0,L|242:301,1,67.5000004470348
188,309,24743,6,0,L|99:296,1,90.0000005960464,2|0,0:0|0:0,0:0:0:0:
1,178,25600,2,0,L|90:165,1,90.0000005960464,8|0,0:0|0:0,0:0:0:0:
124,82,26279,6,0,L|-1:57,1,127.500000844399,2|2,0:0|0:0,0:0:0:0:
0,153,27154,1,0,0:0:0:0:
17,163,27314,2,0,L|75:152,1,56.250000372529,8|0,0:0|0:0,0:0:0:0:
214,115,27993,1,2,0:0:0:0:
240,110,28172,6,0,L|330:122,1,90.0000005960464,2|0,0:0|0:0,0:0:0:0:
481,140,29029,2,0,L|468:51,1,90.0000005960464,8|0,0:0|0:0,0:0:0:0:
393,2,29707,6,0,L|376:128,1,127.500000844399,2|2,0:0|0:0,0:0:0:0:
286,128,30564,1,0,0:0:0:0:
266,110,30743,2,0,P|239:104|219:102,1,45.0000002980232,8|0,0:0|0:0,0:0:0:0:
149,127,31172,2,0,P|129:157|120:182,1,60.0000003973643
106,257,31600,6,0,P|152:250|197:258,1,90.0000005960464,2|0,0:0|0:0,0:0:0:0:
314,205,32457,2,0,P|279:173|260:133,1,90.0000005960464,8|0,0:0|0:0,0:0:0:0:
245,50,33136,6,0,P|239:103|195:161,1,127.500000844399,2|2,0:0|0:0,0:0:0:0:
132,207,33957,1,0,0:0:0:0:
132,207,34172,2,0,P|99:173|87:131,1,90.0000005960464,8|0,0:0|0:0,0:0:0:0:
41,58,34868,1,2,0:0:0:0:
54,47,35029,6,0,P|97:34|144:38,1,90.0000005960464,2|0,0:0|0:0,0:0:0:0:
101,171,35886,2,0,P|99:219|76:258,1,90.0000005960464,8|0,0:0|0:0,0:0:0:0:
0,250,36564,6,0,P|14:195|71:149,1,127.500000844399,2|2,0:0|0:0,0:0:0:0:
141,187,37386,1,0,0:0:0:0:
141,187,37600,2,0,P|174:188|187:185,1,45.0000002980232,8|0,0:0|0:0,0:0:0:0:
230,169,37948,2,0,P|272:189|296:192,1,67.5000004470348,0|8,0:0|0:0,0:0:0:0:
358,179,38457,5,2,0:0:0:0:
358,179,38672,1,0,0:0:0:0:
358,179,39314,2,0,L|352:270,1,90.0000005960464,8|0,0:0|0:0,0:0:0:0:
378,349,39993,1,2,0:0:0:0:
401,365,40171,6,0,P|452:354|482:326,1,90.0000005960464,0|2,0:0|0:0,0:0:0:0:
508,258,40814,1,0,0:0:0:0:
508,258,41029,2,0,P|514:233|516:212,1,45.0000002980232,8|0,0:0|0:0,0:0:0:0:
500,168,41377,2,0,P|511:133|511:92,1,78.7500005215406,0|2,0:0|0:0,0:0:0:0:
497,44,41886,5,2,0:0:0:0:
497,44,42100,1,0,0:0:0:0:
497,44,42743,2,0,L|436:50,1,61.8750004097819,8|0,0:0|0:0,0:0:0:0:
387,56,43171,5,8,0:0:0:0:
293,34,43439,1,2,0:0:0:0:
211,216,44029,5,10,0:0:0:0:
302,174,44297,1,0,0:0:0:0:
308,155,44457,5,8,0:0:0:0:
236,127,44672,1,0,0:0:0:0:
163,101,44886,1,0,0:0:0:0:
82,71,45136,1,8,0:0:0:0:
71,96,45314,6,0,P|61:130|59:158,1,60.0000003973643,2|0,0:0|0:0,0:0:0:0:
57,205,45743,2,0,P|55:235|48:262,1,52.5000003476937
27,317,46172,2,0,P|60:340|109:343,1,90.0000005960464,8|0,0:0|0:0,0:0:0:0:
167,263,46841,1,2,0:0:0:0:
186,244,47029,6,0,P|213:239|240:242,1,50.6250003352761
267,310,47457,1,2,0:0:0:0:
267,310,47886,6,0,L|262:359,2,45.0000002980232,8|0|0,0:0|0:0|0:0,0:0:0:0:
343,209,48743,6,0,P|374:227|385:242,1,50.6250003352761,2|0,0:0|0:0,0:0:0:0:
402,302,49172,2,0,P|402:347|408:366,1,61.8750004097819
452,378,49600,2,0,P|491:351|498:337,1,61.8750004097819,8|0,0:0|0:0,0:0:0:0:
490,291,50029,1,0,0:0:0:0:
418,227,50297,1,2,0:0:0:0:
404,215,50457,6,0,P|395:162|405:124,1,90.0000005960464,0|2,0:0|0:0,0:0:0:0:
488,0,51314,2,0,P|465:60|447:75,1,90.0000005960464,8|0,0:0|0:0,0:0:0:0:
348,127,51993,1,8,0:0:0:0:
325,109,52172,6,0,P|268:112|243:136,1,90.0000005960464,2|0,0:0|0:0,0:0:0:0:
284,198,52814,1,0,0:0:0:0:
284,198,53029,2,0,P|300:260|294:285,1,90.0000005960464,8|0,0:0|0:0,0:0:0:0:
247,357,53698,6,0,P|291:308|324:296,1,101.250000670552,2|0,0:0|0:0,0:0:0:0:
370,295,54314,1,2,0:0:0:0:
506,364,54743,2,0,P|467:357|447:363,1,56.2500003352761,8|0,0:0|0:0,0:0:0:0:
397,380,55172,2,0,P|374:386|337:382,1,56.2500003352761,0|2,0:0|0:0,0:0:0:0:
300,342,55600,5,2,0:0:0:0:
229,371,55814,1,0,0:0:0:0:
153,355,56029,2,0,P|117:336|105:320,1,56.2500003352761
107,266,56457,2,0,P|93:317|96:356,1,90.0000005960464,8|0,0:0|0:0,0:0:0:0:
0,339,57154,1,2,0:0:0:0:
14,331,57314,6,0,P|25:297|24:273,1,56.2500003352761,0|8,0:0|0:0,0:0:0:0:
4,222,57743,1,2,0:0:0:0:
37,153,57957,1,0,0:0:0:0:
109,128,58172,2,0,P|164:124|197:138,1,90.0000005960464,8|8,0:0|0:0,0:0:0:0:
259,213,58868,1,8,0:0:0:0:
277,218,59029,6,0,P|324:205|380:112,1,155.999993892034,6|0,0:0|0:0,0:0:0:0:
298,0,59886,2,0,P|269:55|280:117,1,116.999995419026,8|0,0:0|0:0,0:0:0:0:
377,127,60564,1,2,0:0:0:0:
393,148,60743,6,0,L|384:269,1,116.999995419026,0|2,0:0|0:0,0:0:0:0:
224,382,61600,2,0,L|215:261,1,116.999995419026,8|0,0:0|0:0,0:0:0:0:
237,150,62279,1,2,0:0:0:0:
242,124,62457,6,0,P|202:138|104:111,1,146.249994273782,2|0,0:0|0:0,0:0:0:0:
203,0,63314,2,0,P|219:54|203:120,1,116.999995419026,8|0,0:0|0:0,0:0:0:0:
134,203,63993,1,2,0:0:0:0:
116,221,64172,6,0,L|0:212,1,116.999995419026,0|2,0:0|0:0,0:0:0:0:
73,26,65029,2,0,L|64:142,1,116.999995419026,8|0,0:0|0:0,0:0:0:0:
51,257,65707,1,0,0:0:0:0:
67,278,65886,6,0,P|98:298|194:295,1,136.49999465553,2|0,0:0|0:0,0:0:0:0:
301,168,66743,2,0,P|345:144|411:148,1,116.999995419026,8|0,0:0|0:0,0:0:0:0:
511,205,67413,1,2,0:0:0:0:
497,181,67600,6,0,L|504:61,1,116.999995419026,0|2,0:0|0:0,0:0:0:0:
315,0,68457,2,0,L|321:116,1,116.999995419026,8|0,0:0|0:0,0:0:0:0:
324,227,69154,1,2,0:0:0:0:
313,213,69314,6,0,P|273:197|199:217,1,116.999995419026,2|0,0:0|0:0,0:0:0:0:
301,384,70172,2,0,P|339:347|351:285,1,116.999995419026,8|0,0:0|0:0,0:0:0:0:
235,289,70868,5,10,0:0:0:0:
238,308,71029,1,0,0:0:0:0:
158,217,71297,5,8,0:0:0:0:
161,198,71458,1,2,0:0:0:0:
162,314,71725,5,0,0:0:0:0:
143,317,71886,1,8,0:0:0:0:
238,203,72154,5,0,0:0:0:0:
257,206,72314,2,0,L|294:201,2,36.5624985684455
259,130,72743,6,0,P|270:81|254:-8,1,136.49999465553,2|0,0:0|0:0,0:0:0:0:
86,22,73600,2,0,P|141:60|191:60,1,116.999995419026,8|0,0:0|0:0,0:0:0:0:
135,127,74279,1,2,0:0:0:0:
119,148,74457,6,0,L|128:269,1,116.999995419026,0|2,0:0|0:0,0:0:0:0:
288,382,75314,2,0,L|297:261,1,116.999995419026,8|0,0:0|0:0,0:0:0:0:
275,150,75993,1,2,0:0:0:0:
270,124,76172,6,0,P|310:138|408:111,1,146.249994273782,2|0,0:0|0:0,0:0:0:0:
309,0,77029,2,0,P|293:54|309:120,1,116.999995419026,8|0,0:0|0:0,0:0:0:0:
382,209,77725,1,2,0:0:0:0:
396,220,77886,6,0,L|512:211,1,116.999995419026,0|2,0:0|0:0,0:0:0:0:
439,26,78743,2,0,L|448:142,1,116.999995419026,8|0,0:0|0:0,0:0:0:0:
461,257,79422,1,0,0:0:0:0:
445,278,79600,6,0,P|414:298|318:295,1,136.49999465553,2|0,0:0|0:0,0:0:0:0:
211,168,80457,2,0,P|167:144|101:148,1,116.999995419026,8|0,0:0|0:0,0:0:0:0:
3,204,81128,1,2,0:0:0:0:
15,181,81314,6,0,L|8:61,1,116.999995419026,0|2,0:0|0:0,0:0:0:0:
197,0,82172,2,0,L|190:116,1,116.999995419026,8|0,0:0|0:0,0:0:0:0:
185,226,82868,1,2,0:0:0:0:
199,213,83029,6,0,P|239:197|313:217,1,116.999995419026,2|0,0:0|0:0,0:0:0:0:
211,384,83886,2,0,P|173:347|161:285,1,116.999995419026,8|0,0:0|0:0,0:0:0:0:
277,289,84582,5,10,0:0:0:0:
274,308,84743,1,0,0:0:0:0:
354,217,85011,5,8,0:0:0:0:
351,198,85172,1,2,0:0:0:0:
350,314,85439,5,0,0:0:0:0:
369,317,85600,1,8,0:0:0:0:
274,203,85868,5,0,0:0:0:0:
255,206,86029,2,0,L|219:201,2,36.5624985684455
226,273,86457,5,2,0:0:0:0:
174,196,100172,6,0,B|180:233|180:233|185:254|201:273|240:266|248:240|244:218|244:218|241:199,1,157.500001043081,2|0,0:0|0:0,0:0:0:0:
239,187,101029,2,0,P|236:137|253:100,1,90.0000005960464,8|0,0:0|0:0,0:0:0:0:
323,47,101707,1,2,0:0:0:0:
345,65,101886,6,0,P|370:101|377:149,1,90.0000005960464,0|2,0:0|0:0,0:0:0:0:
358,220,102529,1,0,0:0:0:0:
358,220,102743,2,0,L|453:211,1,90.0000005960464,8|0,0:0|0:0,0:0:0:0:
511,282,103439,1,2,0:0:0:0:
495,290,103600,6,0,L|400:299,1,90.0000005960464,2|0,0:0|0:0,0:0:0:0:
252,308,104457,2,0,B|256:263|256:263|240:221,1,90.0000005960464,8|0,0:0|0:0,0:0:0:0:
199,140,105136,6,0,L|288:148,1,90.0000005960464,2|0,0:0|0:0,0:0:0:0:
352,154,105743,1,2,0:0:0:0:
446,33,106172,2,0,P|414:23|391:22,1,56.250000372529,8|0,0:0|0:0,0:0:0:0:
338,45,106600,2,0,P|306:55|283:56,1,56.250000372529
230,31,107029,6,0,P|248:83|245:120,1,90.0000005960464,2|0,0:0|0:0,0:0:0:0:
109,186,107886,2,0,L|118:93,1,90.0000005960464,8|0,0:0|0:0,0:0:0:0:
45,43,108564,1,2,0:0:0:0:
28,55,108743,6,0,L|36:144,1,90.0000005960464,0|2,0:0|0:0,0:0:0:0:
53,297,109600,2,0,P|84:323|131:333,1,90.0000005960464,8|0,0:0|0:0,0:0:0:0:
218,291,110297,1,2,0:0:0:0:
231,276,110457,6,0,P|262:250|309:240,1,90.0000005960464,2|0,0:0|0:0,0:0:0:0:
445,312,111314,2,0,L|451:220,1,90.0000005960464,8|0,0:0|0:0,0:0:0:0:
396,139,112011,1,2,0:0:0:0:
376,141,112172,6,0,L|283:147,1,90.0000005960464,0|2,0:0|0:0,0:0:0:0:
186,120,113029,2,0,L|128:114,1,56.250000372529,8|0,0:0|0:0,0:0:0:0:
93,159,113457,2,0,P|97:195|105:216,1,56.250000372529
141,257,113886,6,0,B|182:261|182:261|230:245,1,90.0000005960464,2|0,0:0|0:0,0:0:0:0:
324,147,114743,2,0,P|365:197|372:222,1,90.0000005960464,8|0,0:0|0:0,0:0:0:0:
366,307,115413,6,0,P|390:258|378:182,1,129.375000856817,2|2,0:0|0:0,0:0:0:0:
329,129,116243,1,0,0:0:0:0:
256,106,116457,1,8,0:0:0:0:
256,106,116672,1,0,0:0:0:0:
125,217,117154,1,8,0:0:0:0:
113,233,117314,6,0,P|108:273|131:319,1,90.0000005960464,2|0,0:0|0:0,0:0:0:0:
269,378,118172,2,0,P|221:368|181:378,1,90.0000005960464,8|0,0:0|0:0,0:0:0:0:
86,383,118868,6,0,P|18:352|1:308,1,123.750000819564,2|2,0:0|0:0,0:0:0:0:
111,203,119886,2,0,P|109:239|99:264,1,61.8750004097819,8|0,0:0|0:0,0:0:0:0:
60,289,120314,2,0,P|36:266|26:245,1,56.250000372529
13,189,120743,6,0,P|15:153|20:131,1,56.250000372529,2|0,0:0|0:0,0:0:0:0:
54,87,121172,1,0,0:0:0:0:
144,151,121439,1,0,0:0:0:0:
154,134,121600,2,0,P|150:74|135:49,1,90.0000005960464,8|0,0:0|0:0,0:0:0:0:
49,37,122270,6,0,P|105:41|169:2,1,129.375000856817,2|2,0:0|0:0,0:0:0:0:
355,0,123314,2,0,P|384:10|409:31,1,61.8750004097819,8|0,0:0|0:0,0:0:0:0:
420,76,123743,2,0,P|460:74|506:91,1,90.0000005960464,0|2,0:0|0:0,0:0:0:0:
494,243,124600,5,0,0:0:0:0:
449,319,124850,1,0,0:0:0:0:
437,295,125029,2,0,P|396:272|357:269,1,84.3750005587935,8|0,0:0|0:0,0:0:0:0:
286,193,125725,6,0,P|283:246|263:278,1,90.0000005960464,2|8,0:0|0:0,0:0:0:0:
219,313,126314,1,2,0:0:0:0:
157,187,126743,2,0,P|179:209|189:235,1,56.250000372529,8|0,0:0|0:0,0:0:0:0:
185,290,127172,2,0,L|183:322,2,28.1250001862645
239,272,127600,5,0,0:0:0:0:
375,353,128029,1,0,0:0:0:0:
475,281,128457,1,0,0:0:0:0:
446,189,128886,1,0,0:0:0:0:
353,181,129314,1,0,0:0:0:0:
326,252,129743,1,0,0:0:0:0:
364,286,130172,1,0,0:0:0:0:
404,273,130600,1,0,0:0:0:0:
357,63,131029,5,4,0:0:0:0:
137,55,131456,5,4,0:0:0:0:
70,244,131886,5,4,0:0:0:0:
257,349,132314,5,4,0:0:0:0:
378,272,132582,5,8,0:0:0:0:
366,257,132743,1,8,0:0:0:0:
233,253,133011,5,2,0:0:0:0:
250,243,133172,1,2,0:0:0:0:
230,126,133456,5,8,0:0:0:0:
212,135,133599,1,8,0:0:0:0:
195,145,133742,1,2,0:0:0:0:
177,154,133885,1,2,0:0:0:0:
160,164,134028,2,0,P|142:187|139:216,1,53.125,2|0,0:0|0:0,0:0:0:0:
151,271,134456,6,0,P|160:310|155:331,1,53.125,2|0,0:0|0:0,0:0:0:0:
113,366,134885,2,0,P|73:377|54:373,1,53.125
23,325,135314,2,0,P|13:296|26:236,1,90.0000005960464,8|0,0:0|0:0,0:0:0:0:
103,187,135993,1,2,0:0:0:0:
128,195,136171,6,0,P|155:200|176:198,1,45.0000002980232
234,155,136600,1,2,0:0:0:0:
234,155,137029,2,0,P|234:112|213:71,1,90.0000005960464,8|0,0:0|0:0,0:0:0:0:
68,121,137886,6,0,P|93:134|113:137,1,45.0000002980232,2|0,0:0|0:0,0:0:0:0:
156,76,138314,2,0,P|150:46|142:33,1,45.0000002980232
67,20,138743,2,0,P|44:42|35:57,2,45.0000002980232,8|0|0,0:0|0:0|0:0,0:0:0:0:
68,121,139439,1,2,0:0:0:0:
82,133,139600,6,0,P|91:186|79:223,1,90.0000005960464,0|2,0:0|0:0,0:0:0:0:
59,371,140457,2,0,L|11:374,2,45.0000002980232,8|0|0,0:0|0:0|0:0,0:0:0:0:
128,305,141154,1,8,0:0:0:0:
141,319,141314,6,0,P|200:319|224:300,1,90.0000005960464,2|0,0:0|0:0,0:0:0:0:
214,209,141993,1,0,0:0:0:0:
198,189,142172,2,0,P|182:127|187:99,1,90.0000005960464,8|0,0:0|0:0,0:0:0:0:
240,35,142841,6,0,P|198:73|161:80,1,95.6250006332993,2|0,0:0|0:0,0:0:0:0:
104,72,143457,1,2,0:0:0:0:
12,17,143886,2,0,P|51:24|70:21,1,56.250000372529,8|0,0:0|0:0,0:0:0:0:
121,3,144314,2,0,P|144:-3|177:1,1,56.250000372529,0|2,0:0|0:0,0:0:0:0:
221,35,144743,5,2,0:0:0:0:
290,3,144957,1,0,0:0:0:0:
363,24,145172,2,0,P|392:40|399:49,1,45.0000002980232
426,120,145600,2,0,P|429:71|448:35,1,90.0000005960464,8|0,0:0|0:0,0:0:0:0:
511,109,146297,1,2,0:0:0:0:
512,129,146457,6,0,P|503:162|490:181,1,56.250000372529,0|8,0:0|0:0,0:0:0:0:
434,194,146886,1,2,0:0:0:0:
359,209,147100,1,0,0:0:0:0:
311,268,147314,2,0,P|256:272|221:259,1,90.0000005960464,8|8,0:0|0:0,0:0:0:0:
187,167,148011,1,8,0:0:0:0:
177,148,148172,6,0,P|130:135|76:70,1,131.624994846404,6|0,0:0|0:0,0:0:0:0:
214,0,149029,2,0,P|243:55|232:117,1,116.999995419026,8|0,0:0|0:0,0:0:0:0:
135,127,149707,1,2,0:0:0:0:
119,148,149886,6,0,L|128:269,1,116.999995419026,0|2,0:0|0:0,0:0:0:0:
288,382,150743,2,0,L|297:261,1,116.999995419026,8|0,0:0|0:0,0:0:0:0:
275,150,151422,1,0,0:0:0:0:
270,125,151600,6,0,P|310:144|397:135,1,131.624994846404,2|0,0:0|0:0,0:0:0:0:
309,0,152457,2,0,P|293:54|309:120,1,116.999995419026,8|0,0:0|0:0,0:0:0:0:
375,203,153136,1,2,0:0:0:0:
396,220,153315,6,0,L|512:211,1,116.999995419026,0|2,0:0|0:0,0:0:0:0:
439,26,154172,2,0,L|448:142,1,116.999995419026,8|0,0:0|0:0,0:0:0:0:
461,257,154850,1,0,0:0:0:0:
445,278,155029,6,0,P|414:298|318:295,1,136.49999465553,2|0,0:0|0:0,0:0:0:0:
211,168,155886,2,0,P|167:144|101:148,1,116.999995419026,8|0,0:0|0:0,0:0:0:0:
1,205,156556,1,2,0:0:0:0:
15,181,156743,6,0,L|8:61,1,116.999995419026,0|2,0:0|0:0,0:0:0:0:
197,0,157600,2,0,L|191:116,1,116.999995419026,8|0,0:0|0:0,0:0:0:0:
188,226,158297,1,2,0:0:0:0:
199,213,158457,6,0,P|239:197|313:217,1,116.999995419026,2|0,0:0|0:0,0:0:0:0:
211,384,159315,2,0,P|173:347|161:285,1,116.999995419026,8|0,0:0|0:0,0:0:0:0:
265,218,160011,5,10,0:0:0:0:
262,238,160172,2,0,L|380:221,1,116.999995419026,0|2,0:0|0:0,0:0:0:0:
350,314,160868,5,0,0:0:0:0:
369,317,161029,1,8,0:0:0:0:
275,203,161297,5,0,0:0:0:0:
255,206,161457,2,0,L|218:201,2,36.5624985684455
253,130,161886,6,0,P|242:81|256:-4,1,136.49999465553,2|0,0:0|0:0,0:0:0:0:
426,22,162743,2,0,P|371:60|321:60,1,116.999995419026,8|0,0:0|0:0,0:0:0:0:
377,127,163422,1,2,0:0:0:0:
393,148,163600,6,0,L|384:269,1,116.999995419026,0|2,0:0|0:0,0:0:0:0:
305,325,164243,1,0,0:0:0:0:
224,382,164457,2,0,L|215:261,1,116.999995419026,8|0,0:0|0:0,0:0:0:0:
237,150,165136,1,2,0:0:0:0:
242,124,165314,6,0,P|202:138|106:116,1,138.937494560093,2|0,0:0|0:0,0:0:0:0:
203,0,166172,2,0,P|219:54|203:120,1,116.999995419026,8|8,0:0|0:0,0:0:0:0:
66,34,166814,1,8,0:0:0:0:
179,185,167029,5,8,0:0:0:0:
82,19,167243,1,8,0:0:0:0:
106,194,167457,1,10,0:0:0:0:
149,94,167672,1,8,0:0:0:0:
73,265,167886,5,8,0:0:0:0:
53,131,168100,1,0,0:0:0:0:
94,261,168314,1,0,0:0:0:0:
16,190,168529,1,0,0:0:0:0:
115,257,168743,6,0,P|146:277|242:274,1,136.49999465553,2|0,0:0|0:0,0:0:0:0:
312,123,169600,2,0,P|360:106|424:124,1,116.999995419026,8|0,0:0|0:0,0:0:0:0:
511,205,170271,1,2,0:0:0:0:
497,181,170457,6,0,L|504:61,1,116.999995419026,0|2,0:0|0:0,0:0:0:0:
315,0,171314,2,0,L|322:116,1,116.999995419026,8|0,0:0|0:0,0:0:0:0:
332,232,171985,1,2,0:0:0:0:
313,213,172172,6,0,P|273:197|199:217,1,116.999995419026,2|0,0:0|0:0,0:0:0:0:
301,384,173029,2,0,P|339:347|351:285,1,116.999995419026,8|0,0:0|0:0,0:0:0:0:
235,289,173725,5,10,0:0:0:0:
238,309,173886,2,0,L|122:322,1,116.999995419026,0|2,0:0|0:0,0:0:0:0:
122,205,174582,5,0,0:0:0:0:
102,208,174743,1,8,0:0:0:0:
110,95,175011,5,0,0:0:0:0:
129,98,175172,2,0,L|166:93,2,36.5624985684455,8|0|8,0:0|0:0|0:0,0:0:0:0:
62,47,175600,6,0,P|18:78|12:143,1,116.999995419026,6|0,0:0|0:0,0:0:0:0:
176,194,176457,2,0,P|158:147|93:126,1,116.999995419026,8|0,0:0|0:0,0:0:0:0:
46,222,177154,6,0,L|50:330,1,102.374995991647,2|0,0:0|0:0,0:0:0:0:
132,356,177743,1,2,0:0:0:0:
0,376,177957,1,0,0:0:0:0:
136,242,178172,1,8,0:0:0:0:
201,302,178386,1,0,0:0:0:0:
66,298,178600,2,0,L|64:235,1,58.4999977095128
101,160,179029,6,0,P|174:154|208:180,1,116.999995419026,2|0,0:0|0:0,0:0:0:0:
333,299,179886,2,0,P|381:236|381:202,1,116.999995419026,8|8,0:0|0:0,0:0:0:0:
294,55,180529,1,10,0:0:0:0:
289,215,180743,5,8,0:0:0:0:
391,138,180957,1,8,0:0:0:0:
230,157,181172,1,10,0:0:0:0:
350,270,181386,1,0,0:0:0:0:
283,100,181600,5,8,0:0:0:0:
268,251,181814,1,0,0:0:0:0:
292,117,182029,1,0,0:0:0:0:
188,233,182243,1,0,0:0:0:0:
294,137,182457,6,0,P|311:66|292:29,1,116.999995419026,2|0,0:0|0:0,0:0:0:0:
117,42,183314,2,0,P|174:90|212:87,1,116.999995419026,8|0,0:0|0:0,0:0:0:0:
282,1,184011,6,0,L|382:18,1,102.374995991647,2|0,0:0|0:0,0:0:0:0:
471,34,184600,1,2,0:0:0:0:
414,116,184814,1,0,0:0:0:0:
512,253,185029,1,8,0:0:0:0:
463,186,185243,1,0,0:0:0:0:
378,286,185457,2,0,P|381:333|397:359,1,73.124997136891,0|2,0:0|0:0,0:0:0:0:
426,378,185886,6,0,P|466:336|468:275,1,116.999995419026,2|0,0:0|0:0,0:0:0:0:
389,123,186743,2,0,P|447:152|496:142,1,116.999995419026,8|0,0:0|0:0,0:0:0:0:
465,36,187439,1,10,0:0:0:0:
452,48,187600,6,0,L|331:42,1,116.999995419026,0|2,0:0|0:0,0:0:0:0:
166,101,188457,2,0,L|244:94,1,73.124997136891,8|0,0:0|0:0,0:0:0:0:
307,95,188886,2,0,L|346:100,2,36.5624985684455,8|0|0,0:0|0:0|0:0,0:0:0:0:
274,152,189314,6,0,P|278:217|315:252,1,116.999995419026,6|0,0:0|0:0,0:0:0:0:
461,345,190172,2,0,P|406:346|361:385,1,116.999995419026,8|0,0:0|0:0,0:0:0:0:
294,296,190868,6,0,L|195:305,1,95.0624962779583,2|0,0:0|0:0,0:0:0:0:
99,312,191457,1,2,0:0:0:0:
139,230,191672,1,0,0:0:0:0:
206,384,191886,1,8,0:0:0:0:
115,324,192100,1,0,0:0:0:0:
290,330,192314,2,0,P|331:317|351:295,1,73.124997136891,0|2,0:0|0:0,0:0:0:0:
366,230,192743,6,0,P|308:223|268:181,1,116.999995419026,2|0,0:0|0:0,0:0:0:0:
346,25,193600,2,0,P|367:102|350:138,1,116.999995419026,8|8,0:0|0:0,0:0:0:0:
197,175,194243,1,10,0:0:0:0:
371,232,194457,5,8,0:0:0:0:
270,271,194672,1,8,0:0:0:0:
448,205,194886,1,10,0:0:0:0:
290,282,195100,1,8,0:0:0:0:
420,111,195314,5,8,0:0:0:0:
371,302,195529,1,0,0:0:0:0:
350,147,195743,1,0,0:0:0:0:
386,284,195957,1,0,0:0:0:0:
315,212,196172,6,0,P|371:218|418:178,1,116.999995419026,2|0,0:0|0:0,0:0:0:0:
336,24,197029,2,0,P|323:94|348:133,1,116.999995419026,8|0,0:0|0:0,0:0:0:0:
441,158,197725,6,0,L|433:260,1,102.374995991647,2|0,0:0|0:0,0:0:0:0:
483,337,198314,1,2,0:0:0:0:
388,341,198529,1,0,0:0:0:0:
512,200,198743,1,8,0:0:0:0:
450,270,198957,1,0,0:0:0:0:
458,125,199172,2,0,P|416:108|385:110,1,73.124997136891,0|2,0:0|0:0,0:0:0:0:
330,137,199600,6,0,P|282:155|221:130,1,116.999995419026,2|0,0:0|0:0,0:0:0:0:
104,2,200457,2,0,P|129:51|111:111,1,116.999995419026,8|0,0:0|0:0,0:0:0:0:
12,151,201154,1,2,0:0:0:0:
25,164,201314,6,0,L|31:286,1,116.999995419026,0|2,0:0|0:0,0:0:0:0:
92,371,202011,1,0,0:0:0:0:
99,354,202172,1,8,0:0:0:0:
242,125,203029,6,0,P|293:110|330:114,1,90.0000005960464,2|0,0:0|0:0,0:0:0:0:
374,260,203886,2,0,P|325:238|306:207,1,90.0000005960464,8|0,0:0|0:0,0:0:0:0:
320,132,204529,1,2,0:0:0:0:
320,132,204743,6,0,P|313:72|296:47,1,90.0000005960464,0|2,0:0|0:0,0:0:0:0:
144,32,205600,2,0,P|121:56|106:110,1,90.0000005960464,8|0,0:0|0:0,0:0:0:0:
186,161,206297,1,2,0:0:0:0:
195,177,206457,6,0,L|188:268,1,90.0000005960464,2|0,0:0|0:0,0:0:0:0:
46,325,207314,2,0,P|5:280|0:249,1,90.0000005960464,8|0,0:0|0:0,0:0:0:0:
39,165,208011,6,0,P|20:223|31:283,1,123.750000819564,2|2,0:0|0:0,0:0:0:0:
146,383,209029,2,0,P|186:359|229:357,1,90.0000005960464,8|0,0:0|0:0,0:0:0:0:
321,377,209725,1,8,0:0:0:0:
338,384,209886,6,0,P|385:380|421:355,1,90.0000005960464,2|0,0:0|0:0,0:0:0:0:
332,230,210743,2,0,P|341:291|358:314,1,90.0000005960464,8|0,0:0|0:0,0:0:0:0:
451,300,211439,1,2,0:0:0:0:
464,287,211600,6,0,P|467:246|447:200,1,90.0000005960464,0|2,0:0|0:0,0:0:0:0:
333,100,212457,2,0,P|369:40|387:29,1,90.0000005960464,8|0,0:0|0:0,0:0:0:0:
480,22,213154,1,2,0:0:0:0:
490,38,213314,6,0,L|496:132,1,90.0000005960464,2|0,0:0|0:0,0:0:0:0:
369,214,214172,2,0,P|299:205|283:192,1,90.0000005960464,8|0,0:0|0:0,0:0:0:0:
240,109,214868,6,0,P|250:158|221:224,1,123.750000819564,2|2,0:0|0:0,0:0:0:0:
170,88,215859,2,0,P|214:41|243:34,1,95.6250006332993,8|0,0:0|0:0,0:0:0:0:
319,42,216556,1,8,0:0:0:0:
330,56,216717,5,0,0:0:0:0:
282,174,217145,1,0,0:0:0:0:
255,0,217574,1,8,0:0:0:0:
256,192,217788,12,0,220226,0:0:0:0:
