osu file format v14

[General]
AudioFilename: audio.mp3
AudioLeadIn: 0
PreviewTime: 118864
Countdown: 0
SampleSet: Drum
StackLeniency: 0.7
Mode: 2
LetterboxInBreaks: 0
WidescreenStoryboard: 1

[Editor]
Bookmarks: 1820,11278,20736,39652,47336,67435,76893,93149,96695,109701,119159,140440,158174,159947
DistanceSpacing: 1.1
BeatDivisor: 2
GridSize: 4
TimelineZoom: 2.2

[Metadata]
Title:oni
TitleUnicode:鬼
Artist:Emiru no Aishita Tsukiyo ni Dai San Gensou Kyoku wo
ArtistUnicode:エミルの愛した月夜に第III幻想曲を
Creator:JBHyperion
Version:Salad
Source:
Tags:2021 Featured Artist Summer Cup Emiru3 Emille's Moonlight Serenade サラ Sala 荊 いばら Ibara Ito japanese symphonic rock metal doujin
BeatmapID:3199937
BeatmapSetID:1560338

[Difficulty]
HPDrainRate:4
CircleSize:2.5
OverallDifficulty:7.1
ApproachRate:7.1
SliderMultiplier:1.45
SliderTickRate:1

[Events]
//Background and Video events
0,0,"68547250_p0_waifu2x_1920x1200.jpg",0,0
//Break Periods
2,109901,112363
//Storyboard Layer 0 (Background)
//Storyboard Layer 1 (Fail)
//Storyboard Layer 2 (Pass)
//Storyboard Layer 3 (Foreground)
//Storyboard Layer 4 (Overlay)
//Storyboard Sound Samples

[TimingPoints]
637,295.566502463054,4,3,1,80,1,0
1376,-100,4,2,1,100,0,0
1819,-100,4,2,2,80,0,0
3444,-100,4,2,7,100,0,0
3592,-100,4,2,2,80,0,0
5513,-100,4,2,7,100,0,0
5661,-100,4,2,2,80,0,0
5809,-100,4,2,7,100,0,0
5957,-100,4,2,2,80,0,0
6548,-100,4,2,2,80,0,0
6843,-100,4,2,2,80,0,0
8173,-100,4,2,7,100,0,0
8321,-100,4,2,2,80,0,0
8912,-100,4,3,2,60,0,0
9503,-100,4,3,2,70,0,0
10095,-100,4,3,1,80,0,0
12016,-100,4,3,10,60,0,0
12164,-100,4,3,1,80,0,0
14380,-100,4,3,10,60,0,0
14528,-100,4,3,1,80,0,0
16745,-100,4,3,10,60,0,0
16893,-100,4,3,1,80,0,0
19701,-100,4,2,1,60,0,0
20735,-100,4,3,1,80,0,0
31523,-100,4,3,10,60,0,0
31671,-100,4,3,1,80,0,0
37435,-100,4,3,10,60,0,0
37583,-100,4,3,1,80,0,0
38469,-100,4,3,1,60,0,0
39060,-100,4,3,1,70,0,0
39652,295.566502463054,3,3,1,80,1,0
40390,-100,3,3,11,60,0,0
40538,-100,3,3,1,80,0,0
41129,-100,3,3,1,90,0,0
41351,-100,3,3,1,80,0,0
42903,-100,3,3,1,80,0,0
43124,-100,3,2,1,10,0,0
43198,-100,3,3,1,80,0,0
44676,-100,3,3,1,80,0,0
44898,-100,3,3,1,80,0,0
44972,295.566502463054,4,3,1,80,1,0
47040,-100,4,3,3,80,0,0
47336,-100,4,3,1,90,0,1
47484,-100,4,3,1,90,0,1
50883,-100,4,3,1,80,0,0
51178,-100,4,3,1,90,0,0
51474,-100,4,3,1,80,0,0
51770,-100,4,3,2,70,0,0
52065,-100,4,3,1,90,0,1
52213,-100,4,3,1,90,0,1
55612,-100,4,3,1,90,0,0
55907,-100,4,3,1,80,0,0
56203,-100,4,3,1,70,0,0
56499,-100,4,3,2,70,0,0
56794,-100,4,3,1,90,0,1
56942,-100,4,3,1,90,0,1
60341,-100,4,3,1,80,0,0
60637,-100,4,3,1,90,0,0
60932,-100,4,3,1,80,0,0
61228,-100,4,3,2,70,0,0
61523,-100,4,3,1,90,0,1
61819,-100,4,3,1,90,0,1
64036,-100,4,2,7,90,0,1
64183,-100,4,3,1,90,0,1
64627,-100,4,2,7,90,0,1
64774,-100,4,3,1,90,0,1
65070,-100,4,3,1,90,0,0
65366,-100,4,3,1,80,0,0
65661,-100,4,3,1,70,0,0
65957,-100,4,3,1,80,0,0
66252,-100,4,2,1,70,0,0
66843,-100,4,3,2,80,0,0
67139,-100,4,3,1,80,0,0
67361,-100,4,2,1,10,0,0
67435,-100,4,3,1,80,0,0
76597,-100,4,3,1,80,0,0
76745,-100,4,3,1,80,0,0
76893,295.566502463054,7,3,1,70,1,0
78075,-100,7,3,2,80,0,0
78666,-100,7,3,1,90,0,0
78888,-100,7,2,1,10,0,0
78961,-100,7,3,1,80,0,0
80144,-100,7,3,2,80,0,0
80735,-100,7,3,1,80,0,0
80957,-100,7,2,1,10,0,0
81030,-100,7,3,1,80,0,0
82213,-100,7,3,2,80,0,0
82804,-100,7,3,1,80,0,0
83026,-100,7,2,1,10,0,0
83099,-100,7,3,1,80,0,0
84429,-100,7,2,7,80,0,0
84725,-100,7,3,1,80,0,0
86942,-100,7,3,1,80,0,0
87163,-100,7,2,1,10,0,0
87237,-100,7,3,1,80,0,0
89011,-100,7,3,1,80,0,0
89232,-100,7,2,1,10,0,0
89306,-100,7,3,1,80,0,0
91080,-100,7,3,1,80,0,0
91301,-100,7,2,1,10,0,0
91375,-100,7,3,1,80,0,0
93149,295.566502463054,3,3,1,80,1,0
93296,-100,3,2,1,50,0,0
94331,-100,3,2,1,5,0,0
95513,-100,3,3,1,80,0,0
96252,-100,3,3,2,80,0,0
96400,-100,3,2,1,100,0,0
96695,-100,3,3,1,70,0,0
97730,-100,3,2,7,70,0,0
98025,-100,3,3,1,70,0,0
98173,-100,3,2,7,70,0,0
98321,-100,3,3,1,70,0,0
99503,-100,3,3,2,70,0,0
99799,-100,3,3,1,70,0,0
101277,-100,3,2,7,70,0,0
101572,-100,3,3,1,70,0,0
101720,-100,3,2,7,70,0,0
101868,-100,3,3,1,70,0,0
105562,-100,3,3,1,80,0,0
106006,-100,3,2,1,80,0,0
106153,-100,3,3,11,80,0,0
106301,-100,3,3,1,80,0,0
107337,295.566502463054,4,3,1,90,1,0
109701,-100,4,3,3,100,0,0
110255,-100,4,2,1,10,0,0
110292,-100,4,3,3,80,0,0
110736,-100,4,2,1,10,0,0
110883,-100,4,3,3,80,0,0
112066,-100,4,3,3,80,0,0
112620,-100,4,2,1,10,0,0
112657,-100,4,3,3,80,0,0
113248,-100,4,3,1,70,0,0
114430,-100,4,3,1,80,0,0
115169,-100,4,2,1,80,0,0
115612,-100,4,3,1,80,0,0
117644,-100,4,2,1,10,0,0
117681,-100,4,2,1,80,0,0
117977,-100,4,3,2,80,0,0
118864,-80,4,3,1,80,0,0
119307,-80,4,3,3,80,0,0
119750,-100,4,3,3,80,0,0
120341,-100,4,3,1,70,0,0
120489,-100,4,3,2,70,0,0
120637,-100,4,3,1,70,0,0
120785,-100,4,3,2,70,0,0
120933,-100,4,3,1,70,0,0
121228,-100,4,3,3,80,0,0
121524,-100,4,3,1,70,0,0
122706,-100,4,3,1,80,0,0
123001,-100,4,3,1,90,0,0
123297,-100,4,3,1,80,0,0
123593,-100,4,3,2,70,0,0
123888,-100,4,2,1,100,0,1
124036,-100,4,3,1,90,0,1
127435,-100,4,3,1,90,0,0
127730,-100,4,3,1,80,0,0
128026,-100,4,3,1,70,0,0
128322,-100,4,3,2,70,0,0
128617,-100,4,3,1,90,0,1
132164,-100,4,3,1,80,0,0
132459,-100,4,3,1,90,0,0
132755,-100,4,3,1,80,0,0
133051,-100,4,3,2,70,0,0
133346,-100,4,3,1,90,0,1
135859,-100,4,2,7,90,0,1
136006,-100,4,3,1,90,0,1
136450,-100,4,2,7,90,0,1
136598,-100,4,3,1,90,0,1
136893,-100,4,2,1,100,0,0
137189,-100,4,3,1,80,0,0
137484,-100,4,3,1,70,0,0
137780,-100,4,3,1,80,0,0
138075,-100,4,2,1,70,0,0
138667,-100,4,3,2,80,0,0
139110,-100,4,2,1,80,0,0
139849,-100,4,3,2,80,0,0
140440,-100,4,3,1,80,0,0
142509,-100,4,3,2,80,0,0
142804,-100,4,3,1,80,0,0
144873,-100,4,3,2,80,0,0
145169,-100,4,3,1,80,0,0
147238,-100,4,3,2,80,0,0
147534,-100,4,3,1,80,0,0
148716,-100,4,3,1,80,0,0
148864,-100,4,3,1,80,0,0
150785,-100,4,3,2,80,0,0
150933,-100,4,3,1,80,0,0
152854,-100,4,3,2,80,0,0
153002,-100,4,3,1,80,0,0
153149,-100,4,3,2,80,0,0
153297,-100,4,3,1,80,0,0
155514,-100,4,3,2,80,0,0
155662,-100,4,3,1,80,0,0
158174,-100,4,3,1,90,0,0
158322,-100,4,2,1,50,0,0
159208,-100,4,2,1,10,0,0
159356,-100,4,3,1,80,0,0
159504,-100,4,3,1,80,0,0

[Colours]
Combo1 : 255,255,125
Combo2 : 50,50,100
Combo3 : 225,175,40
Combo4 : 50,125,255

[HitObjects]
220,192,637,6,0,L|216:119,1,72.5,2|2,0:0|0:0,0:0:0:0:
304,108,932,2,0,L|308:20,1,72.5,10|4,0:0|0:0,0:0:0:0:
184,36,1375,1,0,0:0:0:0:
184,36,1523,1,2,0:0:0:0:
444,192,1819,6,0,L|315:118,2,145,6|2|2,0:0|0:0|0:0,0:0:0:0:
300,196,2705,1,2,0:0:0:0:
156,192,3001,2,0,P|116:132|156:80,1,145,2|2,0:0|0:0,0:0:0:0:
228,80,3444,1,2,0:0:0:0:
300,80,3592,2,0,L|304:240,1,145,2|2,0:0|0:0,0:0:0:0:
144,292,4183,6,0,L|276:224,2,145,2|2|2,0:0|0:0|0:0,0:0:0:0:
276,292,5070,1,2,0:0:0:0:
128,292,5366,2,0,L|120:216,1,72.5,2|2,0:0|0:0,0:0:0:0:
196,192,5661,1,2,0:0:0:0:
464,192,5957,1,2,0:0:0:0:
496,120,6104,1,8,0:0:0:0:
472,44,6252,1,10,0:0:0:0:
400,8,6400,1,8,0:0:0:0:
320,4,6548,6,0,L|176:4,2,145,6|2|2,0:0|0:0|0:0,0:0:0:0:
464,44,7435,1,2,0:0:0:0:
324,76,7730,2,0,P|284:136|324:188,1,145,2|2,0:0|0:0,0:0:0:0:
396,188,8173,1,2,0:0:0:0:
468,188,8321,1,2,0:0:0:0:
308,192,8617,1,2,0:0:0:0:
256,192,8912,12,8,9799,0:0:0:0:
88,192,10095,5,6,0:0:0:0:
220,192,10390,1,2,0:0:0:0:
352,192,10686,1,2,0:0:0:0:
484,192,10981,1,10,0:0:0:0:
220,192,11277,6,0,P|176:144|220:88,1,145,6|2,0:0|0:0,0:0:0:0:
284,88,11720,1,8,0:0:0:0:
348,88,11868,2,0,L|476:162,1,145,2|2,0:0|0:0,0:0:0:0:
328,192,12459,6,0,L|324:348,1,145,2|2,0:0|0:0,0:0:0:0:
260,336,12903,1,8,0:0:0:0:
196,336,13050,1,2,0:0:0:0:
356,336,13346,1,10,0:0:0:0:
96,336,13641,6,0,B|24:336|24:336|24:264,1,145,2|2,0:0|0:0,0:0:0:0:
96,264,14085,1,8,0:0:0:0:
168,264,14233,2,0,L|296:192,1,145,2|2,0:0|0:0,0:0:0:0:
28,192,14824,6,0,L|24:48,1,145,2|2,0:0|0:0,0:0:0:0:
288,48,15415,1,8,0:0:0:0:
328,116,15562,1,2,0:0:0:0:
296,188,15710,1,8,0:0:0:0:
220,212,15858,1,2,0:0:0:0:
140,216,16006,6,0,L|292:216,1,145,2|2,0:0|0:0,0:0:0:0:
356,216,16449,1,8,0:0:0:0:
428,216,16597,2,0,L|436:360,1,145,2|2,0:0|0:0,0:0:0:0:
292,360,17188,6,0,L|167:288,1,145,2|2,0:0|0:0,0:0:0:0:
228,324,17632,1,8,0:0:0:0:
292,360,17779,1,2,0:0:0:0:
148,288,18075,1,10,0:0:0:0:
408,360,18370,6,0,L|412:212,1,145,6|2,0:0|0:0,0:0:0:0:
340,192,18814,1,8,0:0:0:0:
412,216,18962,1,8,0:0:0:0:
152,192,19257,2,0,L|148:112,1,72.5,2|8,0:0|0:0,0:0:0:0:
240,192,20735,6,0,P|288:124|256:84,1,145,6|2,0:0|0:0,0:0:0:0:
184,84,21178,1,8,0:0:0:0:
112,84,21326,1,2,0:0:0:0:
260,192,21622,1,2,0:0:0:0:
108,192,21917,6,0,L|104:264,1,72.5,2|8,0:0|0:0,0:0:0:0:
236,264,22361,1,2,0:0:0:0:
308,264,22508,2,0,B|380:264|380:264|304:264,1,145,2|8,0:0|0:0,0:0:0:0:
44,264,23100,6,0,L|40:120,1,145,6|2,0:0|0:0,0:0:0:0:
184,120,23691,2,0,L|246:83,2,72.5,2|8|8,0:0|0:0|0:0,0:0:0:0:
320,264,24282,6,0,L|316:120,1,145,2|2,0:0|0:0,0:0:0:0:
164,120,24873,2,0,L|96:80,2,72.5,2|8|8,0:0|0:0|0:0,0:0:0:0:
432,120,25464,6,0,B|432:192|432:192|356:192,1,145,6|2,0:0|0:0,0:0:0:0:
212,192,26055,2,0,L|136:192,1,72.5,2|8,0:0|0:0,0:0:0:0:
212,192,26351,1,2,0:0:0:0:
60,192,26646,6,0,L|56:268,1,72.5,2|8,0:0|0:0,0:0:0:0:
180,328,27090,1,2,0:0:0:0:
252,328,27237,1,2,0:0:0:0:
180,328,27385,1,8,0:0:0:0:
108,328,27533,1,2,0:0:0:0:
372,328,27829,6,0,L|376:184,1,145,6|2,0:0|0:0,0:0:0:0:
231,183,28420,2,0,L|168:147,2,72.5,2|8|2,0:0|0:0|0:0,0:0:0:0:
376,183,29011,2,0,L|232:183,1,145,2|2,0:0|0:0,0:0:0:0:
84,184,29602,1,2,0:0:0:0:
48,120,29750,1,2,0:0:0:0:
100,68,29898,1,8,0:0:0:0:
360,72,30193,6,0,L|368:240,1,145,6|2,0:0|0:0,0:0:0:0:
230,167,30784,1,2,0:0:0:0:
298,191,30931,1,8,0:0:0:0:
367,216,31079,1,2,0:0:0:0:
208,216,31375,6,0,L|64:216,1,145,6|2,0:0|0:0,0:0:0:0:
208,216,31967,2,0,L|211:70,1,145,2|2,0:0|0:0,0:0:0:0:
472,192,32558,6,0,B|472:120|472:120|412:72,1,145,2|2,0:0|0:0,0:0:0:0:
344,76,33001,1,8,0:0:0:0:
272,76,33149,2,0,L|268:224,1,145,2|2,0:0|0:0,0:0:0:0:
412,292,33740,6,0,L|280:216,1,145,2|2,0:0|0:0,0:0:0:0:
140,220,34331,1,2,0:0:0:0:
300,220,34627,1,8,0:0:0:0:
40,216,34922,6,0,P|40:144|88:92,1,145,6|2,0:0|0:0,0:0:0:0:
160,92,35366,1,8,0:0:0:0:
232,92,35513,2,0,L|236:236,1,145,2|2,0:0|0:0,0:0:0:0:
92,236,36104,6,0,L|252:236,1,145,2|2,0:0|0:0,0:0:0:0:
304,236,36548,1,2,0:0:0:0:
368,236,36696,1,2,0:0:0:0:
224,236,36991,1,8,0:0:0:0:
488,236,37287,6,0,L|492:88,1,145,6|2,0:0|0:0,0:0:0:0:
348,92,37878,1,8,0:0:0:0:
480,92,38173,1,8,0:0:0:0:
220,92,38469,6,0,P|152:168|216:244,1,217.5,6|0,0:0|0:0,0:0:0:0:
292,244,39060,2,0,L|354:208,2,72.5,8|0|8,0:0|0:0|0:0,0:0:0:0:
148,244,39651,6,0,L|144:96,1,145,2|8,0:0|0:0,0:0:0:0:
408,192,40243,2,0,L|412:116,1,72.5,8|0,0:0|0:0,0:0:0:0:
288,48,40686,2,0,L|216:48,1,72.5,2|8,0:0|0:0,0:0:0:0:
476,120,41129,1,12,0:0:0:0:
344,120,41425,6,0,L|340:264,1,145,2|8,0:0|0:0,0:0:0:0:
80,260,42016,2,0,L|76:188,1,72.5,8|2,0:0|0:0,0:0:0:0:
204,192,42459,2,0,L|276:192,1,72.5,2|8,0:0|0:0,0:0:0:0:
16,264,42902,1,6,0:0:0:0:
152,267,43198,6,0,L|276:191,1,145,2|8,0:0|0:0,0:0:0:0:
20,192,43789,2,0,L|16:120,1,72.5,8|2,0:0|0:0,0:0:0:0:
156,52,44233,2,0,L|80:52,1,72.5,2|8,0:0|0:0,0:0:0:0:
332,52,44676,1,6,0:0:0:0:
200,192,44972,6,0,L|196:268,1,72.5,8|8,0:0|0:0,0:0:0:0:
284,264,45267,2,0,L|288:340,1,72.5,8|8,0:0|0:0,0:0:0:0:
376,264,45563,2,0,L|380:184,1,72.5,8|8,0:0|0:0,0:0:0:0:
28,56,46154,5,8,0:0:0:0:
100,56,46302,1,8,0:0:0:0:
172,56,46449,1,8,0:0:0:0:
244,56,46597,1,8,0:0:0:0:
100,56,47040,2,0,L|96:132,1,72.5,8|2,0:0|0:0,0:0:0:0:
260,40,47336,6,0,L|392:116,1,145,6|8,0:0|0:0,0:0:0:0:
320,76,47779,1,2,0:0:0:0:
385,112,47927,2,0,L|517:188,1,145,8|2,0:0|0:0,0:0:0:0:
248,192,48518,5,8,0:0:0:0:
199,214,48665,1,2,0:0:0:0:
179,263,48813,1,8,0:0:0:0:
198,312,48961,1,2,0:0:0:0:
246,335,49109,1,8,0:0:0:0:
392,336,49405,1,8,0:0:0:0:
136,336,49701,6,0,B|128:172,1,145,12|8,0:0|0:0,0:0:0:0:
208,188,50144,1,2,0:0:0:0:
288,188,50292,2,0,L|140:188,1,145,8|8,0:0|0:0,0:0:0:0:
396,192,50883,5,6,0:0:0:0:
264,192,51178,1,6,0:0:0:0:
412,192,51474,1,6,0:0:0:0:
412,192,51770,1,8,0:0:0:0:
340,192,51917,1,8,0:0:0:0:
180,192,52065,5,6,0:0:0:0:
36,192,52361,2,0,L|164:120,1,145,8|8,0:0|0:0,0:0:0:0:
308,120,52952,1,8,0:0:0:0:
243,120,53100,1,2,0:0:0:0:
388,120,53247,6,0,P|464:160|472:228,1,145,8|8,0:0|0:0,0:0:0:0:
452,280,53691,1,2,0:0:0:0:
380,292,53838,1,8,0:0:0:0:
236,288,54134,1,8,0:0:0:0:
496,280,54430,6,0,L|500:120,1,145,12|8,0:0|0:0,0:0:0:0:
428,136,54873,1,2,0:0:0:0:
356,136,55021,1,8,0:0:0:0:
500,136,55316,1,8,0:0:0:0:
240,132,55612,5,6,0:0:0:0:
132,132,55907,1,6,0:0:0:0:
24,132,56203,1,6,0:0:0:0:
24,132,56499,1,8,0:0:0:0:
96,132,56646,1,8,0:0:0:0:
256,132,56794,6,0,L|388:192,1,145,6|8,0:0|0:0,0:0:0:0:
316,192,57238,1,2,0:0:0:0:
244,192,57385,2,0,L|112:132,1,145,8|8,0:0|0:0,0:0:0:0:
372,192,57976,5,8,0:0:0:0:
421,214,58123,1,2,0:0:0:0:
441,263,58271,1,8,0:0:0:0:
422,312,58419,1,8,0:0:0:0:
374,335,58567,1,8,0:0:0:0:
228,336,58863,1,8,0:0:0:0:
484,336,59159,6,0,B|492:172,1,145,6|8,0:0|0:0,0:0:0:0:
332,188,59750,1,8,0:0:0:0:
260,188,59898,1,2,0:0:0:0:
188,188,60045,1,8,0:0:0:0:
448,192,60341,5,6,0:0:0:0:
316,192,60636,1,6,0:0:0:0:
464,192,60932,1,6,0:0:0:0:
464,192,61228,1,8,0:0:0:0:
392,192,61375,1,8,0:0:0:0:
232,192,61523,5,6,0:0:0:0:
364,192,61819,1,8,0:0:0:0:
297,161,61966,1,2,0:0:0:0:
231,131,62114,1,8,0:0:0:0:
100,132,62410,1,8,0:0:0:0:
360,132,62705,6,0,L|360:48,1,72.5,2|2,0:0|0:0,0:0:0:0:
276,176,63001,2,0,L|276:92,1,72.5,8|2,0:0|0:0,0:0:0:0:
360,59,63297,1,8,0:0:0:0:
228,60,63592,1,2,0:0:0:0:
84,60,63888,6,0,P|71:127|108:192,1,145,2|2,0:0|0:0,0:0:0:0:
180,192,64331,1,8,0:0:0:0:
252,192,64479,2,0,L|104:192,1,145,2|8,0:0|0:0,0:0:0:0:
368,192,65070,5,6,0:0:0:0:
376,192,65366,1,6,0:0:0:0:
384,192,65661,1,6,0:0:0:0:
240,192,65957,2,0,L|236:112,1,72.5,8|2,0:0|0:0,0:0:0:0:
420,192,66843,6,0,L|496:192,2,72.5,8|8|12,0:0|0:0|0:0,0:0:0:0:
156,192,67435,6,0,L|24:116,1,145,12|2,0:0|0:0,0:0:0:0:
92,156,67878,1,8,0:0:0:0:
156,192,68026,1,2,0:0:0:0:
300,192,68321,1,2,0:0:0:0:
140,192,68617,6,0,P|100:156|144:92,1,145,2|2,0:0|0:0,0:0:0:0:
216,92,69060,1,8,0:0:0:0:
288,92,69208,1,2,0:0:0:0:
128,92,69504,1,8,0:0:0:0:
388,92,69799,6,0,B|464:92|464:92|464:24,1,145,2|2,0:0|0:0,0:0:0:0:
392,16,70242,1,8,0:0:0:0:
320,17,70390,1,2,0:0:0:0:
176,16,70686,1,2,0:0:0:0:
428,112,70981,6,0,L|493:74,2,72.5,2|8|2,0:0|0:0|0:0,0:0:0:0:
168,192,71572,1,8,0:0:0:0:
112,248,71720,1,2,0:0:0:0:
124,328,71868,1,8,0:0:0:0:
196,360,72016,1,8,0:0:0:0:
356,360,72164,6,0,L|480:284,1,145,6|2,0:0|0:0,0:0:0:0:
420,321,72607,1,8,0:0:0:0:
360,364,72755,1,2,0:0:0:0:
216,364,73050,1,2,0:0:0:0:
376,364,73346,6,0,P|424:340|376:288,1,145,2|2,0:0|0:0,0:0:0:0:
304,288,73789,1,8,0:0:0:0:
232,288,73937,1,2,0:0:0:0:
392,288,74233,1,8,0:0:0:0:
132,288,74528,6,0,B|132:216|132:216|212:204,1,145,6|2,0:0|0:0,0:0:0:0:
276,204,74971,1,8,0:0:0:0:
204,204,75119,1,2,0:0:0:0:
52,220,75415,2,0,L|48:132,1,72.5,2|8,0:0|0:0,0:0:0:0:
208,20,75710,6,0,B|284:20|284:20|284:88,1,145,8|2,0:0|0:0,0:0:0:0:
212,88,76154,1,2,0:0:0:0:
124,88,76302,2,0,L|52:88,2,72.5,8|2|8,0:0|0:0|0:0,0:0:0:0:
384,220,76893,6,0,L|388:72,1,145,6|2,0:0|0:0,0:0:0:0:
308,76,77336,1,0,0:0:0:0:
228,76,77484,2,0,L|224:220,1,145,2|2,0:0|0:0,0:0:0:0:
368,220,78075,1,8,0:0:0:0:
223,220,78370,1,8,0:0:0:0:
484,220,78666,1,12,0:0:0:0:
484,220,78961,6,0,L|340:192,1,145,2|2,0:0|0:0,0:0:0:0:
416,192,79405,1,0,0:0:0:0:
496,192,79553,2,0,L|352:164,1,145,2|2,0:0|0:0,0:0:0:0:
200,164,80144,1,8,0:0:0:0:
367,164,80439,1,8,0:0:0:0:
104,164,80735,1,12,0:0:0:0:
104,164,81030,6,0,L|248:164,1,145,2|2,0:0|0:0,0:0:0:0:
324,164,81474,1,0,0:0:0:0:
396,164,81622,2,0,L|392:312,1,145,2|2,0:0|0:0,0:0:0:0:
248,308,82213,1,8,0:0:0:0:
104,308,82508,1,8,0:0:0:0:
364,308,82804,1,12,0:0:0:0:
364,308,83099,6,0,L|368:160,1,145,2|2,0:0|0:0,0:0:0:0:
294,308,83543,1,0,0:0:0:0:
220,308,83691,2,0,L|216:160,1,145,2|2,0:0|0:0,0:0:0:0:
360,164,84282,1,2,0:0:0:0:
288,164,84429,1,2,0:0:0:0:
216,163,84577,2,0,L|376:164,1,145,2|8,0:0|0:0,0:0:0:0:
100,164,85168,6,0,L|96:12,1,145,6|2,0:0|0:0,0:0:0:0:
240,308,85759,2,0,L|244:148,1,145,8|8,0:0|0:0,0:0:0:0:
172,164,86203,1,2,0:0:0:0:
243,163,86351,2,0,L|392:164,1,145,2|8,0:0|0:0,0:0:0:0:
128,164,86942,1,12,0:0:0:0:
273,164,87237,6,0,L|128:164,1,145,8|8,0:0|0:0,0:0:0:0:
288,164,87828,2,0,L|292:16,1,145,8|8,0:0|0:0,0:0:0:0:
28,16,88420,1,8,0:0:0:0:
172,16,88715,1,8,0:0:0:0:
12,16,89011,1,12,0:0:0:0:
272,20,89306,6,0,L|276:172,1,145,8|8,0:0|0:0,0:0:0:0:
201,164,89750,1,2,0:0:0:0:
128,164,89897,2,0,L|132:316,1,145,8|8,0:0|0:0,0:0:0:0:
396,192,90489,1,8,0:0:0:0:
264,192,90784,1,8,0:0:0:0:
132,192,91080,1,12,0:0:0:0:
276,192,91375,6,0,L|280:48,1,145,8|8,0:0|0:0,0:0:0:0:
421,192,91966,2,0,L|273:192,1,145,8|8,0:0|0:0,0:0:0:0:
204,192,92410,1,2,0:0:0:0:
284,192,92558,1,8,0:0:0:0:
148,192,92853,1,8,0:0:0:0:
408,192,93149,5,6,0:0:0:0:
256,192,93444,12,0,94331,0:0:0:0:
360,192,95513,6,0,L|364:108,1,72.5,2|2,0:0|0:0,0:0:0:0:
204,276,95809,2,0,L|200:192,1,72.5,10|4,0:0|0:0,0:0:0:0:
332,192,96252,1,8,0:0:0:0:
272,192,96400,1,2,0:0:0:0:
420,40,96695,6,0,P|450:112|432:176,1,145,2|2,0:0|0:0,0:0:0:0:
356,192,97139,1,0,0:0:0:0:
276,192,97286,2,0,L|272:280,1,72.5,2|0,0:0|0:0,0:0:0:0:
432,268,97730,2,0,P|480:220|464:148,1,145,2|2,0:0|0:0,0:0:0:0:
396,148,98173,1,0,0:0:0:0:
144,264,98469,6,0,L|81:228,2,72.5,6|0|2,0:0|0:0|0:0,0:0:0:0:
288,264,99060,2,0,P|332:316|288:368,1,145,2|2,0:0|0:0,0:0:0:0:
220,368,99503,1,8,0:0:0:0:
290,367,99651,2,0,L|352:331,2,72.5,8|2|2,0:0|0:0|0:0,0:0:0:0:
40,368,100242,6,0,B|40:296|40:296|112:296,1,145,6|2,0:0|0:0,0:0:0:0:
192,296,100685,1,0,0:0:0:0:
112,296,100833,2,0,L|108:208,1,72.5,2|0,0:0|0:0,0:0:0:0:
256,192,101277,1,2,0:0:0:0:
336,192,101424,2,0,L|340:48,1,145,2|2,0:0|0:0,0:0:0:0:
80,188,102015,5,6,0:0:0:0:
152,188,102163,1,0,0:0:0:0:
224,188,102311,1,8,0:0:0:0:
152,188,102459,1,0,0:0:0:0:
80,188,102607,1,2,0:0:0:0:
296,188,103050,2,0,P|288:104|240:72,1,145,0|2,0:0|0:0,0:0:0:0:
164,72,103493,1,8,0:0:0:0:
424,188,103789,6,0,L|486:152,2,72.5,6|0|8,0:0|0:0|0:0,0:0:0:0:
280,188,104380,1,2,0:0:0:0:
347,214,104527,1,2,0:0:0:0:
414,241,104675,1,8,0:0:0:0:
152,188,104971,1,2,0:0:0:0:
80,188,105119,2,0,L|76:108,1,72.5,12|12,0:0|0:0,0:0:0:0:
347,214,105562,6,0,P|368:148|320:80,1,145,2|8,0:0|0:0,0:0:0:0:
252,88,106006,1,2,0:0:0:0:
448,84,106449,1,8,0:0:0:0:
184,88,106745,1,2,0:0:0:0:
120,88,106892,1,2,0:0:0:0:
56,88,107040,1,8,0:0:0:0:
324,188,107337,6,0,L|328:264,1,72.5,8|8,0:0|0:0,0:0:0:0:
236,260,107632,2,0,L|232:336,1,72.5,8|8,0:0|0:0,0:0:0:0:
327,260,107928,2,0,L|323:180,1,72.5,8|8,0:0|0:0,0:0:0:0:
168,184,108519,6,0,L|248:184,3,72.5,8|8|8|8,0:0|0:0|0:0|0:0,0:0:0:0:
384,188,109701,5,4,0:0:0:0:
144,192,113248,5,6,0:0:0:0:
332,192,113839,1,6,0:0:0:0:
72,192,114430,6,0,P|40:124|64:56,1,145,6|0,0:0|0:0,0:0:0:0:
132,60,114873,1,2,0:0:0:0:
204,60,115021,2,0,L|336:0,2,145,8|2|2,0:0|0:0|0:0,0:0:0:0:
204,60,115760,1,8,0:0:0:0:
400,0,116203,2,0,L|404:152,1,145,12|2,0:0|0:0,0:0:0:0:
156,192,116795,6,0,P|120:248|156:312,1,145,2|0,0:0|0:0,0:0:0:0:
228,312,117238,1,2,0:0:0:0:
299,310,117386,2,0,L|151:310,1,145,12|2,0:0|0:0,0:0:0:0:
400,192,117977,5,8,0:0:0:0:
256,192,118272,1,2,0:0:0:0:
416,192,118568,1,8,0:0:0:0:
416,192,118864,1,8,0:0:0:0:
344,192,119011,1,0,0:0:0:0:
184,192,119159,6,0,P|124:144|184:84,1,181.25,6|2,0:0|0:0,0:0:0:0:
256,84,119603,1,0,0:0:0:0:
184,192,119750,2,0,L|336:192,1,145,8|2,0:0|0:0,0:0:0:0:
256,192,120341,12,8,120933,0:0:0:0:
128,192,121228,5,2,0:0:0:0:
388,192,121524,6,0,B|464:192|464:192|464:260,1,145,6|0,0:0|0:0,0:0:0:0:
392,260,121967,1,2,0:0:0:0:
320,260,122115,2,0,L|257:224,2,72.5,8|0|2,0:0|0:0|0:0,0:0:0:0:
60,192,122706,5,6,0:0:0:0:
204,192,123002,1,6,0:0:0:0:
44,192,123297,1,6,0:0:0:0:
44,192,123593,1,8,0:0:0:0:
116,192,123740,1,8,0:0:0:0:
276,192,123888,5,6,0:0:0:0:
420,192,124184,2,0,L|496:192,2,72.5,8|2|8,0:0|0:0|0:0,0:0:0:0:
276,192,124775,2,0,L|352:192,1,72.5,8|2,0:0|0:0,0:0:0:0:
188,192,125070,6,0,P|116:240|112:304,1,145,8|8,0:0|0:0,0:0:0:0:
136,360,125514,1,2,0:0:0:0:
208,376,125662,1,8,0:0:0:0:
48,360,125957,1,8,0:0:0:0:
308,372,126253,6,0,P|336:316|300:248,1,145,6|8,0:0|0:0,0:0:0:0:
220,248,126696,1,2,0:0:0:0:
300,248,126844,2,0,L|376:248,2,72.5,8|2|8,0:0|0:0|0:0,0:0:0:0:
36,128,127435,5,6,0:0:0:0:
152,128,127731,1,6,0:0:0:0:
268,128,128026,1,6,0:0:0:0:
152,128,128322,1,8,0:0:0:0:
232,128,128470,1,8,0:0:0:0:
392,128,128617,6,0,P|424:188|400:256,1,145,6|8,0:0|0:0,0:0:0:0:
320,256,129061,1,2,0:0:0:0:
399,256,129208,2,0,B|472:256|472:256|396:256,1,145,8|8,0:0|0:0,0:0:0:0:
136,252,129800,5,8,0:0:0:0:
71,222,129947,1,8,0:0:0:0:
46,156,130095,1,8,0:0:0:0:
74,91,130243,1,8,0:0:0:0:
139,64,130391,1,8,0:0:0:0:
300,64,130686,1,8,0:0:0:0:
36,64,130982,6,0,B|36:140|36:140|80:192,1,145,6|8,0:0|0:0,0:0:0:0:
160,192,131425,1,2,0:0:0:0:
320,192,131573,2,0,L|400:192,2,72.5,8|2|8,0:0|0:0|0:0,0:0:0:0:
60,192,132164,5,6,0:0:0:0:
204,192,132460,1,6,0:0:0:0:
44,192,132755,1,6,0:0:0:0:
168,192,133051,1,8,0:0:0:0:
248,192,133199,1,8,0:0:0:0:
408,192,133346,5,6,0:0:0:0:
276,328,133642,2,0,L|213:292,2,72.5,2|8|2,0:0|0:0|0:0,0:0:0:0:
132,328,134233,1,2,0:0:0:0:
392,328,134529,6,0,L|396:256,1,72.5,2|8,0:0|0:0,0:0:0:0:
312,212,134824,2,0,L|316:132,1,72.5,2|8,0:0|0:0,0:0:0:0:
232,96,135120,1,2,0:0:0:0:
392,140,135415,1,2,0:0:0:0:
132,192,135711,6,0,B|60:191|60:191|136:192,1,145,2|2,0:0|0:0,0:0:0:0:
204,192,136154,1,8,0:0:0:0:
277,192,136302,1,2,0:0:0:0:
204,192,136449,1,12,0:0:0:0:
277,192,136597,1,8,0:0:0:0:
28,192,136893,5,6,0:0:0:0:
28,192,137189,1,6,0:0:0:0:
28,192,137484,1,6,0:0:0:0:
196,192,137780,2,0,L|200:112,1,72.5,8|2,0:0|0:0,0:0:0:0:
372,192,138667,6,0,L|444:192,2,72.5,8|8|8,0:0|0:0|0:0,0:0:0:0:
68,192,139849,2,0,L|60:144,2,36.25,8|8|8,0:0|0:0|0:0,0:0:0:0:
156,192,140144,1,8,0:0:0:0:
416,192,140440,6,0,P|456:140|412:84,1,145,6|8,0:0|0:0,0:0:0:0:
340,84,140883,1,2,0:0:0:0:
268,84,141031,1,2,0:0:0:0:
414,84,141327,1,8,0:0:0:0:
152,84,141622,6,0,P|112:124|152:192,1,145,2|8,0:0|0:0,0:0:0:0:
224,192,142066,1,2,0:0:0:0:
150,191,142213,2,0,L|74:191,2,72.5,2|2|8,0:0|0:0|0:0,0:0:0:0:
412,268,142804,6,0,L|288:192,1,145,6|8,0:0|0:0,0:0:0:0:
216,192,143248,1,2,0:0:0:0:
288,192,143396,1,2,0:0:0:0:
144,192,143691,1,8,0:0:0:0:
388,192,143987,6,0,L|396:272,1,72.5,2|2,0:0|0:0,0:0:0:0:
320,304,144282,1,10,0:0:0:0:
56,192,144578,1,10,0:0:0:0:
36,272,144725,1,10,0:0:0:0:
80,340,144873,1,8,0:0:0:0:
160,360,145021,1,0,0:0:0:0:
320,364,145169,6,0,L|472:364,1,145,6|8,0:0|0:0,0:0:0:0:
392,364,145612,1,0,0:0:0:0:
464,364,145760,1,2,0:0:0:0:
320,364,146056,1,8,0:0:0:0:
248,364,146203,1,2,0:0:0:0:
176,364,146351,6,0,P|132:308|172:256,1,145,2|8,0:0|0:0,0:0:0:0:
244,256,146795,1,2,0:0:0:0:
316,256,146942,1,2,0:0:0:0:
156,256,147238,1,8,0:0:0:0:
416,192,147534,6,0,B|489:191|489:191|492:116,1,145,6|8,0:0|0:0,0:0:0:0:
416,120,147977,1,0,0:0:0:0:
492,120,148125,2,0,L|340:120,1,145,2|8,0:0|0:0,0:0:0:0:
80,120,148716,6,0,P|36:176|80:224,1,145,6|2,0:0|0:0,0:0:0:0:
148,224,149159,1,8,0:0:0:0:
220,224,149307,1,2,0:0:0:0:
60,224,149603,2,0,L|56:308,1,72.5,8|2,0:0|0:0,0:0:0:0:
132,336,149898,6,0,L|276:336,1,145,2|2,0:0|0:0,0:0:0:0:
277,336,150341,1,8,0:0:0:0:
198,336,150489,1,2,0:0:0:0:
356,336,150785,1,8,0:0:0:0:
100,120,151080,6,0,B|244:120,1,145,2|2,0:0|0:0,0:0:0:0:
316,120,151524,1,8,0:0:0:0:
244,119,151671,1,2,0:0:0:0:
100,120,151967,1,8,0:0:0:0:
364,120,152263,6,0,L|440:76,2,72.5,2|12|2,0:0|0:0|0:0,0:0:0:0:
100,120,152854,1,8,0:0:0:0:
36,156,153002,1,2,0:0:0:0:
36,228,153149,1,8,0:0:0:0:
100,260,153297,1,2,0:0:0:0:
260,260,153445,6,0,L|408:260,1,145,6|2,0:0|0:0,0:0:0:0:
332,260,153888,1,8,0:0:0:0:
405,260,154036,2,0,L|257:260,1,145,2|8,0:0|0:0,0:0:0:0:
116,260,154627,6,0,P|96:180|132:136,1,145,2|2,0:0|0:0,0:0:0:0:
204,136,155070,1,8,0:0:0:0:
276,136,155218,1,8,0:0:0:0:
116,136,155514,1,8,0:0:0:0:
380,212,155809,6,0,B|452:212|452:212|452:140,1,145,6|2,0:0|0:0,0:0:0:0:
379,136,156253,1,8,0:0:0:0:
305,136,156401,2,0,B|233:136|233:136|309:136,1,145,2|2,0:0|0:0,0:0:0:0:
388,136,156844,1,8,0:0:0:0:
228,40,156992,5,6,0:0:0:0:
80,40,157287,1,6,0:0:0:0:
228,40,157583,1,6,0:0:0:0:
96,40,157878,1,6,0:0:0:0:
360,40,158174,5,6,0:0:0:0:
256,192,158470,12,8,159800,0:0:0:0:
