osu file format v14

[General]
AudioFilename: audio.mp3
AudioLeadIn: 0
PreviewTime: 118864
Countdown: 0
SampleSet: Drum
StackLeniency: 0.7
Mode: 2
LetterboxInBreaks: 0
WidescreenStoryboard: 0

[Editor]
Bookmarks: 1820,11278,20736,39652,47336,67435,76893,93149,96695,109701,119159,140440,158174,159947
DistanceSpacing: 1.1
BeatDivisor: 3
GridSize: 4
TimelineZoom: 2.2

[Metadata]
Title:oni
TitleUnicode:鬼
Artist:Emiru no Aishita Tsukiyo ni Dai San Gensou Kyoku wo
ArtistUnicode:エミルの愛した月夜に第III幻想曲を
Creator:JBHyperion
Version:Platter
Source:
Tags:2021 Featured Artist Summer Cup Emiru3 Emille's Moonlight Serenade サラ Sala 荊 いばら Ibara Ito japanese symphonic rock metal doujin
BeatmapID:3186912
BeatmapSetID:1560338

[Difficulty]
HPDrainRate:5
CircleSize:3
OverallDifficulty:8.2
ApproachRate:8.2
SliderMultiplier:1.6
SliderTickRate:2

[Events]
//Background and Video events
0,0,"68547250_p0_waifu2x_1920x1200.jpg",0,0
//Break Periods
//Storyboard Layer 0 (Background)
//Storyboard Layer 1 (Fail)
//Storyboard Layer 2 (Pass)
//Storyboard Layer 3 (Foreground)
//Storyboard Layer 4 (Overlay)
//Storyboard Sound Samples

[TimingPoints]
637,295.566502463054,4,3,1,80,1,0
1376,-100,4,2,1,100,0,0
1819,-100,4,2,2,80,0,0
3444,-100,4,2,7,100,0,0
3592,-100,4,2,2,80,0,0
5513,-100,4,2,7,100,0,0
5661,-100,4,2,2,80,0,0
5809,-100,4,2,7,100,0,0
5957,-100,4,2,2,80,0,0
8173,-100,4,2,7,100,0,0
8321,-100,4,2,2,80,0,0
8912,-100,4,3,2,60,0,0
9503,-100,4,3,2,70,0,0
10095,-100,4,3,1,80,0,0
12016,-100,4,3,10,60,0,0
12164,-100,4,3,1,80,0,0
14380,-100,4,3,10,60,0,0
14528,-100,4,3,1,80,0,0
16745,-100,4,3,10,60,0,0
16893,-100,4,3,1,80,0,0
19701,-100,4,2,1,60,0,0
20735,-100,4,3,1,80,0,0
31523,-100,4,3,10,60,0,0
31671,-100,4,3,1,80,0,0
37435,-100,4,3,10,60,0,0
37583,-100,4,3,1,80,0,0
38469,-100,4,3,1,60,0,0
39060,-100,4,3,1,70,0,0
39652,295.566502463054,3,3,1,80,1,0
40390,-100,3,3,11,60,0,0
40538,-100,3,3,1,80,0,0
41129,-100,3,3,1,90,0,0
41351,-100,3,3,1,80,0,0
42903,-100,3,3,1,80,0,0
43124,-100,3,2,1,10,0,0
43198,-100,3,3,1,80,0,0
44676,-100,3,3,1,80,0,0
44898,-100,3,3,1,80,0,0
44972,295.566502463054,4,3,1,80,1,0
47040,-100,4,3,3,80,0,0
47336,-100,4,3,1,90,0,1
47484,-100,4,3,1,90,0,1
50883,-100,4,3,1,80,0,0
51178,-100,4,3,1,90,0,0
51474,-100,4,3,1,80,0,0
51770,-100,4,3,2,70,0,0
52065,-100,4,3,1,90,0,1
52213,-100,4,3,1,90,0,1
55612,-100,4,3,1,90,0,0
55907,-100,4,3,1,80,0,0
56203,-100,4,3,1,70,0,0
56499,-100,4,3,2,70,0,0
56794,-100,4,3,1,90,0,1
56942,-100,4,3,1,90,0,1
60341,-100,4,3,1,80,0,0
60637,-100,4,3,1,90,0,0
60932,-100,4,3,1,80,0,0
61228,-100,4,3,2,70,0,0
61523,-100,4,3,1,90,0,1
61819,-100,4,3,1,90,0,1
64036,-100,4,2,7,90,0,1
64183,-100,4,3,1,90,0,1
64627,-100,4,2,7,90,0,1
64774,-100,4,3,1,90,0,1
65070,-100,4,3,1,90,0,0
65366,-100,4,3,1,80,0,0
65661,-100,4,3,1,70,0,0
65957,-100,4,3,1,80,0,0
66252,-100,4,2,1,70,0,0
66843,-100,4,3,2,80,0,0
67139,-100,4,3,1,80,0,0
67361,-100,4,2,1,10,0,0
67435,-100,4,3,1,80,0,0
76597,-100,4,3,1,80,0,0
76745,-100,4,3,1,80,0,0
76893,295.566502463054,7,3,1,70,1,0
78075,-100,7,3,2,80,0,0
78666,-100,7,3,1,90,0,0
78888,-100,7,2,1,10,0,0
78961,-100,7,3,1,80,0,0
80144,-100,7,3,2,80,0,0
80735,-100,7,3,1,80,0,0
80957,-100,7,2,1,10,0,0
81030,-100,7,3,1,80,0,0
82213,-100,7,3,2,80,0,0
82804,-100,7,3,1,80,0,0
83026,-100,7,2,1,10,0,0
83099,-100,7,3,1,80,0,0
84429,-100,7,2,7,80,0,0
84725,-100,7,3,1,80,0,0
86942,-100,7,3,1,80,0,0
87163,-100,7,2,1,10,0,0
87237,-100,7,3,1,80,0,0
89011,-100,7,3,1,80,0,0
89232,-100,7,2,1,10,0,0
89306,-100,7,3,1,80,0,0
91080,-100,7,3,1,80,0,0
91301,-100,7,2,1,10,0,0
91375,-100,7,3,1,80,0,0
93149,295.566502463054,3,3,1,80,1,0
93296,-100,3,2,1,50,0,0
94331,-100,3,2,1,5,0,0
95513,-100,3,3,1,80,0,0
96252,-100,3,3,2,80,0,0
96400,-100,3,2,1,100,0,0
96695,-100,3,3,1,70,0,0
97730,-100,3,2,7,70,0,0
98025,-100,3,3,1,70,0,0
98173,-100,3,2,7,70,0,0
98321,-100,3,3,1,70,0,0
99503,-100,3,3,2,70,0,0
99799,-100,3,3,1,70,0,0
101277,-100,3,2,7,70,0,0
101572,-100,3,3,1,70,0,0
101720,-100,3,2,7,70,0,0
101868,-100,3,3,1,70,0,0
105562,-100,3,3,1,80,0,0
106006,-100,3,2,1,80,0,0
106153,-100,3,3,11,80,0,0
106301,-100,3,3,1,80,0,0
107337,295.566502463054,4,3,1,90,1,0
109701,-100,4,3,3,100,0,0
110255,-100,4,2,1,10,0,0
110292,-100,4,3,3,80,0,0
110736,-100,4,2,1,10,0,0
110883,-100,4,3,3,80,0,0
112066,-100,4,3,3,80,0,0
112620,-100,4,2,1,10,0,0
112657,-100,4,3,3,80,0,0
113248,-100,4,3,1,70,0,0
114430,-100,4,3,1,80,0,0
115169,-100,4,2,1,80,0,0
115612,-100,4,3,1,80,0,0
117644,-100,4,2,1,10,0,0
117681,-100,4,2,1,80,0,0
117977,-100,4,3,2,80,0,0
118864,-100,4,3,1,80,0,0
119307,-100,4,3,3,80,0,0
120341,-100,4,3,1,70,0,0
120489,-100,4,3,2,70,0,0
120637,-100,4,3,1,70,0,0
120785,-100,4,3,2,70,0,0
120933,-100,4,3,1,70,0,0
121228,-100,4,3,3,80,0,0
121524,-100,4,3,1,70,0,0
122706,-100,4,3,1,80,0,0
123001,-100,4,3,1,90,0,0
123297,-100,4,3,1,80,0,0
123593,-100,4,3,2,70,0,0
123888,-100,4,2,1,100,0,1
124036,-100,4,3,1,90,0,1
127435,-100,4,3,1,90,0,0
127730,-100,4,3,1,80,0,0
128026,-100,4,3,1,70,0,0
128322,-100,4,3,2,70,0,0
128617,-100,4,3,1,90,0,1
132164,-100,4,3,1,80,0,0
132459,-100,4,3,1,90,0,0
132755,-100,4,3,1,80,0,0
133051,-100,4,3,2,70,0,0
133346,-100,4,3,1,90,0,1
135859,-100,4,2,7,90,0,1
136006,-100,4,3,1,90,0,1
136450,-100,4,2,7,90,0,1
136598,-100,4,3,1,90,0,1
136893,-100,4,2,1,100,0,0
137189,-100,4,3,1,80,0,0
137484,-100,4,3,1,70,0,0
137780,-100,4,3,1,80,0,0
138075,-100,4,2,1,70,0,0
138667,-100,4,3,2,80,0,0
139110,-100,4,2,1,80,0,0
139849,-100,4,3,2,80,0,0
140440,-100,4,3,1,80,0,0
142509,-100,4,3,2,80,0,0
142804,-100,4,3,1,80,0,0
144873,-100,4,3,2,80,0,0
145169,-100,4,3,1,80,0,0
147238,-100,4,3,2,80,0,0
147534,-100,4,3,1,80,0,0
148716,-100,4,3,1,80,0,0
148864,-100,4,3,1,80,0,0
150785,-100,4,3,2,80,0,0
150933,-100,4,3,1,80,0,0
152854,-100,4,3,2,80,0,0
153002,-100,4,3,1,80,0,0
153149,-100,4,3,2,80,0,0
153297,-100,4,3,1,80,0,0
155514,-100,4,3,2,80,0,0
155662,-100,4,3,1,80,0,0
158174,-303.030303030303,4,3,1,90,0,0
158322,-100,4,2,1,50,0,0
159208,-100,4,2,1,10,0,0
159356,-100,4,3,1,80,0,0
159504,-100,4,3,1,80,0,0

[Colours]
Combo1 : 255,255,125
Combo2 : 50,50,100
Combo3 : 225,175,40
Combo4 : 50,125,255

[HitObjects]
472,192,637,6,0,L|488:228,2,40,2|2|2,0:0|0:0|0:0,0:0:0:0:
308,192,932,2,0,L|304:96,1,80,10|4,0:0|0:0,0:0:0:0:
464,88,1375,1,0,0:0:0:0:
472,16,1523,1,2,0:0:0:0:
104,16,1819,6,0,P|64:56|108:136,1,160,6|2,0:0|0:0,0:0:0:0:
196,136,2262,1,0,0:0:0:0:
356,192,2410,2,0,B|436:192|436:192|436:280,1,160,2|2,0:0|0:0,0:0:0:0:
356,272,2853,1,0,0:0:0:0:
276,272,3001,2,0,L|416:192,1,160,2|2,0:0|0:0,0:0:0:0:
336,192,3444,1,2,0:0:0:0:
256,192,3592,1,2,0:0:0:0:
408,192,3888,1,2,0:0:0:0:
160,192,4183,6,0,L|156:92,1,80,2|0,0:0|0:0,0:0:0:0:
332,48,4479,2,0,L|401:88,2,80,2|0|2,0:0|0:0|0:0,0:0:0:0:
188,48,5070,2,0,L|267:94,1,80,2|0,0:0|0:0,0:0:0:0:
96,48,5366,1,2,0:0:0:0:
36,84,5513,1,2,0:0:0:0:
36,156,5661,1,2,0:0:0:0:
96,192,5809,1,2,0:0:0:0:
320,192,5957,2,0,L|400:192,1,80,2|8,0:0|0:0,0:0:0:0:
312,192,6252,2,0,L|304:104,1,80,10|8,0:0|0:0,0:0:0:0:
468,312,6548,6,0,P|508:272|464:192,1,160,6|2,0:0|0:0,0:0:0:0:
377,193,6991,1,0,0:0:0:0:
212,192,7139,2,0,P|160:236|212:288,1,160,2|2,0:0|0:0,0:0:0:0:
357,113,7730,2,0,L|217:193,1,160,2|2,0:0|0:0,0:0:0:0:
137,193,8173,1,2,0:0:0:0:
218,192,8321,1,2,0:0:0:0:
57,193,8617,1,2,0:0:0:0:
345,193,8912,5,8,0:0:0:0:
384,204,8986,1,8,0:0:0:0:
408,236,9060,1,8,0:0:0:0:
422,280,9134,1,8,0:0:0:0:
410,325,9208,1,8,0:0:0:0:
386,356,9282,1,8,0:0:0:0:
347,365,9356,1,8,0:0:0:0:
173,365,9503,1,8,0:0:0:0:
160,312,9577,1,8,0:0:0:0:
180,260,9651,1,8,0:0:0:0:
228,232,9725,1,8,0:0:0:0:
291,232,9799,2,0,L|359:232,2,40,8|8|8,0:0|0:0|0:0,0:0:0:0:
69,193,10095,6,0,L|223:136,2,160,6|2|2,0:0|0:0|0:0,0:0:0:0:
244,192,10834,1,2,0:0:0:0:
296,192,10907,1,2,0:0:0:0:
348,192,10981,2,0,L|348:112,1,80,10|0,0:0|0:0,0:0:0:0:
119,95,11277,6,0,P|47:131|73:196,1,160,2|2,0:0|0:0,0:0:0:0:
158,193,11720,1,8,0:0:0:0:
316,192,11868,2,0,B|396:192|396:192|396:280,1,160,2|2,0:0|0:0,0:0:0:0:
308,272,12311,1,8,0:0:0:0:
136,296,12459,6,0,L|132:200,1,80,2|8,0:0|0:0,0:0:0:0:
232,192,12755,2,0,L|236:104,1,80,2|8,0:0|0:0,0:0:0:0:
408,192,13050,1,2,0:0:0:0:
444,168,13124,1,2,0:0:0:0:
452,124,13198,1,2,0:0:0:0:
428,88,13272,1,2,0:0:0:0:
384,80,13346,1,10,0:0:0:0:
288,80,13494,1,2,0:0:0:0:
460,80,13641,6,0,P|504:116|452:184,1,160,2|2,0:0|0:0,0:0:0:0:
364,184,14084,1,8,0:0:0:0:
208,184,14232,2,0,P|152:228|200:288,1,160,2|2,0:0|0:0,0:0:0:0:
280,296,14675,1,8,0:0:0:0:
108,296,14824,6,0,L|104:200,1,80,2|8,0:0|0:0,0:0:0:0:
264,192,15119,2,0,L|342:163,1,80,2|8,0:0|0:0,0:0:0:0:
120,92,15415,2,0,L|72:92,2,40,8|8|2,0:0|0:0|0:0,0:0:0:0:
208,92,15710,1,8,0:0:0:0:
248,92,15784,1,8,0:0:0:0:
288,92,15858,1,2,0:0:0:0:
120,40,16006,6,0,L|116:144,1,80,6|8,0:0|0:0,0:0:0:0:
255,256,16301,2,0,L|257:168,1,80,2|8,0:0|0:0,0:0:0:0:
396,192,16597,2,0,P|448:236|400:296,1,160,2|2,0:0|0:0,0:0:0:0:
312,296,17040,1,8,0:0:0:0:
240,192,17188,6,0,L|236:280,1,80,2|8,0:0|0:0,0:0:0:0:
332,272,17484,2,0,L|336:368,1,80,2|8,0:0|0:0,0:0:0:0:
180,352,17779,2,0,L|168:300,2,40,2|2|2,0:0|0:0|0:0,0:0:0:0:
343,351,18075,2,0,L|425:336,1,80,10|2,0:0|0:0,0:0:0:0:
204,352,18370,6,0,P|156:316|208:252,1,160,6|2,0:0|0:0,0:0:0:0:
296,252,18814,1,8,0:0:0:0:
140,192,18962,1,8,0:0:0:0:
184,192,19036,1,8,0:0:0:0:
228,192,19109,1,2,0:0:0:0:
132,192,19257,1,2,0:0:0:0:
348,192,19405,1,8,0:0:0:0:
212,192,19701,5,0,0:0:0:0:
163,120,19848,1,2,0:0:0:0:
188,36,19996,1,0,0:0:0:0:
272,0,20144,1,2,0:0:0:0:
352,36,20292,1,0,0:0:0:0:
381,119,20439,1,2,0:0:0:0:
332,192,20587,1,0,0:0:0:0:
96,192,20735,6,0,L|48:192,2,40,6|2|2,0:0|0:0|0:0,0:0:0:0:
184,192,21031,2,0,L|192:280,1,80,2|8,0:0|0:0,0:0:0:0:
104,272,21326,2,0,L|192:272,1,80,2|8,0:0|0:0,0:0:0:0:
96,272,21622,2,0,L|88:192,1,80,2|2,0:0|0:0,0:0:0:0:
256,192,21917,5,2,0:0:0:0:
257,152,21991,1,0,0:0:0:0:
259,112,22065,1,8,0:0:0:0:
128,48,22361,1,2,0:0:0:0:
288,48,22508,1,2,0:0:0:0:
200,48,22656,1,8,0:0:0:0:
280,48,22804,1,8,0:0:0:0:
281,87,22878,1,2,0:0:0:0:
283,127,22952,1,2,0:0:0:0:
56,192,23100,6,0,L|52:288,1,80,6|8,0:0|0:0,0:0:0:0:
148,272,23395,2,0,L|152:360,1,80,2|2,0:0|0:0,0:0:0:0:
248,352,23691,2,0,L|248:256,1,80,2|8,0:0|0:0,0:0:0:0:
416,192,23986,2,0,L|332:192,1,80,8|2,0:0|0:0,0:0:0:0:
240,192,24282,5,2,0:0:0:0:
320,192,24430,1,8,0:0:0:0:
320,112,24577,1,2,0:0:0:0:
240,112,24725,1,2,0:0:0:0:
328,112,24873,2,0,L|332:200,1,80,2|8,0:0|0:0,0:0:0:0:
244,232,25169,2,0,L|164:232,1,80,8|2,0:0|0:0,0:0:0:0:
400,192,25464,5,6,0:0:0:0:
440,192,25538,1,0,0:0:0:0:
480,192,25612,1,0,0:0:0:0:
392,192,25760,2,0,L|388:104,1,80,2|8,0:0|0:0,0:0:0:0:
300,112,26055,2,0,L|384:112,1,80,2|8,0:0|0:0,0:0:0:0:
468,112,26351,2,0,L|380:112,1,80,2|2,0:0|0:0,0:0:0:0:
228,112,26646,5,2,0:0:0:0:
312,112,26794,2,0,P|364:64|312:12,1,160,8|2,0:0|0:0,0:0:0:0:
152,8,27237,2,0,L|228:52,1,80,2|8,0:0|0:0,0:0:0:0:
382,73,27533,2,0,L|412:101,2,40,2|2|2,0:0|0:0|0:0,0:0:0:0:
168,192,27829,6,0,L|164:272,1,80,6|2,0:0|0:0,0:0:0:0:
252,192,28124,2,0,L|195:259,1,80,2|2,0:0|0:0,0:0:0:0:
288,192,28420,2,0,L|204:192,1,80,2|8,0:0|0:0,0:0:0:0:
372,192,28715,1,2,0:0:0:0:
373,231,28789,1,2,0:0:0:0:
375,271,28863,1,2,0:0:0:0:
280,272,29011,5,2,0:0:0:0:
272,184,29159,1,8,0:0:0:0:
324,112,29306,1,2,0:0:0:0:
412,112,29454,1,2,0:0:0:0:
324,112,29602,2,0,L|408:112,1,80,2|2,0:0|0:0,0:0:0:0:
316,112,29898,2,0,L|220:112,1,80,8|2,0:0|0:0,0:0:0:0:
464,112,30193,6,0,L|468:52,2,40,6|2|2,0:0|0:0|0:0,0:0:0:0:
376,116,30489,2,0,L|372:24,1,80,2|8,0:0|0:0,0:0:0:0:
204,36,30784,2,0,L|200:116,1,80,2|8,0:0|0:0,0:0:0:0:
288,116,31080,2,0,L|292:72,2,40,2|2|2,0:0|0:0|0:0,0:0:0:0:
60,116,31375,6,0,P|4:160|60:204,1,160,6|2,0:0|0:0,0:0:0:0:
100,208,31745,1,2,0:0:0:0:
144,212,31819,1,2,0:0:0:0:
232,212,31967,2,0,L|236:304,1,80,2|8,0:0|0:0,0:0:0:0:
148,292,32262,2,0,L|68:292,1,80,2|2,0:0|0:0,0:0:0:0:
232,292,32558,6,0,B|312:292|312:292|312:212,1,160,2|2,0:0|0:0,0:0:0:0:
232,192,33001,1,2,0:0:0:0:
316,132,33149,2,0,L|312:212,1,80,2|8,0:0|0:0,0:0:0:0:
148,192,33444,2,0,L|68:192,1,80,2|2,0:0|0:0,0:0:0:0:
156,192,33740,5,2,0:0:0:0:
164,104,33888,1,8,0:0:0:0:
112,32,34036,1,2,0:0:0:0:
24,32,34183,1,2,0:0:0:0:
112,32,34331,2,0,L|181:72,1,80,2|8,0:0|0:0,0:0:0:0:
92,32,34627,2,0,L|88:112,1,80,2|2,0:0|0:0,0:0:0:0:
320,192,34922,6,0,L|368:192,2,40,6|0|0,0:0|0:0|0:0,0:0:0:0:
232,192,35218,1,2,0:0:0:0:
320,192,35366,1,2,0:0:0:0:
224,192,35513,2,0,L|220:280,1,80,2|8,0:0|0:0,0:0:0:0:
308,352,35809,2,0,L|304:268,1,80,2|2,0:0|0:0,0:0:0:0:
140,272,36104,6,0,B|60:272|60:272|60:352,1,160,2|2,0:0|0:0,0:0:0:0:
140,352,36548,1,2,0:0:0:0:
220,352,36696,2,0,L|224:264,1,80,2|8,0:0|0:0,0:0:0:0:
128,192,36991,2,0,L|208:192,1,80,2|2,0:0|0:0,0:0:0:0:
372,192,37287,6,0,P|424:148|372:96,1,160,6|2,0:0|0:0,0:0:0:0:
284,96,37730,1,2,0:0:0:0:
380,96,37878,2,0,L|384:8,1,80,8|2,0:0|0:0,0:0:0:0:
296,16,38173,2,0,L|196:16,1,80,8|2,0:0|0:0,0:0:0:0:
447,15,38469,6,0,P|492:64|472:152,1,160,6|2,0:0|0:0,0:0:0:0:
391,191,38912,1,0,0:0:0:0:
227,191,39060,2,0,L|207:138,2,53.3333333333333,8|2|2,0:0|0:0|0:0,0:0:0:0:
163,191,39356,2,0,L|143:138,2,53.3333333333333,8|2|2,0:0|0:0|0:0,0:0:0:0:
227,191,39651,6,0,L|315:191,1,80,2|2,0:0|0:0,0:0:0:0:
216,192,39947,2,0,L|212:284,1,80,8|2,0:0|0:0,0:0:0:0:
379,191,40243,2,0,L|375:103,1,80,8|0,0:0|0:0,0:0:0:0:
247,111,40686,5,2,0:0:0:0:
336,112,40834,2,0,L|405:72,1,80,8|2,0:0|0:0,0:0:0:0:
180,112,41129,1,12,0:0:0:0:
308,112,41425,6,0,L|312:196,1,80,2|2,0:0|0:0,0:0:0:0:
220,284,41720,2,0,L|147:242,1,80,8|2,0:0|0:0,0:0:0:0:
304,284,42016,1,8,0:0:0:0:
384,284,42164,1,2,0:0:0:0:
384,284,42312,5,0,0:0:0:0:
304,284,42459,1,2,0:0:0:0:
392,284,42607,2,0,L|396:236,2,40,8|0|2,0:0|0:0|0:0,0:0:0:0:
168,192,42903,2,0,L|164:96,1,80,6|0,0:0|0:0,0:0:0:0:
324,112,43198,6,0,L|328:24,1,80,2|2,0:0|0:0,0:0:0:0:
164,32,43494,2,0,L|240:76,1,80,8|2,0:0|0:0,0:0:0:0:
72,32,43789,2,0,L|68:132,1,80,8|2,0:0|0:0,0:0:0:0:
196,192,44233,5,2,0:0:0:0:
356,192,44381,2,0,L|360:104,1,80,8|2,0:0|0:0,0:0:0:0:
200,72,44676,2,0,L|108:72,1,80,6|0,0:0|0:0,0:0:0:0:
341,112,44972,5,8,0:0:0:0:
400,112,45119,1,8,0:0:0:0:
264,192,45267,1,8,0:0:0:0:
188,192,45415,1,8,0:0:0:0:
341,112,45563,1,8,0:0:0:0:
249,112,45710,1,8,0:0:0:0:
385,112,46006,1,2,0:0:0:0:
341,112,46080,1,2,0:0:0:0:
297,112,46154,6,0,L|293:24,1,80,8|8,0:0|0:0,0:0:0:0:
380,32,46449,1,8,0:0:0:0:
216,32,46597,1,8,0:0:0:0:
372,32,47040,2,0,L|376:116,1,80,8|2,0:0|0:0,0:0:0:0:
132,112,47336,6,0,P|76:156|132:196,1,160,6|8,0:0|0:0,0:0:0:0:
216,200,47779,1,2,0:0:0:0:
380,200,47927,2,0,L|216:200,1,160,8|2,0:0|0:0,0:0:0:0:
308,200,48371,1,2,0:0:0:0:
144,200,48518,6,0,L|56:200,1,80,8|2,0:0|0:0,0:0:0:0:
108,200,48740,1,2,0:0:0:0:
152,200,48814,1,8,0:0:0:0:
56,200,48962,1,2,0:0:0:0:
220,200,49109,1,8,0:0:0:0:
92,200,49405,2,0,L|88:112,1,80,8|2,0:0|0:0,0:0:0:0:
256,40,49701,6,0,B|336:40|336:40|336:120,1,160,12|8,0:0|0:0,0:0:0:0:
248,120,50144,1,2,0:0:0:0:
84,120,50292,2,0,L|164:120,1,80,8|2,0:0|0:0,0:0:0:0:
260,120,50587,2,0,L|256:208,1,80,8|2,0:0|0:0,0:0:0:0:
28,284,50883,5,6,0:0:0:0:
164,284,51178,1,6,0:0:0:0:
12,284,51474,1,6,0:0:0:0:
156,192,51770,1,8,0:0:0:0:
116,192,51843,1,8,0:0:0:0:
76,192,51917,1,8,0:0:0:0:
316,192,52065,6,0,B|396:192|396:192|396:112,1,160,6|8,0:0|0:0,0:0:0:0:
316,112,52508,1,2,0:0:0:0:
156,192,52656,2,0,B|236:192|236:192|236:112,1,160,8|8,0:0|0:0,0:0:0:0:
156,112,53100,1,2,0:0:0:0:
392,112,53247,6,0,L|476:112,1,80,8|2,0:0|0:0,0:0:0:0:
428,112,53469,1,2,0:0:0:0:
384,112,53543,1,8,0:0:0:0:
480,112,53691,1,2,0:0:0:0:
244,112,53838,2,0,P|192:156|244:208,1,160,8|8,0:0|0:0,0:0:0:0:
332,208,54282,1,2,0:0:0:0:
168,208,54430,6,0,B|88:208|88:208|88:288,1,160,12|8,0:0|0:0,0:0:0:0:
176,288,54873,1,2,0:0:0:0:
340,288,55021,2,0,L|336:200,1,80,8|2,0:0|0:0,0:0:0:0:
248,192,55316,2,0,L|164:192,1,80,8|2,0:0|0:0,0:0:0:0:
392,288,55612,5,6,0:0:0:0:
256,288,55907,1,6,0:0:0:0:
120,288,56203,1,6,0:0:0:0:
280,288,56499,2,0,L|288:244,2,40,8|8|8,0:0|0:0|0:0,0:0:0:0:
52,192,56794,6,0,P|20:152|80:80,1,160,6|8,0:0|0:0,0:0:0:0:
168,80,57238,1,2,0:0:0:0:
332,80,57385,2,0,L|328:160,1,80,8|2,0:0|0:0,0:0:0:0:
236,192,57681,2,0,L|320:192,1,80,8|2,0:0|0:0,0:0:0:0:
152,192,57976,5,8,0:0:0:0:
224,192,58124,1,2,0:0:0:0:
144,192,58272,1,8,0:0:0:0:
232,192,58420,1,8,0:0:0:0:
80,192,58568,2,0,P|32:244|80:304,1,160,8|8,0:0|0:0,0:0:0:0:
168,304,59011,1,2,0:0:0:0:
332,304,59159,6,0,B|412:304|412:304|412:224,1,160,6|8,0:0|0:0,0:0:0:0:
328,196,59602,1,2,0:0:0:0:
492,192,59750,2,0,L|496:112,1,80,8|2,0:0|0:0,0:0:0:0:
400,116,60045,2,0,L|396:32,1,80,8|2,0:0|0:0,0:0:0:0:
164,36,60341,5,6,0:0:0:0:
316,36,60637,1,6,0:0:0:0:
180,36,60932,1,6,0:0:0:0:
324,192,61228,2,0,L|344:244,2,40,8|8|8,0:0|0:0|0:0,0:0:0:0:
164,192,61523,6,0,B|84:192|84:192|84:112,1,160,6|8,0:0|0:0,0:0:0:0:
164,112,61967,1,2,0:0:0:0:
324,192,62114,2,0,B|160:192,1,160,8|8,0:0|0:0,0:0:0:0:
204,192,62484,1,2,0:0:0:0:
244,192,62558,1,2,0:0:0:0:
404,288,62705,6,0,L|488:288,1,80,2|2,0:0|0:0,0:0:0:0:
396,288,63001,1,8,0:0:0:0:
492,288,63149,1,2,0:0:0:0:
336,288,63297,2,0,P|304:228|328:140,1,160,8|2,0:0|0:0,0:0:0:0:
408,144,63740,1,8,0:0:0:0:
245,142,63888,6,0,B|165:142|165:142|165:62,1,160,2|2,0:0|0:0,0:0:0:0:
253,62,64331,1,8,0:0:0:0:
417,62,64479,2,0,L|424:148,1,80,2|10,0:0|0:0,0:0:0:0:
325,142,64774,2,0,L|318:228,1,80,8|2,0:0|0:0,0:0:0:0:
80,224,65070,5,6,0:0:0:0:
216,224,65366,1,6,0:0:0:0:
352,224,65661,1,6,0:0:0:0:
208,224,65957,2,0,L|288:224,1,80,8|2,0:0|0:0,0:0:0:0:
124,224,66252,5,2,0:0:0:0:
52,192,66400,1,0,0:0:0:0:
52,112,66548,1,2,0:0:0:0:
124,76,66696,1,0,0:0:0:0:
288,76,66843,1,8,0:0:0:0:
300,124,66917,1,8,0:0:0:0:
288,176,66991,1,8,0:0:0:0:
252,212,67065,1,8,0:0:0:0:
200,224,67139,2,0,L|196:136,1,80,12|0,0:0|0:0,0:0:0:0:
424,40,67435,6,0,L|428:144,1,80,12|8,0:0|0:0,0:0:0:0:
268,192,67730,2,0,L|347:146,1,80,2|8,0:0|0:0,0:0:0:0:
176,192,68026,2,0,P|124:236|172:296,1,160,2|2,0:0|0:0,0:0:0:0:
260,296,68469,1,8,0:0:0:0:
424,296,68617,6,0,L|428:200,1,80,2|8,0:0|0:0,0:0:0:0:
328,192,68912,2,0,L|324:104,1,80,2|8,0:0|0:0,0:0:0:0:
152,192,69208,1,2,0:0:0:0:
116,168,69282,1,2,0:0:0:0:
108,124,69356,1,2,0:0:0:0:
132,88,69430,1,2,0:0:0:0:
176,80,69504,1,8,0:0:0:0:
272,80,69651,1,2,0:0:0:0:
108,80,69799,6,0,L|104:168,1,80,2|8,0:0|0:0,0:0:0:0:
252,172,70095,2,0,L|254:280,1,80,2|8,0:0|0:0,0:0:0:0:
400,192,70390,2,0,L|452:192,2,40,2|0|8,0:0|0:0|0:0,0:0:0:0:
312,192,70686,1,2,0:0:0:0:
392,192,70834,1,8,0:0:0:0:
228,312,70981,6,0,L|224:216,1,80,2|8,0:0|0:0,0:0:0:0:
388,192,71277,2,0,L|392:96,1,80,2|8,0:0|0:0,0:0:0:0:
224,112,71572,2,0,L|176:112,2,40,8|8|2,0:0|0:0|0:0,0:0:0:0:
320,112,71868,1,8,0:0:0:0:
360,112,71942,1,8,0:0:0:0:
400,112,72016,1,8,0:0:0:0:
172,112,72164,6,0,L|168:216,1,80,6|8,0:0|0:0,0:0:0:0:
329,263,72459,2,0,L|249:217,1,80,2|8,0:0|0:0,0:0:0:0:
100,332,72755,2,0,B|100:252|100:252|176:220,1,160,2|2,0:0|0:0,0:0:0:0:
260,224,73198,1,8,0:0:0:0:
96,224,73346,6,0,L|92:136,1,80,2|8,0:0|0:0,0:0:0:0:
188,144,73641,2,0,L|192:48,1,80,2|8,0:0|0:0,0:0:0:0:
356,64,73937,2,0,L|368:116,2,40,2|2|2,0:0|0:0|0:0,0:0:0:0:
191,64,74233,2,0,L|107:64,1,80,8|2,0:0|0:0,0:0:0:0:
332,64,74528,6,0,P|380:100|328:164,1,160,6|2,0:0|0:0,0:0:0:0:
240,164,74971,1,8,0:0:0:0:
404,164,75119,2,0,L|468:164,2,40,2|2|8,0:0|0:0|0:0,0:0:0:0:
324,164,75415,1,2,0:0:0:0:
420,164,75563,1,8,0:0:0:0:
196,164,75710,5,8,0:0:0:0:
150,182,75784,1,8,0:0:0:0:
132,227,75858,1,8,0:0:0:0:
150,272,75932,1,8,0:0:0:0:
195,291,76006,1,2,0:0:0:0:
284,292,76154,1,2,0:0:0:0:
448,292,76302,1,8,0:0:0:0:
449,252,76375,1,0,0:0:0:0:
451,212,76449,1,2,0:0:0:0:
356,192,76597,2,0,L|283:150,1,80,8|2,0:0|0:0,0:0:0:0:
448,192,76893,6,0,P|500:152|448:96,1,160,6|2,0:0|0:0,0:0:0:0:
368,96,77336,1,0,0:0:0:0:
284,96,77484,2,0,L|280:184,1,80,2|0,0:0|0:0,0:0:0:0:
368,96,77779,2,0,L|372:16,1,80,2|0,0:0|0:0,0:0:0:0:
208,16,78075,5,8,0:0:0:0:
194,63,78149,1,8,0:0:0:0:
209,110,78223,1,2,0:0:0:0:
248,139,78296,1,2,0:0:0:0:
296,144,78370,1,8,0:0:0:0:
200,144,78518,1,2,0:0:0:0:
428,144,78666,1,12,0:0:0:0:
300,324,78961,6,0,L|304:232,1,80,2|0,0:0|0:0,0:0:0:0:
400,244,79257,2,0,L|396:156,1,80,2|0,0:0|0:0,0:0:0:0:
492,164,79553,2,0,L|496:76,1,80,2|0,0:0|0:0,0:0:0:0:
400,84,79848,2,0,L|404:164,1,80,2|0,0:0|0:0,0:0:0:0:
236,36,80144,5,8,0:0:0:0:
223,83,80218,1,8,0:0:0:0:
238,130,80292,1,8,0:0:0:0:
277,159,80365,1,8,0:0:0:0:
324,164,80439,1,8,0:0:0:0:
228,164,80587,1,2,0:0:0:0:
456,164,80735,1,12,0:0:0:0:
328,240,81030,6,0,B|248:240|248:240|248:320,1,160,2|2,0:0|0:0,0:0:0:0:
328,320,81474,1,0,0:0:0:0:
409,321,81622,2,0,L|413:229,1,80,2|0,0:0|0:0,0:0:0:0:
317,241,81917,2,0,L|321:157,1,80,2|0,0:0|0:0,0:0:0:0:
153,161,82213,5,8,0:0:0:0:
113,161,82287,1,8,0:0:0:0:
72,160,82360,1,2,0:0:0:0:
113,161,82434,1,2,0:0:0:0:
153,161,82508,1,8,0:0:0:0:
56,160,82656,1,2,0:0:0:0:
281,160,82804,1,12,0:0:0:0:
154,61,83099,6,0,P|102:113|154:161,1,160,2|2,0:0|0:0,0:0:0:0:
242,161,83543,1,0,0:0:0:0:
330,161,83691,2,0,L|334:261,1,80,2|0,0:0|0:0,0:0:0:0:
238,241,83986,2,0,L|234:161,1,80,2|0,0:0|0:0,0:0:0:0:
330,161,84282,5,2,0:0:0:0:
242,161,84429,1,2,0:0:0:0:
242,249,84577,1,2,0:0:0:0:
330,249,84725,1,2,0:0:0:0:
168,248,84873,2,0,L|116:248,2,40,8|8|2,0:0|0:0|0:0,0:0:0:0:
400,248,85168,6,0,B|480:248|480:248|480:336,1,160,6|2,0:0|0:0,0:0:0:0:
396,328,85612,1,2,0:0:0:0:
312,332,85759,2,0,L|169:250,1,160,8|8,0:0|0:0,0:0:0:0:
256,252,86203,1,2,0:0:0:0:
96,252,86351,6,0,L|92:148,1,80,2|0,0:0|0:0,0:0:0:0:
188,112,86646,2,0,L|111:156,1,80,8|2,0:0|0:0,0:0:0:0:
276,112,86942,1,12,0:0:0:0:
20,112,87237,6,0,B|16:32|16:32|96:32,1,160,8|8,0:0|0:0,0:0:0:0:
184,32,87681,1,2,0:0:0:0:
88,32,87828,2,0,L|84:116,1,80,8|2,0:0|0:0,0:0:0:0:
180,112,88124,2,0,L|103:156,1,80,8|2,0:0|0:0,0:0:0:0:
272,192,88420,6,0,L|352:192,1,80,8|2,0:0|0:0,0:0:0:0:
256,192,88715,2,0,L|172:192,1,80,8|2,0:0|0:0,0:0:0:0:
336,192,89011,1,12,0:0:0:0:
84,292,89306,6,0,L|226:210,1,160,8|8,0:0|0:0,0:0:0:0:
132,212,89750,1,2,0:0:0:0:
228,212,89897,2,0,L|370:130,1,160,8|8,0:0|0:0,0:0:0:0:
276,132,90341,1,2,0:0:0:0:
436,132,90489,6,0,L|440:224,1,80,8|2,0:0|0:0,0:0:0:0:
344,212,90784,2,0,L|340:300,1,80,8|2,0:0|0:0,0:0:0:0:
180,292,91080,1,12,0:0:0:0:
444,292,91375,6,0,P|496:248|444:192,1,160,8|8,0:0|0:0,0:0:0:0:
356,188,91819,1,2,0:0:0:0:
196,184,91966,2,0,L|204:84,1,80,8|2,0:0|0:0,0:0:0:0:
300,268,92262,2,0,L|292:168,1,80,8|2,0:0|0:0,0:0:0:0:
196,184,92558,5,8,0:0:0:0:
108,184,92705,1,2,0:0:0:0:
108,96,92853,1,8,0:0:0:0:
196,96,93001,1,2,0:0:0:0:
420,96,93149,1,6,0:0:0:0:
256,192,93296,12,0,94331,0:0:0:0:
289,192,95513,5,2,0:0:0:0:
253,192,95587,1,2,0:0:0:0:
217,192,95661,1,2,0:0:0:0:
377,192,95809,2,0,L|381:100,1,80,10|4,0:0|0:0,0:0:0:0:
253,192,96252,1,8,0:0:0:0:
416,192,96400,1,2,0:0:0:0:
273,192,96695,6,0,L|269:104,1,80,2|0,0:0|0:0,0:0:0:0:
365,32,96991,2,0,L|369:128,1,80,2|0,0:0|0:0,0:0:0:0:
465,192,97286,2,0,L|469:100,1,80,2|0,0:0|0:0,0:0:0:0:
205,112,97730,2,0,P|157:156|205:220,1,160,2|2,0:0|0:0,0:0:0:0:
293,224,98173,2,0,L|297:312,1,80,0|2,0:0|0:0,0:0:0:0:
129,304,98469,5,6,0:0:0:0:
45,272,98616,1,0,0:0:0:0:
45,184,98764,1,2,0:0:0:0:
129,152,98912,1,0,0:0:0:0:
45,184,99060,1,2,0:0:0:0:
129,152,99208,1,0,0:0:0:0:
129,64,99355,1,2,0:0:0:0:
45,36,99503,1,8,0:0:0:0:
209,32,99651,2,0,L|213:120,1,80,8|2,0:0|0:0,0:0:0:0:
121,152,99947,2,0,L|117:240,1,80,2|2,0:0|0:0,0:0:0:0:
281,232,100242,6,0,L|437:192,1,160,6|2,0:0|0:0,0:0:0:0:
349,192,100685,1,0,0:0:0:0:
445,192,100833,2,0,L|449:96,1,80,2|0,0:0|0:0,0:0:0:0:
305,116,101277,1,2,0:0:0:0:
141,116,101424,2,0,L|69:73,2,80,2|2|2,0:0|0:0|0:0,0:0:0:0:
285,116,102015,6,0,L|289:196,1,80,6|0,0:0|0:0,0:0:0:0:
201,196,102311,2,0,L|289:196,1,80,8|0,0:0|0:0,0:0:0:0:
193,196,102607,2,0,P|145:256|193:308,1,160,2|8,0:0|0:0,0:0:0:0:
281,308,103050,2,0,L|427:224,1,160,0|2,0:0|0:0,0:0:0:0:
253,192,103493,1,8,0:0:0:0:
397,192,103789,6,0,L|484:160,1,80,6|0,0:0|0:0,0:0:0:0:
381,192,104084,2,0,L|295:160,1,80,8|0,0:0|0:0,0:0:0:0:
401,112,104380,1,2,0:0:0:0:
364,98,104454,1,2,0:0:0:0:
326,84,104528,1,2,0:0:0:0:
161,112,104676,5,8,0:0:0:0:
198,98,104749,1,0,0:0:0:0:
236,84,104823,2,0,L|321:84,1,80,2|2,0:0|0:0,0:0:0:0:
221,84,105119,1,12,0:0:0:0:
385,84,105267,1,12,0:0:0:0:
121,192,105562,5,2,0:0:0:0:
41,228,105710,1,0,0:0:0:0:
41,316,105858,1,8,0:0:0:0:
121,356,106006,1,2,0:0:0:0:
301,192,106449,2,0,L|209:192,1,80,8|0,0:0|0:0,0:0:0:0:
389,192,106745,1,2,0:0:0:0:
468,192,106892,1,2,0:0:0:0:
468,112,107040,1,8,0:0:0:0:
100,112,107336,5,8,0:0:0:0:
24,112,107484,1,8,0:0:0:0:
175,192,107632,1,8,0:0:0:0:
100,192,107780,1,8,0:0:0:0:
251,112,107928,1,8,0:0:0:0:
176,112,108075,1,8,0:0:0:0:
295,112,108371,1,2,0:0:0:0:
251,112,108445,1,2,0:0:0:0:
207,112,108519,6,0,L|203:24,1,80,8|8,0:0|0:0,0:0:0:0:
363,32,108814,1,8,0:0:0:0:
211,32,108962,1,8,0:0:0:0:
211,32,109701,6,0,L|203:352,1,320,4|2,0:0|0:0,0:0:0:0:
443,192,110883,1,8,0:0:0:0:
252,344,112066,6,0,L|260:24,1,320,2|8,0:0|0:0,0:0:0:0:
404,24,112952,1,0,0:0:0:0:
140,24,113248,1,6,0:0:0:0:
409,24,113839,1,6,0:0:0:0:
89,24,114430,6,0,P|57:80|101:156,1,160,6|0,0:0|0:0,0:0:0:0:
264,192,114873,1,2,0:0:0:0:
308,192,114947,1,2,0:0:0:0:
352,192,115021,1,8,0:0:0:0:
432,192,115169,1,0,0:0:0:0:
432,272,115317,1,2,0:0:0:0:
352,272,115465,1,0,0:0:0:0:
188,272,115612,5,2,0:0:0:0:
276,272,115760,2,0,L|280:364,1,80,8|2,0:0|0:0,0:0:0:0:
16,192,116203,2,0,L|12:24,1,160,12|2,0:0|0:0,0:0:0:0:
284,32,116795,6,0,P|332:84|284:144,1,160,2|0,0:0|0:0,0:0:0:0:
196,144,117238,1,2,0:0:0:0:
36,192,117386,2,0,L|188:144,1,160,12|2,0:0|0:0,0:0:0:0:
468,144,117977,5,8,0:0:0:0:
332,144,118272,1,2,0:0:0:0:
484,144,118568,1,8,0:0:0:0:
348,144,118864,2,0,L|424:100,1,80,8|0,0:0|0:0,0:0:0:0:
184,104,119159,6,0,P|132:152|180:208,1,160,6|2,0:0|0:0,0:0:0:0:
264,208,119603,1,0,0:0:0:0:
172,208,119750,2,0,L|320:294,1,160,8|2,0:0|0:0,0:0:0:0:
220,288,120194,1,0,0:0:0:0:
384,288,120341,6,0,L|388:240,1,40,8|8,0:0|0:0,0:0:0:0:
324,248,120489,2,0,L|328:200,1,40,8|8,0:0|0:0,0:0:0:0:
384,288,120637,2,0,L|388:240,1,40,8|8,0:0|0:0,0:0:0:0:
324,248,120785,2,0,L|328:200,1,40,8|8,0:0|0:0,0:0:0:0:
384,288,120933,1,8,0:0:0:0:
384,288,121228,2,0,L|292:288,1,80,2|0,0:0|0:0,0:0:0:0:
76,288,121524,6,0,P|20:248|72:192,1,160,6|0,0:0|0:0,0:0:0:0:
156,192,121967,1,2,0:0:0:0:
320,192,122115,2,0,L|324:96,1,80,8|0,0:0|0:0,0:0:0:0:
228,112,122410,1,2,0:0:0:0:
316,112,122558,1,8,0:0:0:0:
92,112,122706,5,6,0:0:0:0:
228,112,123002,1,6,0:0:0:0:
76,112,123297,2,0,L|72:32,1,80,6|0,0:0|0:0,0:0:0:0:
232,32,123593,1,8,0:0:0:0:
192,32,123667,1,8,0:0:0:0:
152,32,123740,1,8,0:0:0:0:
384,32,123888,6,0,L|464:32,1,80,6|2,0:0|0:0,0:0:0:0:
424,32,124110,1,2,0:0:0:0:
384,32,124184,1,8,0:0:0:0:
288,32,124332,1,2,0:0:0:0:
124,32,124479,2,0,B|44:32|44:32|44:112,1,160,8|8,0:0|0:0,0:0:0:0:
132,148,124923,1,2,0:0:0:0:
368,148,125070,6,0,L|452:148,1,80,8|2,0:0|0:0,0:0:0:0:
408,148,125292,1,2,0:0:0:0:
368,148,125366,1,8,0:0:0:0:
456,148,125514,1,2,0:0:0:0:
220,148,125662,2,0,P|176:200|216:272,1,160,8|8,0:0|0:0,0:0:0:0:
304,272,126105,1,2,0:0:0:0:
72,244,126253,6,0,P|52:300|60:332,1,80,6|2,0:0|0:0,0:0:0:0:
84,356,126474,1,2,0:0:0:0:
132,368,126548,1,8,0:0:0:0:
228,368,126696,1,2,0:0:0:0:
64,244,126844,2,0,L|68:156,1,80,8|2,0:0|0:0,0:0:0:0:
164,148,127139,2,0,L|76:148,1,80,8|2,0:0|0:0,0:0:0:0:
324,148,127435,5,6,0:0:0:0:
188,148,127731,1,6,0:0:0:0:
52,148,128026,1,6,0:0:0:0:
212,148,128322,1,8,0:0:0:0:
172,148,128396,1,8,0:0:0:0:
132,148,128470,1,8,0:0:0:0:
368,148,128617,6,0,P|426:193|432:216,1,80,6|2,0:0|0:0,0:0:0:0:
420,256,128839,1,2,0:0:0:0:
368,272,128913,1,8,0:0:0:0:
280,272,129061,1,2,0:0:0:0:
116,272,129208,2,0,L|258:190,1,160,8|8,0:0|0:0,0:0:0:0:
164,192,129652,1,2,0:0:0:0:
324,192,129800,5,8,0:0:0:0:
244,192,129947,1,8,0:0:0:0:
332,192,130095,1,8,0:0:0:0:
236,192,130243,1,8,0:0:0:0:
396,192,130391,2,0,P|444:140|396:80,1,160,8|8,0:0|0:0,0:0:0:0:
308,80,130834,1,2,0:0:0:0:
148,80,130982,6,0,B|68:80|68:80|68:160,1,160,6|8,0:0|0:0,0:0:0:0:
156,192,131425,1,2,0:0:0:0:
320,192,131573,2,0,L|243:236,1,80,8|2,0:0|0:0,0:0:0:0:
340,192,131869,2,0,L|416:236,1,80,8|2,0:0|0:0,0:0:0:0:
172,232,132164,5,6,0:0:0:0:
324,232,132460,1,6,0:0:0:0:
188,232,132755,1,6,0:0:0:0:
52,228,133051,1,8,0:0:0:0:
49,267,133125,1,8,0:0:0:0:
46,307,133199,1,8,0:0:0:0:
284,312,133346,6,0,B|364:312|364:312|364:232,1,160,6|2,0:0|0:0,0:0:0:0:
320,232,133716,1,2,0:0:0:0:
276,232,133790,1,8,0:0:0:0:
440,232,133937,2,0,P|492:176|440:124,1,160,2|2,0:0|0:0,0:0:0:0:
356,124,134381,1,8,0:0:0:0:
196,124,134529,6,0,L|112:124,1,80,2|8,0:0|0:0,0:0:0:0:
204,124,134824,1,2,0:0:0:0:
108,124,134972,1,8,0:0:0:0:
264,124,135120,2,0,P|296:184|272:272,1,160,2|2,0:0|0:0,0:0:0:0:
228,272,135489,1,2,0:0:0:0:
184,272,135563,1,2,0:0:0:0:
348,268,135711,6,0,B|348:188|348:188|268:188,1,160,2|2,0:0|0:0,0:0:0:0:
360,188,136154,1,8,0:0:0:0:
196,192,136302,1,2,0:0:0:0:
126,152,136450,1,12,0:0:0:0:
128,72,136598,1,8,0:0:0:0:
197,112,136745,1,2,0:0:0:0:
428,112,136893,5,6,0:0:0:0:
292,112,137189,1,6,0:0:0:0:
156,112,137484,1,6,0:0:0:0:
300,112,137780,2,0,L|304:196,1,80,8|2,0:0|0:0,0:0:0:0:
140,112,138075,5,2,0:0:0:0:
68,144,138223,1,0,0:0:0:0:
68,224,138371,1,2,0:0:0:0:
140,260,138519,1,0,0:0:0:0:
304,260,138667,1,8,0:0:0:0:
316,212,138740,1,8,0:0:0:0:
304,160,138814,1,8,0:0:0:0:
268,124,138888,1,8,0:0:0:0:
216,112,138962,2,0,L|288:69,1,80,8|0,0:0|0:0,0:0:0:0:
124,116,139258,6,0,P|112:184|188:232,1,160,2|0,0:0|0:0,0:0:0:0:
268,232,139701,1,2,0:0:0:0:
44,232,139849,2,0,L|28:280,4,40,8|8|8|8|8,0:0|0:0|0:0|0:0|0:0,0:0:0:0:
412,192,140440,6,0,L|432:148,2,40,6|0|0,0:0|0:0|0:0,0:0:0:0:
256,268,140736,2,0,L|252:172,1,80,8|2,0:0|0:0,0:0:0:0:
412,192,141031,2,0,P|464:244|412:288,1,160,2|8,0:0|0:0,0:0:0:0:
324,288,141474,1,2,0:0:0:0:
100,288,141622,6,0,L|96:192,1,80,2|2,0:0|0:0,0:0:0:0:
196,184,141918,2,0,L|280:184,1,80,8|2,0:0|0:0,0:0:0:0:
111,184,142213,1,2,0:0:0:0:
75,160,142287,1,2,0:0:0:0:
67,116,142361,1,2,0:0:0:0:
91,80,142435,1,0,0:0:0:0:
135,72,142509,1,8,0:0:0:0:
231,72,142657,1,8,0:0:0:0:
67,72,142804,6,0,L|63:160,1,80,6|0,0:0|0:0,0:0:0:0:
220,184,143100,2,0,L|223:264,1,80,8|2,0:0|0:0,0:0:0:0:
376,184,143396,2,0,P|424:244|360:288,1,160,2|8,0:0|0:0,0:0:0:0:
276,288,143839,1,2,0:0:0:0:
440,288,143987,6,0,L|444:192,1,80,2|2,0:0|0:0,0:0:0:0:
280,184,144282,1,10,0:0:0:0:
242,170,144356,1,2,0:0:0:0:
205,156,144430,1,2,0:0:0:0:
424,208,144578,2,0,L|354:168,1,80,10|10,0:0|0:0,0:0:0:0:
268,184,144873,2,0,L|337:144,1,80,8|0,0:0|0:0,0:0:0:0:
108,191,145169,6,0,L|60:191,2,40,6|0|0,0:0|0:0|0:0,0:0:0:0:
264,263,145465,2,0,L|268:167,1,80,8|0,0:0|0:0,0:0:0:0:
108,191,145760,2,0,P|56:243|108:287,1,160,2|8,0:0|0:0,0:0:0:0:
196,287,146203,1,2,0:0:0:0:
32,192,146351,6,0,L|28:96,1,80,2|2,0:0|0:0,0:0:0:0:
124,112,146647,2,0,L|40:112,1,80,8|2,0:0|0:0,0:0:0:0:
204,192,146942,1,2,0:0:0:0:
240,192,147016,1,2,0:0:0:0:
276,192,147090,1,2,0:0:0:0:
312,192,147164,1,0,0:0:0:0:
348,192,147238,1,8,0:0:0:0:
252,192,147386,1,8,0:0:0:0:
476,72,147534,6,0,L|480:160,1,80,6|0,0:0|0:0,0:0:0:0:
319,184,147829,2,0,L|316:264,1,80,8|0,0:0|0:0,0:0:0:0:
155,184,148125,2,0,P|103:228|151:288,1,160,2|8,0:0|0:0,0:0:0:0:
239,288,148568,1,2,0:0:0:0:
387,41,148716,6,0,L|391:145,1,80,6|0,0:0|0:0,0:0:0:0:
229,193,149011,2,0,L|309:147,1,80,2|8,0:0|0:0,0:0:0:0:
136,192,149307,2,0,P|84:236|132:296,1,160,2|8,0:0|0:0,0:0:0:0:
219,297,149750,1,2,0:0:0:0:
383,297,149898,6,0,L|387:201,1,80,2|8,0:0|0:0,0:0:0:0:
287,193,150194,2,0,L|283:105,1,80,2|8,0:0|0:0,0:0:0:0:
111,193,150489,1,2,0:0:0:0:
75,169,150563,1,2,0:0:0:0:
67,125,150637,1,2,0:0:0:0:
91,89,150711,1,2,0:0:0:0:
135,81,150785,1,8,0:0:0:0:
231,81,150933,1,2,0:0:0:0:
67,81,151080,6,0,L|63:169,1,80,2|8,0:0|0:0,0:0:0:0:
224,192,151376,2,0,L|145:146,1,80,2|8,0:0|0:0,0:0:0:0:
316,192,151671,2,0,P|368:236|320:296,1,160,2|8,0:0|0:0,0:0:0:0:
232,296,152115,1,2,0:0:0:0:
396,296,152263,6,0,L|400:200,1,80,2|12,0:0|0:0,0:0:0:0:
243,193,152558,2,0,L|165:164,1,80,2|2,0:0|0:0,0:0:0:0:
387,93,152854,2,0,L|435:93,2,40,8|8|2,0:0|0:0|0:0,0:0:0:0:
227,93,153149,1,8,0:0:0:0:
187,93,153223,1,8,0:0:0:0:
147,93,153297,1,2,0:0:0:0:
371,93,153445,6,0,B|451:93|451:93|451:177,1,160,6|2,0:0|0:0,0:0:0:0:
363,173,153888,1,8,0:0:0:0:
207,193,154036,2,0,L|43:193,1,160,2|8,0:0|0:0,0:0:0:0:
127,193,154479,1,2,0:0:0:0:
291,193,154627,6,0,L|295:281,1,80,2|8,0:0|0:0,0:0:0:0:
199,273,154923,2,0,L|195:369,1,80,2|8,0:0|0:0,0:0:0:0:
359,353,155218,2,0,L|371:301,2,40,8|8|2,0:0|0:0|0:0,0:0:0:0:
195,352,155514,2,0,L|113:337,1,80,8|2,0:0|0:0,0:0:0:0:
335,353,155809,6,0,P|383:317|331:253,1,160,6|2,0:0|0:0,0:0:0:0:
243,253,156253,1,8,0:0:0:0:
79,253,156401,2,0,L|23:253,2,40,2|2|8,0:0|0:0|0:0,0:0:0:0:
167,253,156696,1,2,0:0:0:0:
71,253,156844,1,8,0:0:0:0:
307,253,156992,5,6,0:0:0:0:
211,253,157287,1,6,0:0:0:0:
115,253,157583,1,6,0:0:0:0:
19,253,157878,1,6,0:0:0:0:
452,192,158174,6,0,B|464:192|464:192|452:188|452:188|464:188|464:188|452:184|452:184|464:184|464:184|452:180|452:180|464:180|464:180|452:176|452:176|464:176|464:176|452:172|452:172|464:172|464:172|452:168|452:168|464:168|464:168|452:164|452:164|464:164|464:164,1,184.799999436035,6|0,0:0|0:0,0:0:0:0:
241,191,159356,6,0,L|157:191,1,80,8|2,0:0|0:0,0:0:0:0:
201,191,159578,1,2,0:0:0:0:
241,191,159652,1,2,0:0:0:0:
16,192,159800,1,8,0:0:0:0:
