osu file format v14

[General]
AudioFilename: audio.mp3
AudioLeadIn: 0
PreviewTime: 118864
Countdown: 0
SampleSet: Drum
StackLeniency: 0.7
Mode: 2
LetterboxInBreaks: 0
WidescreenStoryboard: 1

[Editor]
Bookmarks: 1820,11278,20736,39652,47336,67435,76893,93149,96695,109701,119159,140440,158174,159947
DistanceSpacing: 6
BeatDivisor: 4
GridSize: 4
TimelineZoom: 1.4

[Metadata]
Title:oni
TitleUnicode:鬼
Artist:Emiru no Aishita Tsukiyo ni Dai San Gensou Kyoku wo
ArtistUnicode:エミルの愛した月夜に第III幻想曲を
Creator:JBHyperion
Version:Overdose
Source:
Tags:2021 Featured Artist Summer Cup Emiru3 Emille's Moonlight Serenade サラ Sala 荊 いばら Ibara Ito japanese symphonic rock metal doujin
BeatmapID:3186911
BeatmapSetID:1560338

[Difficulty]
HPDrainRate:6
CircleSize:4
OverallDifficulty:9.5
ApproachRate:9.5
SliderMultiplier:1.8
SliderTickRate:2

[Events]
//Background and Video events
0,0,"68547250_p0_waifu2x_1920x1200.jpg",0,0
//Break Periods
//Storyboard Layer 0 (Background)
//Storyboard Layer 1 (Fail)
//Storyboard Layer 2 (Pass)
//Storyboard Layer 3 (Foreground)
//Storyboard Layer 4 (Overlay)
//Storyboard Sound Samples

[TimingPoints]
637,295.566502463054,4,3,1,80,1,0
1376,-100,4,2,1,100,0,0
1819,-100,4,2,2,80,0,0
3444,-100,4,2,7,100,0,0
3592,-100,4,2,2,80,0,0
5513,-100,4,2,7,100,0,0
5661,-100,4,2,2,80,0,0
5809,-100,4,2,7,100,0,0
5957,-100,4,2,2,80,0,0
8173,-100,4,2,7,100,0,0
8321,-100,4,2,2,80,0,0
8912,-100,4,3,2,60,0,0
9503,-100,4,3,2,70,0,0
10095,-100,4,3,1,80,0,0
12016,-100,4,3,10,60,0,0
12164,-100,4,3,1,80,0,0
14380,-100,4,3,10,60,0,0
14528,-100,4,3,1,80,0,0
16745,-100,4,3,10,60,0,0
16893,-100,4,3,1,80,0,0
19701,-100,4,2,1,60,0,0
20735,-100,4,3,1,80,0,0
31523,-100,4,3,10,60,0,0
31671,-100,4,3,1,80,0,0
37435,-100,4,3,10,60,0,0
37583,-100,4,3,1,80,0,0
38469,-100,4,3,1,60,0,0
39060,-100,4,3,1,70,0,0
39652,295.566502463054,3,3,1,80,1,0
40390,-100,3,3,11,60,0,0
40538,-100,3,3,1,80,0,0
41129,-66.6666666666667,3,3,1,90,0,0
41351,-100,3,3,1,80,0,0
42903,-66.6666666666667,3,3,1,80,0,0
43124,-100,3,2,1,10,0,0
43198,-100,3,3,1,80,0,0
44676,-66.6666666666667,3,3,1,80,0,0
44898,-100,3,3,1,80,0,0
44972,295.566502463054,4,3,1,80,1,0
47040,-100,4,3,3,80,0,0
47336,-66.6666666666667,4,3,1,90,0,1
47484,-100,4,3,1,90,0,1
50883,-100,4,3,1,80,0,0
51178,-100,4,3,1,90,0,0
51474,-100,4,3,1,80,0,0
51770,-100,4,3,2,70,0,0
52065,-66.6666666666667,4,3,1,90,0,1
52213,-100,4,3,1,90,0,1
55612,-100,4,3,1,90,0,0
55907,-100,4,3,1,80,0,0
56203,-100,4,3,1,70,0,0
56499,-100,4,3,2,70,0,0
56794,-80,4,3,1,90,0,1
56942,-100,4,3,1,90,0,1
60341,-100,4,3,1,80,0,0
60637,-100,4,3,1,90,0,0
60932,-100,4,3,1,80,0,0
61228,-100,4,3,2,70,0,0
61523,-80,4,3,1,90,0,1
61819,-100,4,3,1,90,0,1
64036,-100,4,2,7,90,0,1
64183,-100,4,3,1,90,0,1
64627,-100,4,2,7,90,0,1
64774,-100,4,3,1,90,0,1
65070,-100,4,3,1,90,0,0
65366,-100,4,3,1,80,0,0
65661,-100,4,3,1,70,0,0
65957,-100,4,3,1,80,0,0
66252,-100,4,2,1,70,0,0
66843,-100,4,3,2,80,0,0
67139,-100,4,3,1,80,0,0
67361,-100,4,2,1,10,0,0
67435,-100,4,3,1,80,0,0
76597,-40,4,3,1,80,0,0
76745,-100,4,3,1,80,0,0
76893,295.566502463054,7,3,1,70,1,0
78075,-100,7,3,2,80,0,0
78666,-80,7,3,1,90,0,0
78888,-100,7,2,1,10,0,0
78961,-100,7,3,1,80,0,0
80144,-100,7,3,2,80,0,0
80735,-80,7,3,1,80,0,0
80957,-100,7,2,1,10,0,0
81030,-100,7,3,1,80,0,0
82213,-100,7,3,2,80,0,0
82804,-80,7,3,1,80,0,0
83026,-100,7,2,1,10,0,0
83099,-100,7,3,1,80,0,0
84429,-100,7,2,7,80,0,0
84725,-100,7,3,1,80,0,0
86942,-80,7,3,1,80,0,0
87163,-100,7,2,1,10,0,0
87237,-100,7,3,1,80,0,0
89011,-80,7,3,1,80,0,0
89232,-100,7,2,1,10,0,0
89306,-100,7,3,1,80,0,0
90784,-80,7,3,1,80,0,0
91080,-80,7,3,1,80,0,0
91301,-100,7,2,1,10,0,0
91375,-100,7,3,1,80,0,0
93149,295.566502463054,3,3,1,80,1,0
93296,-100,3,2,1,50,0,0
94331,-100,3,2,1,5,0,0
95513,-100,4,3,1,80,0,0
96252,-100,4,3,2,80,0,0
96400,-100,4,2,1,100,0,0
96695,-100,4,3,1,70,0,0
97730,-100,4,2,7,70,0,0
98025,-100,4,3,1,70,0,0
98173,-100,4,2,7,70,0,0
98321,-100,4,3,1,70,0,0
99503,-100,4,3,2,70,0,0
99799,-100,4,3,1,70,0,0
101277,-100,4,2,7,70,0,0
101572,-100,4,3,1,70,0,0
101720,-100,4,2,7,70,0,0
101868,-100,4,3,1,70,0,0
105562,-100,4,3,1,80,0,0
106006,-100,4,2,1,80,0,0
106153,-100,4,3,11,80,0,0
106301,-100,4,3,1,80,0,0
107337,295.566502463054,4,3,1,90,1,0
109701,-133.333333333333,4,3,3,100,0,0
110255,-133.333333333333,4,2,1,10,0,0
110292,-133.333333333333,4,3,3,80,0,0
110736,-133.333333333333,4,2,1,10,0,0
110883,-133.333333333333,4,3,3,80,0,0
112066,-100,4,3,3,80,0,0
112620,-100,4,2,1,10,0,0
112657,-100,4,3,3,80,0,0
113248,-100,4,3,1,70,0,0
114430,-100,4,3,1,80,0,0
115169,-100,4,2,1,80,0,0
115612,-100,4,3,1,80,0,0
117644,-100,4,2,1,10,0,0
117681,-100,4,2,1,80,0,0
117977,-100,4,3,2,80,0,0
118864,-100,4,3,1,80,0,0
119307,-100,4,3,3,80,0,0
120341,-100,4,3,1,70,0,0
120489,-100,4,3,2,70,0,0
120637,-100,4,3,1,70,0,0
120785,-100,4,3,2,70,0,0
120933,-100,4,3,1,70,0,0
121228,-100,4,3,3,80,0,0
121524,-100,4,3,1,70,0,0
122706,-100,4,3,1,80,0,0
123001,-100,4,3,1,90,0,0
123297,-100,4,3,1,80,0,0
123593,-100,4,3,2,70,0,0
123888,-66.6666666666667,4,2,1,100,0,1
124036,-100,4,3,1,90,0,1
127435,-100,4,3,1,90,0,0
127730,-100,4,3,1,80,0,0
128026,-100,4,3,1,70,0,0
128322,-100,4,3,2,70,0,0
128617,-100,4,3,1,90,0,1
132164,-100,4,3,1,80,0,0
132459,-100,4,3,1,90,0,0
132755,-100,4,3,1,80,0,0
133051,-100,4,3,2,70,0,0
133346,-100,4,3,1,90,0,1
135859,-100,4,2,7,90,0,1
136006,-100,4,3,1,90,0,1
136450,-100,4,2,7,90,0,1
136598,-100,4,3,1,90,0,1
136893,-100,4,2,1,100,0,0
137189,-100,4,3,1,80,0,0
137484,-100,4,3,1,70,0,0
137780,-100,4,3,1,80,0,0
138075,-100,4,2,1,70,0,0
138667,-100,4,3,2,80,0,0
139110,-100,4,2,1,80,0,0
139849,-100,4,3,2,80,0,0
140440,-100,4,3,1,80,0,0
142509,-100,4,3,2,80,0,0
142804,-100,4,3,1,80,0,0
144873,-100,4,3,2,80,0,0
145169,-100,4,3,1,80,0,0
147238,-100,4,3,2,80,0,0
147534,-100,4,3,1,80,0,0
148716,-80,4,3,1,80,0,0
148864,-100,4,3,1,80,0,0
150785,-100,4,3,2,80,0,0
150933,-100,4,3,1,80,0,0
152854,-100,4,3,2,80,0,0
153002,-100,4,3,1,80,0,0
153149,-100,4,3,2,80,0,0
153297,-100,4,3,1,80,0,0
155514,-100,4,3,2,80,0,0
155662,-100,4,3,1,80,0,0
158174,-75.187969924812,4,3,1,90,0,0
158322,-75.187969924812,4,2,1,50,0,0
159208,-100,4,2,1,10,0,0
159356,-66.6666666666667,4,3,1,80,0,0
159504,-100,4,3,1,80,0,0

[Colours]
Combo1 : 255,255,125
Combo2 : 50,50,100
Combo3 : 225,175,40
Combo4 : 50,125,255

[HitObjects]
280,192,637,5,2,0:0:0:0:
236,192,710,1,2,0:0:0:0:
192,192,784,1,2,0:0:0:0:
148,192,858,1,2,0:0:0:0:
316,192,932,1,10,0:0:0:0:
172,192,1080,1,4,0:0:0:0:
80,192,1375,2,0,L|76:80,1,90,0|2,0:0|0:0,0:0:0:0:
440,192,1819,6,0,P|492:120|436:64,1,180,6|2,0:0|0:0,0:0:0:0:
356,64,2262,1,0,0:0:0:0:
192,64,2410,2,0,L|352:156,1,180,2|2,0:0|0:0,0:0:0:0:
268,152,2853,1,0,0:0:0:0:
432,152,3001,2,0,L|248:258,1,180,2|2,0:0|0:0,0:0:0:0:
196,240,3444,1,2,0:0:0:0:
356,240,3592,1,2,0:0:0:0:
196,240,3888,1,2,0:0:0:0:
468,240,4183,6,0,B|468:332|468:332|392:380,1,180,2|2,0:0|0:0,0:0:0:0:
312,380,4627,1,0,0:0:0:0:
148,376,4774,2,0,P|92:308|140:244,1,180,2|2,0:0|0:0,0:0:0:0:
220,244,5218,1,0,0:0:0:0:
60,244,5366,2,0,L|56:140,1,90,2|2,0:0|0:0,0:0:0:0:
212,152,5661,2,0,L|160:70,1,90,2|2,0:0|0:0,0:0:0:0:
320,76,5957,1,2,0:0:0:0:
72,76,6104,1,8,0:0:0:0:
228,76,6252,1,10,0:0:0:0:
72,76,6400,1,8,0:0:0:0:
344,76,6548,6,0,B|436:76|436:76|436:172,1,180,6|2,0:0|0:0,0:0:0:0:
356,192,6991,1,0,0:0:0:0:
196,192,7139,2,0,L|112:144,2,90,2|0|2,0:0|0:0|0:0,0:0:0:0:
356,192,7730,2,0,L|200:282,1,180,2|2,0:0|0:0,0:0:0:0:
280,280,8173,1,2,0:0:0:0:
120,280,8321,1,2,0:0:0:0:
280,280,8617,2,0,P|296:240|280:192,1,90,2|0,0:0|0:0,0:0:0:0:
240,192,8838,1,0,0:0:0:0:
76,192,8912,5,8,0:0:0:0:
41,175,8986,1,8,0:0:0:0:
18,144,9060,1,8,0:0:0:0:
9,107,9134,1,8,0:0:0:0:
18,70,9208,1,8,0:0:0:0:
42,40,9282,1,8,0:0:0:0:
76,23,9356,1,8,0:0:0:0:
114,23,9430,1,8,0:0:0:0:
280,24,9503,1,8,0:0:0:0:
321,38,9577,1,8,0:0:0:0:
345,75,9651,1,8,0:0:0:0:
342,119,9725,1,8,0:0:0:0:
164,128,9799,1,8,0:0:0:0:
124,164,9873,1,8,0:0:0:0:
124,220,9947,1,8,0:0:0:0:
164,256,10021,1,8,0:0:0:0:
360,256,10095,6,0,L|188:192,2,180,6|2|2,0:0|0:0|0:0,0:0:0:0:
252,256,10834,2,0,L|293:280,1,45,2|2,0:0|0:0,0:0:0:0:
444,280,10981,1,10,0:0:0:0:
84,256,11277,6,0,L|80:144,1,90,6|8,0:0|0:0,0:0:0:0:
236,164,11572,1,2,0:0:0:0:
194,177,11646,1,2,0:0:0:0:
151,191,11720,1,8,0:0:0:0:
400,192,11868,2,0,P|452:148|400:68,1,180,2|2,0:0|0:0,0:0:0:0:
348,68,12237,1,2,0:0:0:0:
400,68,12311,1,8,0:0:0:0:
132,192,12459,5,2,0:0:0:0:
240,192,12607,1,8,0:0:0:0:
84,192,12755,1,2,0:0:0:0:
82,147,12829,1,2,0:0:0:0:
80,102,12903,1,8,0:0:0:0:
340,192,13050,2,0,L|344:256,1,45,2|2,0:0|0:0,0:0:0:0:
272,192,13198,2,0,L|276:260,1,45,2|2,0:0|0:0,0:0:0:0:
448,192,13346,2,0,L|492:192,1,45,10|2,0:0|0:0,0:0:0:0:
300,88,13494,2,0,L|248:88,1,45,2|2,0:0|0:0,0:0:0:0:
456,28,13641,6,0,L|460:140,1,90,2|8,0:0|0:0,0:0:0:0:
304,192,13937,1,2,0:0:0:0:
261,178,14011,1,2,0:0:0:0:
218,164,14085,1,8,0:0:0:0:
472,192,14233,2,0,L|305:101,1,180,2|2,0:0|0:0,0:0:0:0:
364,108,14602,1,2,0:0:0:0:
412,108,14676,1,8,0:0:0:0:
268,48,14824,5,2,0:0:0:0:
424,48,14971,1,8,0:0:0:0:
256,48,15119,1,2,0:0:0:0:
294,25,15193,1,2,0:0:0:0:
333,3,15267,1,8,0:0:0:0:
80,0,15415,2,0,L|32:0,1,45,8|8,0:0|0:0,0:0:0:0:
222,21,15563,2,0,L|227:83,1,45,2|2,0:0|0:0,0:0:0:0:
44,88,15710,2,0,L|40:152,1,45,8|8,0:0|0:0,0:0:0:0:
104,192,15858,2,0,L|156:192,1,45,2|2,0:0|0:0,0:0:0:0:
340,192,16006,6,0,L|432:192,1,90,2|8,0:0|0:0,0:0:0:0:
272,192,16302,1,2,0:0:0:0:
314,205,16375,1,2,0:0:0:0:
357,219,16449,1,8,0:0:0:0:
108,220,16597,2,0,B|108:312|108:312|184:360,1,180,2|2,0:0|0:0,0:0:0:0:
236,360,16967,1,2,0:0:0:0:
292,360,17040,1,8,0:0:0:0:
136,360,17188,6,0,L|128:252,1,90,2|8,0:0|0:0,0:0:0:0:
292,360,17484,2,0,L|308:312,2,45,2|2|8,0:0|0:0|0:0,0:0:0:0:
43,192,17779,2,0,L|39:128,1,45,2|2,0:0|0:0,0:0:0:0:
111,192,17927,2,0,L|107:124,1,45,2|2,0:0|0:0,0:0:0:0:
292,192,18075,2,0,L|336:192,1,45,10|2,0:0|0:0,0:0:0:0:
153,147,18223,2,0,L|101:147,1,45,2|2,0:0|0:0,0:0:0:0:
304,100,18370,6,0,L|308:196,1,90,6|8,0:0|0:0,0:0:0:0:
148,228,18666,2,0,L|92:228,2,45,2|2|8,0:0|0:0|0:0,0:0:0:0:
305,209,18962,1,8,0:0:0:0:
264,188,19036,1,8,0:0:0:0:
224,168,19109,1,2,0:0:0:0:
388,188,19257,1,2,0:0:0:0:
92,228,19405,1,8,0:0:0:0:
244,228,19701,5,0,0:0:0:0:
328,296,19848,1,2,0:0:0:0:
244,364,19996,1,0,0:0:0:0:
100,364,20144,2,0,L|96:256,1,90,2|0,0:0|0:0,0:0:0:0:
244,228,20439,2,0,L|324:188,1,90,2|0,0:0|0:0,0:0:0:0:
72,192,20735,6,0,L|52:140,2,45,6|2|2,0:0|0:0|0:0,0:0:0:0:
228,228,21031,1,2,0:0:0:0:
128,228,21178,1,8,0:0:0:0:
292,228,21326,2,0,L|296:120,1,90,2|8,0:0|0:0,0:0:0:0:
196,136,21622,1,2,0:0:0:0:
280,136,21696,1,2,0:0:0:0:
364,136,21770,1,2,0:0:0:0:
100,136,21917,6,0,L|96:32,1,90,2|8,0:0|0:0,0:0:0:0:
204,44,22213,1,2,0:0:0:0:
140,44,22287,1,2,0:0:0:0:
204,44,22361,1,2,0:0:0:0:
360,44,22508,2,0,L|456:44,1,90,2|8,0:0|0:0,0:0:0:0:
292,136,22804,1,8,0:0:0:0:
330,158,22878,1,2,0:0:0:0:
369,181,22952,1,2,0:0:0:0:
80,192,23100,6,0,L|76:296,1,90,6|8,0:0|0:0,0:0:0:0:
236,348,23395,2,0,L|240:296,2,45,2|2|2,0:0|0:0|0:0,0:0:0:0:
392,192,23691,1,2,0:0:0:0:
228,192,23838,1,8,0:0:0:0:
480,192,23986,1,8,0:0:0:0:
441,169,24060,1,2,0:0:0:0:
402,147,24134,1,2,0:0:0:0:
248,192,24282,5,2,0:0:0:0:
148,192,24430,1,8,0:0:0:0:
148,92,24577,1,2,0:0:0:0:
198,92,24651,1,2,0:0:0:0:
248,92,24725,1,2,0:0:0:0:
140,92,24873,1,2,0:0:0:0:
392,92,25021,2,0,L|396:144,1,45,8|2,0:0|0:0,0:0:0:0:
248,288,25169,2,0,L|244:236,1,45,8|2,0:0|0:0,0:0:0:0:
448,192,25316,2,0,L|452:252,1,45,2|2,0:0|0:0,0:0:0:0:
200,288,25464,5,6,0:0:0:0:
160,269,25538,1,0,0:0:0:0:
143,228,25612,1,0,0:0:0:0:
159,187,25686,1,0,0:0:0:0:
198,168,25760,1,2,0:0:0:0:
92,164,25907,1,8,0:0:0:0:
248,168,26055,2,0,L|252:72,1,90,2|8,0:0|0:0,0:0:0:0:
96,44,26351,2,0,L|57:22,2,45,2|2|2,0:0|0:0|0:0,0:0:0:0:
348,80,26646,5,2,0:0:0:0:
240,80,26794,1,8,0:0:0:0:
340,80,26942,1,2,0:0:0:0:
248,80,27016,1,2,0:0:0:0:
157,80,27090,1,2,0:0:0:0:
404,80,27237,2,0,L|408:176,1,90,2|8,0:0|0:0,0:0:0:0:
248,148,27533,1,2,0:0:0:0:
210,170,27607,1,2,0:0:0:0:
171,193,27681,1,2,0:0:0:0:
420,192,27829,6,0,L|424:296,1,90,6|2,0:0|0:0,0:0:0:0:
264,332,28124,1,2,0:0:0:0:
303,309,28198,1,2,0:0:0:0:
342,287,28272,1,2,0:0:0:0:
188,192,28420,1,2,0:0:0:0:
352,192,28568,1,8,0:0:0:0:
100,192,28715,2,0,L|84:140,2,45,2|2|2,0:0|0:0|0:0,0:0:0:0:
332,192,29011,5,2,0:0:0:0:
432,192,29159,1,8,0:0:0:0:
320,120,29306,1,2,0:0:0:0:
270,120,29380,1,2,0:0:0:0:
220,120,29454,1,2,0:0:0:0:
328,120,29602,1,2,0:0:0:0:
76,120,29750,2,0,L|72:172,1,45,2|2,0:0|0:0,0:0:0:0:
220,316,29898,2,0,L|216:264,1,45,8|8,0:0|0:0,0:0:0:0:
27,164,30045,2,0,L|75:164,1,45,2|2,0:0|0:0,0:0:0:0:
324,192,30193,6,0,L|368:192,2,45,6|2|2,0:0|0:0|0:0,0:0:0:0:
168,316,30489,2,0,L|164:256,1,45,2|2,0:0|0:0,0:0:0:0:
268,192,30636,2,0,L|312:192,1,45,8|8,0:0|0:0,0:0:0:0:
144,192,30784,2,0,L|252:192,1,90,2|8,0:0|0:0,0:0:0:0:
20,96,31080,1,2,0:0:0:0:
65,96,31154,1,2,0:0:0:0:
110,96,31228,1,2,0:0:0:0:
364,96,31375,6,0,P|424:148|364:204,1,180,6|2,0:0|0:0,0:0:0:0:
312,204,31745,1,2,0:0:0:0:
256,204,31819,1,2,0:0:0:0:
416,204,31967,2,0,L|332:252,1,90,2|8,0:0|0:0,0:0:0:0:
180,248,32262,2,0,L|132:248,2,45,2|2|2,0:0|0:0|0:0,0:0:0:0:
451,203,32558,6,0,L|455:99,1,90,2|2,0:0|0:0,0:0:0:0:
293,70,32853,1,2,0:0:0:0:
331,92,32927,1,2,0:0:0:0:
370,115,33001,1,2,0:0:0:0:
221,204,33149,1,2,0:0:0:0:
385,204,33297,1,8,0:0:0:0:
133,204,33444,2,0,L|80:204,2,45,2|2|2,0:0|0:0|0:0,0:0:0:0:
368,204,33740,5,2,0:0:0:0:
268,204,33888,1,8,0:0:0:0:
424,204,34036,1,2,0:0:0:0:
428,160,34109,1,2,0:0:0:0:
432,116,34183,1,2,0:0:0:0:
276,104,34331,1,2,0:0:0:0:
424,204,34479,1,8,0:0:0:0:
178,204,34627,2,0,L|131:204,3,45,2|2|2|2,0:0|0:0|0:0|0:0,0:0:0:0:
316,328,34922,5,6,0:0:0:0:
368,304,34996,1,0,0:0:0:0:
368,244,35070,1,0,0:0:0:0:
318,208,35144,1,0,0:0:0:0:
212,208,35218,2,0,L|208:152,1,45,2|2,0:0|0:0,0:0:0:0:
280,80,35366,2,0,L|283:124,1,45,2|2,0:0|0:0,0:0:0:0:
180,80,35513,2,0,L|88:80,1,90,2|8,0:0|0:0,0:0:0:0:
251,231,35809,1,2,0:0:0:0:
212,208,35883,1,2,0:0:0:0:
173,186,35957,1,2,0:0:0:0:
444,184,36104,6,0,L|352:184,1,90,2|0,0:0|0:0,0:0:0:0:
252,296,36400,1,2,0:0:0:0:
336,296,36474,1,2,0:0:0:0:
420,296,36548,1,2,0:0:0:0:
268,296,36696,2,0,L|368:296,1,90,2|8,0:0|0:0,0:0:0:0:
120,192,36991,2,0,L|76:192,2,45,2|2|2,0:0|0:0|0:0,0:0:0:0:
376,296,37287,6,0,P|436:244|376:192,1,180,6|2,0:0|0:0,0:0:0:0:
321,192,37656,1,2,0:0:0:0:
268,192,37730,1,2,0:0:0:0:
424,192,37878,2,0,L|428:96,1,90,8|2,0:0|0:0,0:0:0:0:
200,100,38173,1,8,0:0:0:0:
348,100,38321,1,2,0:0:0:0:
112,192,38469,6,0,L|46:126,3,90,6|2|2|0,0:0|0:0|0:0|0:0,0:0:0:0:
328,192,39060,1,8,0:0:0:0:
268,188,39159,1,2,0:0:0:0:
328,192,39257,1,2,0:0:0:0:
208,120,39356,1,8,0:0:0:0:
280,120,39454,1,2,0:0:0:0:
208,120,39553,1,2,0:0:0:0:
448,192,39651,6,0,L|452:92,1,90,2|2,0:0|0:0,0:0:0:0:
228,32,39947,2,0,L|305:82,1,90,8|2,0:0|0:0,0:0:0:0:
48,32,40243,2,0,L|228:32,1,180,8|0,0:0|0:0,0:0:0:0:
320,32,40686,1,2,0:0:0:0:
84,112,40834,1,8,0:0:0:0:
192,112,40982,1,2,0:0:0:0:
280,112,41055,1,2,0:0:0:0:
444,112,41129,2,0,P|508:160|444:236,1,202.500007724762,12|0,0:0|0:0,0:0:0:0:
256,236,41425,6,0,L|164:236,1,90,2|2,0:0|0:0,0:0:0:0:
392,192,41720,2,0,L|288:192,1,90,8|2,0:0|0:0,0:0:0:0:
64,120,42016,1,8,0:0:0:0:
156,120,42164,1,2,0:0:0:0:
248,120,42312,1,0,0:0:0:0:
140,120,42459,1,2,0:0:0:0:
388,120,42607,1,8,0:0:0:0:
280,120,42755,1,2,0:0:0:0:
188,120,42829,1,2,0:0:0:0:
368,120,42903,6,0,P|452:160|444:264,1,202.500007724762,6|0,0:0|0:0,0:0:0:0:
264,260,43198,2,0,L|160:260,1,90,2|2,0:0|0:0,0:0:0:0:
400,260,43494,1,8,0:0:0:0:
248,260,43642,1,2,0:0:0:0:
496,260,43789,2,0,L|500:356,1,90,8|2,0:0|0:0,0:0:0:0:
340,352,44085,2,0,L|419:306,1,90,0|2,0:0|0:0,0:0:0:0:
180,192,44381,2,0,B|136:192|136:192|184:192,1,90,8|2,0:0|0:0,0:0:0:0:
236,192,44602,1,2,0:0:0:0:
52,192,44676,2,0,P|24:152|112:56,1,202.500007724762,6|0,0:0|0:0,0:0:0:0:
268,55,44972,5,8,0:0:0:0:
124,55,45119,1,8,0:0:0:0:
352,55,45267,1,8,0:0:0:0:
196,55,45415,1,8,0:0:0:0:
468,55,45563,1,8,0:0:0:0:
108,55,45710,1,8,0:0:0:0:
264,55,46006,1,2,0:0:0:0:
196,55,46080,1,2,0:0:0:0:
36,52,46154,6,0,L|32:80,1,22.5,8|0,0:0|0:0,0:0:0:0:
152,156,46302,2,0,L|148:184,1,22.5,8|0,0:0|0:0,0:0:0:0:
268,56,46449,2,0,L|264:84,1,22.5,8|0,0:0|0:0,0:0:0:0:
384,160,46597,2,0,L|380:188,1,22.5,8|0,0:0|0:0,0:0:0:0:
232,192,47040,1,8,0:0:0:0:
388,192,47188,1,2,0:0:0:0:
96,192,47336,6,0,P|28:232|28:288,1,135,6|2,0:0|0:0,0:0:0:0:
52,332,47558,1,2,0:0:0:0:
108,344,47632,1,8,0:0:0:0:
216,344,47779,1,2,0:0:0:0:
60,332,47927,2,0,L|56:228,1,90,8|2,0:0|0:0,0:0:0:0:
160,192,48223,1,2,0:0:0:0:
48,192,48371,1,2,0:0:0:0:
304,192,48518,6,0,L|396:192,1,90,8|2,0:0|0:0,0:0:0:0:
344,192,48740,1,2,0:0:0:0:
184,192,48814,1,8,0:0:0:0:
328,192,48962,1,2,0:0:0:0:
76,192,49109,2,0,L|72:80,1,90,8|2,0:0|0:0,0:0:0:0:
228,40,49405,2,0,L|128:40,1,90,8|2,0:0|0:0,0:0:0:0:
396,40,49701,6,0,L|492:40,1,90,12|2,0:0|0:0,0:0:0:0:
436,40,49922,1,2,0:0:0:0:
388,40,49996,2,0,L|484:40,1,90,8|2,0:0|0:0,0:0:0:0:
224,192,50292,2,0,L|132:192,1,90,8|2,0:0|0:0,0:0:0:0:
292,192,50587,2,0,P|328:164|328:120,1,90,8|2,0:0|0:0,0:0:0:0:
288,100,50809,1,2,0:0:0:0:
104,104,50883,5,6,0:0:0:0:
328,122,51178,1,6,0:0:0:0:
84,104,51474,1,6,0:0:0:0:
248,104,51770,2,0,L|252:164,1,45,8|8,0:0|0:0,0:0:0:0:
152,172,51917,2,0,L|156:236,1,45,8|8,0:0|0:0,0:0:0:0:
348,192,52065,6,0,P|416:152|416:96,1,135,6|2,0:0|0:0,0:0:0:0:
392,52,52287,1,2,0:0:0:0:
336,40,52361,1,8,0:0:0:0:
444,52,52508,1,2,0:0:0:0:
288,40,52656,2,0,L|284:144,1,90,8|2,0:0|0:0,0:0:0:0:
392,192,52952,1,8,0:0:0:0:
236,192,53100,1,2,0:0:0:0:
460,192,53247,6,0,B|508:192|508:192|456:192,1,90,8|2,0:0|0:0,0:0:0:0:
416,192,53469,1,2,0:0:0:0:
256,192,53543,1,8,0:0:0:0:
400,192,53691,1,2,0:0:0:0:
148,192,53838,2,0,L|144:304,1,90,8|2,0:0|0:0,0:0:0:0:
300,344,54134,2,0,L|200:344,1,90,8|2,0:0|0:0,0:0:0:0:
448,192,54430,6,0,P|504:244|504:260,1,90,12|2,0:0|0:0,0:0:0:0:
492,292,54651,1,2,0:0:0:0:
449,311,54725,1,8,0:0:0:0:
352,312,54873,1,2,0:0:0:0:
116,192,55021,2,0,L|208:192,1,90,8|2,0:0|0:0,0:0:0:0:
364,192,55316,2,0,P|400:164|400:120,1,90,8|2,0:0|0:0,0:0:0:0:
360,100,55538,1,2,0:0:0:0:
180,100,55612,5,6,0:0:0:0:
324,100,55907,1,6,0:0:0:0:
468,100,56203,1,6,0:0:0:0:
308,188,56499,2,0,L|364:188,1,45,8|8,0:0|0:0,0:0:0:0:
452,192,56646,2,0,L|500:192,1,45,8|8,0:0|0:0,0:0:0:0:
300,192,56794,6,0,L|188:192,1,112.5,6|2,0:0|0:0,0:0:0:0:
133,192,57016,1,2,0:0:0:0:
80,192,57090,1,8,0:0:0:0:
188,192,57238,1,2,0:0:0:0:
32,192,57385,2,0,L|36:92,1,90,8|2,0:0|0:0,0:0:0:0:
192,100,57681,2,0,L|96:100,1,90,8|2,0:0|0:0,0:0:0:0:
336,100,57976,5,8,0:0:0:0:
192,100,58124,1,2,0:0:0:0:
428,100,58272,1,8,0:0:0:0:
140,100,58420,1,8,0:0:0:0:
484,100,58568,2,0,L|392:100,1,90,8|2,0:0|0:0,0:0:0:0:
248,192,58863,1,8,0:0:0:0:
404,192,59011,1,2,0:0:0:0:
140,192,59159,6,0,L|48:192,1,90,6|0,0:0|0:0,0:0:0:0:
196,192,59454,1,8,0:0:0:0:
40,192,59602,1,2,0:0:0:0:
328,192,59750,1,8,0:0:0:0:
220,192,59898,1,2,0:0:0:0:
112,192,60045,1,8,0:0:0:0:
220,192,60193,1,2,0:0:0:0:
308,192,60267,1,2,0:0:0:0:
468,104,60341,5,6,0:0:0:0:
244,104,60637,1,6,0:0:0:0:
488,104,60932,1,6,0:0:0:0:
324,104,61228,2,0,L|320:164,1,45,8|8,0:0|0:0,0:0:0:0:
492,192,61375,2,0,L|496:256,1,45,8|8,0:0|0:0,0:0:0:0:
240,192,61523,6,0,B|128:192|128:192|128:304,1,225,6|8,0:0|0:0,0:0:0:0:
232,324,61967,1,2,0:0:0:0:
76,324,62114,1,8,0:0:0:0:
220,324,62262,1,2,0:0:0:0:
60,324,62410,2,0,L|16:324,2,45,8|2|2,0:0|0:0|0:0,0:0:0:0:
284,192,62705,5,2,0:0:0:0:
132,192,62853,1,2,0:0:0:0:
356,192,63001,1,8,0:0:0:0:
312,192,63075,1,2,0:0:0:0:
268,192,63149,1,2,0:0:0:0:
492,192,63297,2,0,L|496:80,1,90,8|2,0:0|0:0,0:0:0:0:
340,32,63592,1,2,0:0:0:0:
385,32,63666,1,2,0:0:0:0:
430,32,63740,1,8,0:0:0:0:
176,32,63888,6,0,L|272:32,1,90,2|10,0:0|0:0,0:0:0:0:
108,32,64183,1,2,0:0:0:0:
104,76,64257,1,2,0:0:0:0:
100,120,64331,1,8,0:0:0:0:
336,192,64479,1,2,0:0:0:0:
188,192,64627,1,10,0:0:0:0:
412,192,64774,1,8,0:0:0:0:
456,192,64848,1,8,0:0:0:0:
500,192,64922,1,2,0:0:0:0:
276,100,65070,5,6,0:0:0:0:
160,100,65366,1,6,0:0:0:0:
44,100,65661,1,6,0:0:0:0:
224,100,65957,1,8,0:0:0:0:
124,100,66105,1,2,0:0:0:0:
284,100,66252,5,2,0:0:0:0:
376,136,66400,1,0,0:0:0:0:
376,236,66548,1,2,0:0:0:0:
284,272,66696,1,0,0:0:0:0:
128,272,66843,2,0,L|124:224,1,45,8|8,0:0|0:0,0:0:0:0:
224,192,66991,2,0,L|228:248,1,45,8|8,0:0|0:0,0:0:0:0:
56,272,67139,2,0,B|52:184|52:184|104:160,1,135,12|0,0:0|0:0,0:0:0:0:
300,192,67435,6,0,L|392:192,1,90,12|8,0:0|0:0,0:0:0:0:
232,212,67730,1,2,0:0:0:0:
274,225,67804,1,2,0:0:0:0:
317,239,67878,1,8,0:0:0:0:
68,240,68026,2,0,L|64:148,1,90,2|8,0:0|0:0,0:0:0:0:
220,100,68321,1,2,0:0:0:0:
272,100,68395,1,2,0:0:0:0:
220,100,68469,1,8,0:0:0:0:
368,192,68617,5,2,0:0:0:0:
260,192,68765,1,8,0:0:0:0:
416,192,68912,1,2,0:0:0:0:
418,147,68986,1,2,0:0:0:0:
420,102,69060,1,8,0:0:0:0:
160,192,69208,2,0,L|156:256,1,45,2|2,0:0|0:0,0:0:0:0:
262,147,69356,2,0,L|258:215,1,45,2|2,0:0|0:0,0:0:0:0:
72,236,69504,2,0,L|120:236,1,45,8|8,0:0|0:0,0:0:0:0:
307,147,69651,2,0,L|255:147,1,45,2|2,0:0|0:0,0:0:0:0:
76,28,69799,6,0,L|72:140,1,90,2|8,0:0|0:0,0:0:0:0:
228,192,70095,1,2,0:0:0:0:
271,178,70169,1,2,0:0:0:0:
314,164,70242,1,8,0:0:0:0:
60,192,70390,2,0,L|140:148,1,90,2|8,0:0|0:0,0:0:0:0:
248,48,70686,1,2,0:0:0:0:
200,48,70760,1,2,0:0:0:0:
152,48,70834,1,8,0:0:0:0:
412,48,70981,5,2,0:0:0:0:
256,48,71129,1,8,0:0:0:0:
424,48,71277,1,2,0:0:0:0:
386,25,71351,1,8,0:0:0:0:
347,3,71425,1,8,0:0:0:0:
112,0,71572,2,0,L|64:0,1,45,8|8,0:0|0:0,0:0:0:0:
256,48,71720,2,0,L|260:96,1,45,2|2,0:0|0:0,0:0:0:0:
469,48,71868,2,0,L|424:48,1,45,8|8,0:0|0:0,0:0:0:0:
239,75,72016,2,0,L|235:123,1,45,8|8,0:0|0:0,0:0:0:0:
412,192,72164,6,0,L|504:192,1,90,6|8,0:0|0:0,0:0:0:0:
344,192,72459,2,0,L|284:192,2,45,2|2|8,0:0|0:0|0:0,0:0:0:0:
92,192,72755,2,0,B|88:84,1,90,2|8,0:0|0:0,0:0:0:0:
252,104,73050,1,2,0:0:0:0:
204,104,73124,1,2,0:0:0:0:
156,104,73198,1,8,0:0:0:0:
312,104,73346,6,0,L|320:212,1,90,2|8,0:0|0:0,0:0:0:0:
156,104,73641,1,2,0:0:0:0:
204,104,73715,1,2,0:0:0:0:
252,104,73789,1,8,0:0:0:0:
28,104,73937,2,0,L|24:168,1,45,2|2,0:0|0:0,0:0:0:0:
124,192,74085,2,0,L|172:192,1,45,2|2,0:0|0:0,0:0:0:0:
360,192,74233,2,0,L|404:192,1,45,8|8,0:0|0:0,0:0:0:0:
196,312,74380,2,0,L|248:312,1,45,2|2,0:0|0:0,0:0:0:0:
424,312,74528,6,0,L|428:216,1,90,6|8,0:0|0:0,0:0:0:0:
268,184,74824,2,0,L|212:184,2,45,2|2|8,0:0|0:0|0:0,0:0:0:0:
425,203,75119,1,2,0:0:0:0:
384,224,75193,1,2,0:0:0:0:
344,244,75267,1,8,0:0:0:0:
236,248,75415,1,2,0:0:0:0:
352,244,75563,1,8,0:0:0:0:
100,248,75710,5,8,0:0:0:0:
52,208,75784,1,8,0:0:0:0:
52,144,75858,1,8,0:0:0:0:
100,100,75932,1,8,0:0:0:0:
200,16,76006,1,2,0:0:0:0:
248,60,76080,1,2,0:0:0:0:
248,124,76154,1,2,0:0:0:0:
200,164,76228,1,2,0:0:0:0:
24,16,76302,2,0,L|128:16,1,90,8|2,0:0|0:0,0:0:0:0:
168,16,76523,1,2,0:0:0:0:
336,124,76597,6,0,L|112:124,1,225,8|2,0:0|0:0,0:0:0:0:
180,124,76819,1,2,0:0:0:0:
360,124,76893,6,0,L|364:232,1,90,6|0,0:0|0:0,0:0:0:0:
220,332,77188,2,0,L|216:236,1,90,2|0,0:0|0:0,0:0:0:0:
376,332,77484,1,2,0:0:0:0:
276,332,77631,1,0,0:0:0:0:
384,332,77779,1,2,0:0:0:0:
284,332,77927,1,0,0:0:0:0:
444,332,78075,6,0,L|448:284,1,45,8|8,0:0|0:0,0:0:0:0:
356,256,78223,2,0,L|360:208,1,45,2|2,0:0|0:0,0:0:0:0:
447,287,78370,2,0,L|451:239,1,45,8|8,0:0|0:0,0:0:0:0:
248,192,78518,1,2,0:0:0:0:
472,192,78666,2,0,P|508:144|448:68,1,168.75,12|0,0:0|0:0,0:0:0:0:
260,68,78961,6,0,L|156:68,1,90,2|0,0:0|0:0,0:0:0:0:
328,68,79257,2,0,L|236:68,1,90,2|0,0:0|0:0,0:0:0:0:
396,192,79553,2,0,L|488:192,1,90,2|0,0:0|0:0,0:0:0:0:
388,192,79848,2,0,L|292:192,1,90,2|0,0:0|0:0,0:0:0:0:
40,192,80144,6,0,L|32:240,1,45,8|8,0:0|0:0,0:0:0:0:
100,252,80292,2,0,L|96:300,1,45,8|8,0:0|0:0,0:0:0:0:
164,312,80439,2,0,L|161:360,1,45,8|8,0:0|0:0,0:0:0:0:
298,192,80587,1,2,0:0:0:0:
52,192,80735,2,0,P|16:144|76:68,1,168.75,12|0,0:0|0:0,0:0:0:0:
288,72,81030,6,0,L|292:180,1,90,2|0,0:0|0:0,0:0:0:0:
136,312,81326,2,0,L|228:312,1,90,2|0,0:0|0:0,0:0:0:0:
72,312,81622,1,2,0:0:0:0:
16,232,81769,1,0,0:0:0:0:
72,152,81917,1,2,0:0:0:0:
172,152,82065,1,0,0:0:0:0:
328,292,82213,6,0,L|332:244,1,45,8|8,0:0|0:0,0:0:0:0:
240,216,82360,2,0,L|244:168,1,45,2|2,0:0|0:0,0:0:0:0:
152,140,82508,2,0,L|156:92,1,45,8|8,0:0|0:0,0:0:0:0:
320,172,82656,1,2,0:0:0:0:
72,152,82804,2,0,P|36:104|96:28,1,168.75,12|0,0:0|0:0,0:0:0:0:
288,32,83099,6,0,L|392:32,1,90,2|0,0:0|0:0,0:0:0:0:
268,32,83395,2,0,L|264:128,1,90,2|0,0:0|0:0,0:0:0:0:
108,152,83691,2,0,L|104:252,1,90,2|0,0:0|0:0,0:0:0:0:
260,240,83986,2,0,L|164:240,1,90,2|0,0:0|0:0,0:0:0:0:
328,240,84282,5,2,0:0:0:0:
104,240,84429,1,2,0:0:0:0:
344,240,84577,2,0,B|392:240|392:240|392:176,1,90,2|2,0:0|0:0,0:0:0:0:
348,200,84799,1,2,0:0:0:0:
144,240,84873,1,8,0:0:0:0:
85,240,84947,1,8,0:0:0:0:
25,240,85021,1,2,0:0:0:0:
85,240,85094,1,2,0:0:0:0:
308,344,85168,6,0,B|400:344|400:344|400:252,1,180,6|2,0:0|0:0,0:0:0:0:
300,256,85612,1,2,0:0:0:0:
68,240,85759,2,0,L|60:140,1,90,8|2,0:0|0:0,0:0:0:0:
220,148,86055,1,8,0:0:0:0:
76,148,86203,1,2,0:0:0:0:
308,148,86351,6,0,P|364:112|308:40,1,180,2|8,0:0|0:0,0:0:0:0:
200,40,86794,1,2,0:0:0:0:
144,40,86868,1,2,0:0:0:0:
324,40,86942,2,0,L|492:40,1,168.75,12|0,0:0|0:0,0:0:0:0:
268,152,87237,6,0,L|172:152,1,90,8|2,0:0|0:0,0:0:0:0:
228,152,87459,1,2,0:0:0:0:
276,152,87533,1,8,0:0:0:0:
168,152,87681,1,2,0:0:0:0:
320,152,87828,2,0,L|324:256,1,90,8|2,0:0|0:0,0:0:0:0:
160,332,88124,2,0,L|156:236,1,90,8|2,0:0|0:0,0:0:0:0:
417,241,88420,6,0,L|313:241,1,90,8|2,0:0|0:0,0:0:0:0:
84,116,88715,2,0,L|180:116,1,90,8|2,0:0|0:0,0:0:0:0:
228,116,88937,1,2,0:0:0:0:
48,116,89011,2,0,P|8:72|72:8,1,168.75,12|0,0:0|0:0,0:0:0:0:
276,8,89306,6,0,L|368:8,1,90,8|2,0:0|0:0,0:0:0:0:
312,8,89528,1,2,0:0:0:0:
256,8,89602,2,0,L|352:8,1,90,8|2,0:0|0:0,0:0:0:0:
92,100,89897,2,0,L|96:8,1,90,8|2,0:0|0:0,0:0:0:0:
256,8,90193,2,0,L|260:108,1,90,8|2,0:0|0:0,0:0:0:0:
100,192,90489,6,0,L|200:192,1,90,8|2,0:0|0:0,0:0:0:0:
32,192,90784,2,0,L|144:192,1,112.5,8|2,0:0|0:0,0:0:0:0:
216,192,91006,1,2,0:0:0:0:
368,192,91080,2,0,P|428:216|436:312,1,168.75,12|0,0:0|0:0,0:0:0:0:
236,308,91375,6,0,L|140:308,1,90,8|2,0:0|0:0,0:0:0:0:
200,308,91597,1,2,0:0:0:0:
256,308,91671,2,0,L|160:308,1,90,8|2,0:0|0:0,0:0:0:0:
328,308,91966,2,0,L|332:208,1,90,8|2,0:0|0:0,0:0:0:0:
168,192,92262,1,8,0:0:0:0:
316,192,92410,1,2,0:0:0:0:
64,192,92558,6,0,L|60:96,1,90,8|2,0:0|0:0,0:0:0:0:
220,64,92853,2,0,L|124:64,1,90,8|2,0:0|0:0,0:0:0:0:
76,64,93075,1,2,0:0:0:0:
368,64,93149,1,6,0:0:0:0:
256,192,93296,12,0,94331,0:0:0:0:
268,192,95513,5,2,0:0:0:0:
320,192,95587,1,2,0:0:0:0:
372,192,95661,1,2,0:0:0:0:
424,192,95735,1,2,0:0:0:0:
244,192,95809,2,0,L|148:192,1,90,10|4,0:0|0:0,0:0:0:0:
424,192,96252,1,8,0:0:0:0:
136,192,96400,2,0,L|132:100,1,90,2|0,0:0|0:0,0:0:0:0:
432,336,96695,6,0,L|436:236,1,90,2|0,0:0|0:0,0:0:0:0:
292,192,96991,2,0,L|288:96,1,90,2|0,0:0|0:0,0:0:0:0:
144,72,97286,2,0,L|234:39,2,90,2|0|2,0:0|0:0|0:0,0:0:0:0:
400,100,97730,1,2,0:0:0:0:
252,100,97878,2,0,L|248:192,1,90,2|2,0:0|0:0,0:0:0:0:
484,192,98173,2,0,L|388:192,1,90,0|2,0:0|0:0,0:0:0:0:
92,192,98469,5,6,0:0:0:0:
192,192,98616,1,0,0:0:0:0:
84,192,98764,1,2,0:0:0:0:
184,192,98912,1,0,0:0:0:0:
328,192,99060,1,2,0:0:0:0:
428,192,99208,1,0,0:0:0:0:
328,192,99355,1,2,0:0:0:0:
472,192,99503,1,8,0:0:0:0:
316,192,99651,1,8,0:0:0:0:
228,236,99799,1,2,0:0:0:0:
228,336,99947,1,2,0:0:0:0:
316,296,100094,1,2,0:0:0:0:
64,292,100242,6,0,P|16:232|84:176,1,180,6|2,0:0|0:0,0:0:0:0:
180,176,100685,1,0,0:0:0:0:
32,92,100833,2,0,L|128:92,1,90,2|0,0:0|0:0,0:0:0:0:
13,92,101129,1,2,0:0:0:0:
267,92,101277,1,2,0:0:0:0:
115,92,101424,2,0,L|111:192,1,90,2|2,0:0|0:0,0:0:0:0:
347,192,101720,2,0,L|243:192,1,90,2|2,0:0|0:0,0:0:0:0:
492,192,102015,6,0,L|496:288,1,90,6|0,0:0|0:0,0:0:0:0:
336,192,102311,1,8,0:0:0:0:
444,192,102459,1,0,0:0:0:0:
288,192,102607,2,0,L|104:192,1,180,2|8,0:0|0:0,0:0:0:0:
264,272,103050,2,0,L|168:272,1,90,0|2,0:0|0:0,0:0:0:0:
84,272,103346,1,2,0:0:0:0:
336,272,103493,2,0,L|340:368,1,90,8|0,0:0|0:0,0:0:0:0:
84,192,103789,6,0,L|176:192,3,90,6|0|8|0,0:0|0:0|0:0|0:0,0:0:0:0:
332,192,104380,1,2,0:0:0:0:
362,141,104454,1,2,0:0:0:0:
347,85,104528,1,2,0:0:0:0:
296,56,104602,1,2,0:0:0:0:
112,56,104676,2,0,L|108:112,1,45,8|0,0:0|0:0,0:0:0:0:
180,112,104823,2,0,L|176:180,1,45,2|2,0:0|0:0,0:0:0:0:
108,100,104971,1,2,0:0:0:0:
362,141,105119,1,12,0:0:0:0:
72,56,105267,2,0,L|68:168,1,90,12|0,0:0|0:0,0:0:0:0:
308,192,105562,5,2,0:0:0:0:
164,192,105710,1,0,0:0:0:0:
320,192,105858,1,8,0:0:0:0:
72,192,106006,2,0,P|20:244|72:320,1,180,2|0,0:0|0:0,0:0:0:0:
232,320,106449,2,0,L|328:320,1,90,8|0,0:0|0:0,0:0:0:0:
80,320,106745,1,2,0:0:0:0:
232,320,106892,1,2,0:0:0:0:
480,320,107040,2,0,L|484:216,1,90,8|0,0:0|0:0,0:0:0:0:
208,192,107336,5,8,0:0:0:0:
432,192,107484,1,8,0:0:0:0:
160,192,107632,1,8,0:0:0:0:
476,192,107780,1,8,0:0:0:0:
68,192,107928,1,8,0:0:0:0:
476,192,108075,1,8,0:0:0:0:
260,192,108371,1,2,0:0:0:0:
328,192,108445,1,2,0:0:0:0:
476,192,108519,6,0,L|480:164,1,22.5,8|0,0:0|0:0,0:0:0:0:
276,328,108667,2,0,L|272:300,1,22.5,8|0,0:0|0:0,0:0:0:0:
72,316,108814,2,0,L|76:288,1,22.5,8|0,0:0|0:0,0:0:0:0:
348,192,108962,2,0,L|352:164,1,22.5,8|0,0:0|0:0,0:0:0:0:
331,169,109701,6,0,L|75:169,1,253.125009655953,4|0,0:0|0:0,0:0:0:0:
77,169,110292,2,0,L|281:169,1,202.500007724762,2|0,0:0|0:0,0:0:0:0:
124,80,110883,1,8,0:0:0:0:
256,304,112066,6,0,P|152:192|256:76,1,337.5,2|0,0:0|0:0,0:0:0:0:
254,76,112657,2,0,L|68:76,1,180,8|0,0:0|0:0,0:0:0:0:
436,76,113248,2,0,L|440:268,1,180,6|0,0:0|0:0,0:0:0:0:
44,44,113839,2,0,L|48:236,1,180,6|0,0:0|0:0,0:0:0:0:
444,320,114430,6,0,P|496:260|444:188,1,180,6|0,0:0|0:0,0:0:0:0:
336,188,114873,1,2,0:0:0:0:
268,188,114947,1,2,0:0:0:0:
96,192,115021,1,8,0:0:0:0:
72,288,115169,1,0,0:0:0:0:
144,356,115317,1,2,0:0:0:0:
244,356,115465,1,0,0:0:0:0:
88,356,115612,5,2,0:0:0:0:
336,356,115760,2,0,L|340:260,1,90,8|2,0:0|0:0,0:0:0:0:
184,192,116056,1,2,0:0:0:0:
472,336,116203,2,0,L|476:144,1,180,12|2,0:0|0:0,0:0:0:0:
80,192,116795,6,0,B|76:100|76:100|160:76,1,180,2|0,0:0|0:0,0:0:0:0:
260,76,117238,1,2,0:0:0:0:
104,76,117386,2,0,P|48:132|80:192,1,157.5,12|0,0:0|0:0,0:0:0:0:
108,192,117681,2,0,L|213:193,1,90,2|0,0:0|0:0,0:0:0:0:
432,192,117977,5,8,0:0:0:0:
164,192,118272,1,2,0:0:0:0:
416,192,118568,1,8,0:0:0:0:
236,192,118864,1,8,0:0:0:0:
388,192,119011,1,0,0:0:0:0:
100,192,119159,6,0,P|48:276|100:300,1,180,6|2,0:0|0:0,0:0:0:0:
204,300,119603,1,0,0:0:0:0:
48,208,119750,2,0,L|204:300,1,180,8|2,0:0|0:0,0:0:0:0:
95,300,120194,1,0,0:0:0:0:
364,300,120341,6,0,L|368:240,1,45,8|8,0:0|0:0,0:0:0:0:
204,192,120489,2,0,L|175:139,1,45,8|8,0:0|0:0,0:0:0:0:
376,300,120637,2,0,L|424:264,1,45,8|8,0:0|0:0,0:0:0:0:
192,192,120785,2,0,L|133:180,1,45,8|8,0:0|0:0,0:0:0:0:
472,192,120933,1,8,0:0:0:0:
472,192,121228,2,0,L|348:192,1,90,2|0,0:0|0:0,0:0:0:0:
128,192,121524,6,0,B|36:192|36:192|36:96,1,180,6|0,0:0|0:0,0:0:0:0:
136,104,121967,1,2,0:0:0:0:
372,104,122115,1,8,0:0:0:0:
272,104,122263,1,0,0:0:0:0:
272,204,122410,1,2,0:0:0:0:
428,104,122558,1,8,0:0:0:0:
112,104,122706,5,6,0:0:0:0:
392,104,123002,1,6,0:0:0:0:
104,104,123297,2,0,L|100:204,1,90,6|0,0:0|0:0,0:0:0:0:
268,104,123593,2,0,L|216:104,1,45,8|8,0:0|0:0,0:0:0:0:
52,196,123740,2,0,L|8:196,1,45,8|8,0:0|0:0,0:0:0:0:
348,192,123888,6,0,P|416:152|416:96,1,135,6|2,0:0|0:0,0:0:0:0:
392,52,124110,1,2,0:0:0:0:
336,40,124184,1,8,0:0:0:0:
488,52,124332,1,2,0:0:0:0:
216,40,124479,2,0,L|212:144,1,90,8|2,0:0|0:0,0:0:0:0:
360,192,124775,1,8,0:0:0:0:
208,192,124923,1,2,0:0:0:0:
460,192,125070,6,0,B|508:192|508:192|456:192,1,90,8|2,0:0|0:0,0:0:0:0:
416,192,125292,1,2,0:0:0:0:
256,192,125366,1,8,0:0:0:0:
480,192,125514,1,2,0:0:0:0:
192,192,125662,2,0,L|100:192,1,90,8|2,0:0|0:0,0:0:0:0:
328,192,125957,1,8,0:0:0:0:
180,192,126105,1,2,0:0:0:0:
428,192,126253,6,0,B|428:240|428:240|392:264,1,90,6|2,0:0|0:0,0:0:0:0:
338,264,126474,1,2,0:0:0:0:
284,264,126548,1,8,0:0:0:0:
436,264,126696,1,2,0:0:0:0:
184,264,126844,2,0,L|94:264,1,90,8|2,0:0|0:0,0:0:0:0:
252,192,127139,2,0,L|160:192,1,90,8|2,0:0|0:0,0:0:0:0:
116,192,127361,1,2,0:0:0:0:
306,192,127435,5,6,0:0:0:0:
162,192,127731,1,6,0:0:0:0:
18,192,128026,1,6,0:0:0:0:
188,104,128322,2,0,L|132:104,1,45,8|8,0:0|0:0,0:0:0:0:
344,104,128470,2,0,L|392:104,1,45,8|8,0:0|0:0,0:0:0:0:
220,12,128617,6,0,L|128:12,1,90,6|2,0:0|0:0,0:0:0:0:
80,12,128839,1,2,0:0:0:0:
130,12,128913,1,8,0:0:0:0:
288,12,129061,1,2,0:0:0:0:
18,12,129208,2,0,L|12:112,1,90,8|2,0:0|0:0,0:0:0:0:
172,104,129504,2,0,L|76:104,1,90,8|2,0:0|0:0,0:0:0:0:
356,104,129800,5,8,0:0:0:0:
132,104,129947,1,8,0:0:0:0:
392,104,130095,1,8,0:0:0:0:
102,104,130243,1,8,0:0:0:0:
452,104,130391,2,0,L|456:196,1,90,8|2,0:0|0:0,0:0:0:0:
300,196,130686,1,8,0:0:0:0:
448,196,130834,1,2,0:0:0:0:
176,192,130982,6,0,L|84:192,1,90,6|2,0:0|0:0,0:0:0:0:
232,192,131277,1,8,0:0:0:0:
72,192,131425,1,2,0:0:0:0:
344,192,131573,1,8,0:0:0:0:
200,192,131721,1,2,0:0:0:0:
56,192,131869,1,8,0:0:0:0:
156,192,132016,1,2,0:0:0:0:
100,192,132090,1,2,0:0:0:0:
256,104,132164,5,6,0:0:0:0:
40,104,132460,1,6,0:0:0:0:
284,104,132755,1,6,0:0:0:0:
140,104,133051,2,0,L|144:160,1,45,8|8,0:0|0:0,0:0:0:0:
352,192,133199,2,0,L|348:256,1,45,8|8,0:0|0:0,0:0:0:0:
160,240,133346,6,0,L|60:240,1,90,6|8,0:0|0:0,0:0:0:0:
228,320,133642,1,2,0:0:0:0:
183,320,133716,1,2,0:0:0:0:
138,320,133790,1,8,0:0:0:0:
392,320,133937,2,0,L|492:320,1,90,2|8,0:0|0:0,0:0:0:0:
324,240,134233,1,2,0:0:0:0:
369,240,134307,1,2,0:0:0:0:
414,240,134381,1,8,0:0:0:0:
160,192,134529,5,2,0:0:0:0:
392,240,134676,1,8,0:0:0:0:
160,192,134824,1,2,0:0:0:0:
302,192,134898,1,2,0:0:0:0:
444,192,134972,1,8,0:0:0:0:
204,96,135120,2,0,L|300:96,1,90,2|8,0:0|0:0,0:0:0:0:
144,96,135415,2,0,L|96:96,2,45,2|2|2,0:0|0:0|0:0,0:0:0:0:
380,192,135711,5,2,0:0:0:0:
168,192,135859,1,12,0:0:0:0:
324,192,136006,1,2,0:0:0:0:
176,192,136154,1,8,0:0:0:0:
448,192,136302,1,2,0:0:0:0:
200,192,136450,1,12,0:0:0:0:
356,192,136598,2,0,L|400:192,2,45,8|2|2,0:0|0:0|0:0,0:0:0:0:
84,328,136893,5,6,0:0:0:0:
244,328,137189,1,6,0:0:0:0:
408,328,137484,1,6,0:0:0:0:
228,328,137780,1,8,0:0:0:0:
328,328,137928,1,2,0:0:0:0:
168,328,138075,5,2,0:0:0:0:
76,292,138223,1,0,0:0:0:0:
76,192,138371,1,2,0:0:0:0:
168,156,138519,1,0,0:0:0:0:
324,156,138667,2,0,L|328:204,1,45,8|8,0:0|0:0,0:0:0:0:
228,236,138814,2,0,L|224:180,1,45,8|8,0:0|0:0,0:0:0:0:
396,288,138962,2,0,B|292:288,1,90,8|0,0:0|0:0,0:0:0:0:
464,288,139258,6,0,P|508:240|440:172,1,180,2|0,0:0|0:0,0:0:0:0:
332,172,139701,1,2,0:0:0:0:
92,172,139849,2,0,L|140:172,1,45,8|8,0:0|0:0,0:0:0:0:
308,64,139997,2,0,L|252:64,1,45,8|8,0:0|0:0,0:0:0:0:
80,172,140144,1,8,0:0:0:0:
440,171,140440,5,6,0:0:0:0:
488,201,140514,1,0,0:0:0:0:
489,259,140588,1,0,0:0:0:0:
441,290,140662,1,0,0:0:0:0:
264,292,140736,2,0,L|200:292,1,45,8|0,0:0|0:0,0:0:0:0:
388,172,140883,2,0,L|392:228,1,45,2|0,0:0|0:0,0:0:0:0:
184,292,141031,1,2,0:0:0:0:
177,233,141105,1,2,0:0:0:0:
205,181,141179,1,2,0:0:0:0:
259,156,141253,1,0,0:0:0:0:
436,216,141327,2,0,L|372:217,1,45,8|2,0:0|0:0,0:0:0:0:
205,181,141474,2,0,L|152:182,1,45,2|0,0:0|0:0,0:0:0:0:
364,156,141622,6,0,L|368:96,1,45,2|2,0:0|0:0,0:0:0:0:
292,76,141770,2,0,L|256:48,1,45,2|0,0:0|0:0,0:0:0:0:
72,48,141918,2,0,L|68:96,1,45,8|0,0:0|0:0,0:0:0:0:
252,184,142066,2,0,L|304:184,1,45,2|0,0:0|0:0,0:0:0:0:
112,184,142213,1,2,0:0:0:0:
58,209,142287,1,2,0:0:0:0:
30,260,142361,1,2,0:0:0:0:
52,312,142435,1,0,0:0:0:0:
276,312,142509,2,0,L|216:312,1,45,8|8,0:0|0:0,0:0:0:0:
30,260,142657,2,0,L|78:260,1,45,8|8,0:0|0:0,0:0:0:0:
348,312,142804,5,6,0:0:0:0:
396,282,142878,1,0,0:0:0:0:
397,224,142952,1,0,0:0:0:0:
349,193,143026,1,0,0:0:0:0:
164,192,143100,2,0,L|160:136,1,45,8|0,0:0|0:0,0:0:0:0:
420,56,143248,2,0,L|476:56,1,45,2|0,0:0|0:0,0:0:0:0:
184,24,143396,2,0,L|180:80,1,45,2|2,0:0|0:0,0:0:0:0:
256,56,143543,2,0,L|252:120,1,45,2|0,0:0|0:0,0:0:0:0:
60,68,143691,2,0,L|56:124,1,45,8|2,0:0|0:0,0:0:0:0:
236,192,143839,2,0,L|288:192,1,45,2|0,0:0|0:0,0:0:0:0:
464,192,143987,6,0,L|468:248,1,45,2|2,0:0|0:0,0:0:0:0:
281,192,144135,2,0,L|253:241,1,45,2|2,0:0|0:0,0:0:0:0:
464,192,144282,2,0,L|418:224,1,45,10|2,0:0|0:0,0:0:0:0:
220,192,144430,2,0,L|164:202,1,45,2|2,0:0|0:0,0:0:0:0:
380,72,144578,2,0,L|436:82,1,45,10|2,0:0|0:0,0:0:0:0:
240,48,144726,2,0,L|194:80,1,45,10|2,0:0|0:0,0:0:0:0:
20,76,144873,2,0,L|48:125,1,45,8|8,0:0|0:0,0:0:0:0:
240,48,145021,2,0,L|286:80,1,45,0|8,0:0|0:0,0:0:0:0:
72,192,145169,5,6,0:0:0:0:
24,222,145243,1,0,0:0:0:0:
23,280,145317,1,0,0:0:0:0:
71,311,145391,1,0,0:0:0:0:
248,313,145465,2,0,L|312:313,1,45,8|0,0:0|0:0,0:0:0:0:
124,193,145612,2,0,L|120:249,1,45
328,313,145760,1,2,0:0:0:0:
332,252,145834,1,2,0:0:0:0:
300,200,145908,1,2,0:0:0:0:
240,184,145982,1,0,0:0:0:0:
446,219,146056,2,0,L|382:220,1,45,8|2,0:0|0:0,0:0:0:0:
220,184,146203,2,0,L|167:185,1,45,2|0,0:0|0:0,0:0:0:0:
401,219,146351,6,0,L|405:159,1,45,2|2,0:0|0:0,0:0:0:0:
329,139,146499,2,0,L|293:111,1,45,2|0,0:0|0:0,0:0:0:0:
80,48,146647,2,0,L|76:96,1,45,8|0,0:0|0:0,0:0:0:0:
252,184,146795,2,0,L|296:184,1,45,2|0,0:0|0:0,0:0:0:0:
472,172,146942,1,2,0:0:0:0:
496,224,147016,1,2,0:0:0:0:
484,280,147090,1,2,0:0:0:0:
428,296,147164,1,0,0:0:0:0:
248,296,147238,2,0,L|188:296,1,45,8|8,0:0|0:0,0:0:0:0:
384,184,147386,2,0,L|336:184,1,45,8|8,0:0|0:0,0:0:0:0:
109,304,147534,5,6,0:0:0:0:
61,274,147607,1,0,0:0:0:0:
60,216,147681,1,0,0:0:0:0:
108,185,147755,1,0,0:0:0:0:
293,184,147829,2,0,L|297:128,1,45,8|0,0:0|0:0,0:0:0:0:
113,72,147977,2,0,L|57:72,1,45
273,16,148125,2,0,L|277:72,1,45,2|2,0:0|0:0,0:0:0:0:
68,72,148272,2,0,L|72:136,1,45,2|0,0:0|0:0,0:0:0:0:
320,64,148420,2,0,L|324:120,1,45,8|2,0:0|0:0,0:0:0:0:
115,116,148568,2,0,L|63:116,1,45,2|2,0:0|0:0,0:0:0:0:
324,304,148716,6,0,L|436:304,1,112.5,6|0,0:0|0:0,0:0:0:0:
276,192,149011,1,2,0:0:0:0:
324,208,149085,1,2,0:0:0:0:
372,224,149159,1,8,0:0:0:0:
100,284,149307,1,2,0:0:0:0:
154,284,149381,1,2,0:0:0:0:
208,284,149455,1,8,0:0:0:0:
48,284,149603,2,0,L|40:228,2,45,8|2|2,0:0|0:0|0:0,0:0:0:0:
324,208,149898,5,2,0:0:0:0:
172,192,150046,1,8,0:0:0:0:
332,208,150194,1,2,0:0:0:0:
334,163,150268,1,2,0:0:0:0:
336,118,150341,1,8,0:0:0:0:
88,88,150489,2,0,L|92:152,1,45,2|2,0:0|0:0,0:0:0:0:
164,88,150637,2,0,L|168:152,1,45,2|2,0:0|0:0,0:0:0:0:
352,208,150785,2,0,L|308:208,1,45,8|8,0:0|0:0,0:0:0:0:
90,132,150933,2,0,L|142:132,1,45,2|2,0:0|0:0,0:0:0:0:
364,28,151080,6,0,L|456:28,1,90,2|8,0:0|0:0,0:0:0:0:
296,28,151376,1,2,0:0:0:0:
244,28,151450,1,2,0:0:0:0:
296,28,151524,1,8,0:0:0:0:
60,28,151671,1,2,0:0:0:0:
116,28,151745,1,2,0:0:0:0:
60,28,151819,1,8,0:0:0:0:
216,132,151967,1,8,0:0:0:0:
264,132,152041,1,2,0:0:0:0:
312,132,152115,1,2,0:0:0:0:
88,132,152263,5,2,0:0:0:0:
340,132,152410,1,12,0:0:0:0:
68,132,152558,1,2,0:0:0:0:
216,132,152632,1,2,0:0:0:0:
364,132,152706,1,2,0:0:0:0:
44,132,152854,2,0,L|40:184,1,45,8|8,0:0|0:0,0:0:0:0:
220,248,153002,2,0,L|268:248,1,45,2|2,0:0|0:0,0:0:0:0:
448,192,153149,2,0,L|388:192,1,45,8|8,0:0|0:0,0:0:0:0:
220,248,153297,2,0,L|216:296,1,45,2|2,0:0|0:0,0:0:0:0:
400,292,153445,6,0,L|492:292,1,90,6|8,0:0|0:0,0:0:0:0:
332,292,153740,1,2,0:0:0:0:
374,279,153814,1,2,0:0:0:0:
417,265,153888,1,8,0:0:0:0:
160,192,154036,1,2,0:0:0:0:
234,192,154110,1,2,0:0:0:0:
308,192,154184,1,8,0:0:0:0:
148,192,154332,2,0,L|100:192,2,45,8|2|2,0:0|0:0|0:0,0:0:0:0:
417,265,154627,6,0,L|425:157,1,90,2|8,0:0|0:0,0:0:0:0:
261,265,154923,1,2,0:0:0:0:
308,252,154997,1,2,0:0:0:0:
356,240,155070,1,8,0:0:0:0:
100,264,155218,2,0,L|96:200,1,45,8|8,0:0|0:0,0:0:0:0:
280,192,155366,2,0,L|284:124,1,45,2|2,0:0|0:0,0:0:0:0:
480,60,155514,2,0,L|436:60,1,45,8|8,0:0|0:0,0:0:0:0:
259,24,155662,2,0,L|211:24,1,45,2|2,0:0|0:0,0:0:0:0:
40,28,155809,6,0,L|36:124,1,90,6|8,0:0|0:0,0:0:0:0:
284,192,156105,1,2,0:0:0:0:
243,171,156179,1,2,0:0:0:0:
203,151,156253,1,8,0:0:0:0:
448,192,156401,1,2,0:0:0:0:
407,171,156474,1,2,0:0:0:0:
367,151,156548,1,8,0:0:0:0:
208,192,156696,1,2,0:0:0:0:
356,152,156844,1,8,0:0:0:0:
40,192,156992,5,6,0:0:0:0:
472,192,157287,1,6,0:0:0:0:
76,192,157583,1,6,0:0:0:0:
432,192,157878,1,6,0:0:0:0:
56,192,158174,6,0,B|56:72|56:72|176:72|176:72|176:192|176:192|296:192|296:192|296:72|296:72|416:72|416:72|416:192|416:192|356:192,1,897.749963013841,6|0,0:0|0:0,0:0:0:0:
204,284,159356,6,0,L|340:284,1,135.000005149842,8|2,0:0|0:0,0:0:0:0:
271,284,159578,1,2,0:0:0:0:
204,284,159652,1,2,0:0:0:0:
492,284,159800,2,0,L|496:176,1,90,8|0,0:0|0:0,0:0:0:0:
