osu file format v14

[General]
AudioFilename: audio.mp3
AudioLeadIn: 0
PreviewTime: 118864
Countdown: 0
SampleSet: Drum
StackLeniency: 0.7
Mode: 2
LetterboxInBreaks: 0
WidescreenStoryboard: 1

[Editor]
Bookmarks: 1820,11278,20736,39652,47336,67435,76893,93149,96695,109701,119159,140440,158174,159947
DistanceSpacing: 1
BeatDivisor: 2
GridSize: 4
TimelineZoom: 2.2

[Metadata]
Title:oni
TitleUnicode:鬼
Artist:Emiru no Aishita Tsukiyo ni Dai San Gensou Kyoku wo
ArtistUnicode:エミルの愛した月夜に第III幻想曲を
Creator:JBHyperion
Version:Cup
Source:
Tags:2021 Featured Artist Summer Cup Emiru3 Emille's Moonlight Serenade サラ Sala 荊 いばら Ibara Ito japanese symphonic rock metal doujin
BeatmapID:3198306
BeatmapSetID:1560338

[Difficulty]
HPDrainRate:3
CircleSize:2
OverallDifficulty:6
ApproachRate:6
SliderMultiplier:1.3
SliderTickRate:1

[Events]
//Background and Video events
0,0,"68547250_p0_waifu2x_1920x1200.jpg",0,0
//Break Periods
2,109901,112198
//Storyboard Layer 0 (Background)
//Storyboard Layer 1 (Fail)
//Storyboard Layer 2 (Pass)
//Storyboard Layer 3 (Foreground)
//Storyboard Layer 4 (Overlay)
//Storyboard Sound Samples

[TimingPoints]
637,295.566502463054,4,3,1,80,1,0
1376,-100,4,2,1,100,0,0
1819,-100,4,2,2,80,0,0
3444,-100,4,2,7,100,0,0
3592,-100,4,2,2,80,0,0
5513,-100,4,2,7,100,0,0
5661,-100,4,2,2,80,0,0
5809,-100,4,2,7,100,0,0
5957,-100,4,2,2,80,0,0
8173,-100,4,2,7,100,0,0
8321,-100,4,2,2,80,0,0
8912,-100,4,3,2,60,0,0
9503,-100,4,3,2,70,0,0
10095,-100,4,3,1,80,0,0
12016,-100,4,3,10,60,0,0
12164,-100,4,3,1,80,0,0
14380,-100,4,3,10,60,0,0
14528,-100,4,3,1,80,0,0
16745,-100,4,3,10,60,0,0
16893,-100,4,3,1,80,0,0
19701,-100,4,2,1,60,0,0
20735,-100,4,3,1,80,0,0
31523,-100,4,3,10,60,0,0
31671,-100,4,3,1,80,0,0
37435,-100,4,3,10,60,0,0
37583,-100,4,3,1,80,0,0
38469,-100,4,3,1,60,0,0
39060,-100,4,3,1,70,0,0
39652,295.566502463054,3,3,1,80,1,0
40390,-100,3,3,11,60,0,0
40538,-100,3,3,1,80,0,0
41129,-100,3,3,1,90,0,0
41351,-100,3,3,1,80,0,0
42903,-100,3,3,1,80,0,0
43124,-100,3,2,1,10,0,0
43198,-100,3,3,1,80,0,0
44676,-100,3,3,1,80,0,0
44898,-100,3,3,1,80,0,0
44972,295.566502463054,4,3,1,80,1,0
47040,-100,4,3,3,80,0,0
47336,-100,4,3,1,90,0,1
47484,-100,4,3,1,90,0,1
50883,-100,4,3,1,80,0,0
51178,-100,4,3,1,90,0,0
51474,-100,4,3,1,80,0,0
51770,-100,4,3,2,70,0,0
52065,-100,4,3,1,90,0,1
52213,-100,4,3,1,90,0,1
55612,-100,4,3,1,90,0,0
55907,-100,4,3,1,80,0,0
56203,-100,4,3,1,70,0,0
56499,-100,4,3,2,70,0,0
56794,-100,4,3,1,90,0,1
56942,-100,4,3,1,90,0,1
60341,-100,4,3,1,80,0,0
60637,-100,4,3,1,90,0,0
60932,-100,4,3,1,80,0,0
61228,-100,4,3,2,70,0,0
61523,-100,4,3,1,90,0,1
61819,-100,4,3,1,90,0,1
64036,-100,4,2,7,90,0,1
64183,-100,4,3,1,90,0,1
64627,-100,4,2,7,90,0,1
64774,-100,4,3,1,90,0,1
65070,-100,4,3,1,90,0,0
65366,-100,4,3,1,80,0,0
65661,-100,4,3,1,70,0,0
65957,-100,4,3,1,80,0,0
66252,-100,4,2,1,70,0,0
66843,-100,4,3,2,80,0,0
67139,-100,4,3,1,80,0,0
67361,-100,4,2,1,10,0,0
67435,-100,4,3,1,80,0,0
76597,-100,4,3,1,80,0,0
76745,-100,4,3,1,80,0,0
76893,295.566502463054,7,3,1,70,1,0
78075,-100,7,3,2,80,0,0
78666,-100,7,3,1,90,0,0
78888,-100,7,2,1,10,0,0
78961,-100,7,3,1,80,0,0
80144,-100,7,3,2,80,0,0
80735,-100,7,3,1,80,0,0
80957,-100,7,2,1,10,0,0
81030,-100,7,3,1,80,0,0
82213,-100,7,3,2,80,0,0
82804,-100,7,3,1,80,0,0
83026,-100,7,2,1,10,0,0
83099,-100,7,3,1,80,0,0
84429,-100,7,2,7,80,0,0
84725,-100,7,3,1,80,0,0
86942,-100,7,3,1,80,0,0
87163,-100,7,2,1,10,0,0
87237,-100,7,3,1,80,0,0
89011,-100,7,3,1,80,0,0
89232,-100,7,2,1,10,0,0
89306,-100,7,3,1,80,0,0
91080,-100,7,3,1,80,0,0
91301,-100,7,2,1,10,0,0
91375,-100,7,3,1,80,0,0
93149,295.566502463054,3,3,1,80,1,0
93296,-100,3,2,1,50,0,0
94331,-100,3,2,1,5,0,0
95513,-100,3,3,1,80,0,0
96252,-100,3,3,2,80,0,0
96400,-100,3,2,1,100,0,0
96695,-100,3,3,1,70,0,0
97730,-100,3,2,7,70,0,0
98025,-100,3,3,1,70,0,0
98173,-100,3,2,7,70,0,0
98321,-100,3,3,1,70,0,0
99503,-100,3,3,2,70,0,0
99799,-100,3,3,1,70,0,0
101277,-100,3,2,7,70,0,0
101572,-100,3,3,1,70,0,0
101720,-100,3,2,7,70,0,0
101868,-100,3,3,1,70,0,0
105562,-100,3,3,1,80,0,0
106006,-100,3,2,1,80,0,0
106153,-100,3,3,11,80,0,0
106301,-100,3,3,1,80,0,0
107337,295.566502463054,4,3,1,90,1,0
109701,-100,4,3,3,100,0,0
110255,-100,4,2,1,10,0,0
110292,-100,4,3,3,80,0,0
110736,-100,4,2,1,10,0,0
110883,-100,4,3,3,80,0,0
112066,-100,4,3,3,80,0,0
112620,-100,4,2,1,10,0,0
112657,-100,4,3,3,80,0,0
113248,-100,4,3,1,70,0,0
114430,-100,4,3,1,80,0,0
115169,-100,4,2,1,80,0,0
115612,-100,4,3,1,80,0,0
117644,-100,4,2,1,10,0,0
117681,-100,4,2,1,80,0,0
117977,-100,4,3,2,80,0,0
118864,-100,4,3,1,80,0,0
119307,-100,4,3,3,80,0,0
120341,-100,4,3,1,70,0,0
120489,-100,4,3,2,70,0,0
120637,-100,4,3,1,70,0,0
120785,-100,4,3,2,70,0,0
120933,-100,4,3,1,70,0,0
121228,-100,4,3,3,80,0,0
121524,-100,4,3,1,70,0,0
122706,-100,4,3,1,80,0,0
123001,-100,4,3,1,90,0,0
123297,-100,4,3,1,80,0,0
123593,-100,4,3,2,70,0,0
123888,-100,4,2,1,100,0,1
124036,-100,4,3,1,90,0,1
127435,-100,4,3,1,90,0,0
127730,-100,4,3,1,80,0,0
128026,-100,4,3,1,70,0,0
128322,-100,4,3,2,70,0,0
128617,-100,4,3,1,90,0,1
132164,-100,4,3,1,80,0,0
132459,-100,4,3,1,90,0,0
132755,-100,4,3,1,80,0,0
133051,-100,4,3,2,70,0,0
133346,-100,4,3,1,90,0,1
135859,-100,4,2,7,90,0,1
136006,-100,4,3,1,90,0,1
136450,-100,4,2,7,90,0,1
136598,-100,4,3,1,90,0,1
136893,-100,4,2,1,100,0,0
137189,-100,4,3,1,80,0,0
137484,-100,4,3,1,70,0,0
137780,-100,4,3,1,80,0,0
138075,-100,4,2,1,70,0,0
138667,-100,4,3,2,80,0,0
139110,-100,4,2,1,80,0,0
139849,-100,4,3,2,80,0,0
140440,-100,4,3,1,80,0,0
142509,-100,4,3,2,80,0,0
142804,-100,4,3,1,80,0,0
144873,-100,4,3,2,80,0,0
145169,-100,4,3,1,80,0,0
147238,-100,4,3,2,80,0,0
147534,-100,4,3,1,80,0,0
148716,-100,4,3,1,80,0,0
148864,-100,4,3,1,80,0,0
150785,-100,4,3,2,80,0,0
150933,-100,4,3,1,80,0,0
152854,-100,4,3,2,80,0,0
153002,-100,4,3,1,80,0,0
153149,-100,4,3,2,80,0,0
153297,-100,4,3,1,80,0,0
155514,-100,4,3,2,80,0,0
155662,-100,4,3,1,80,0,0
158174,-100,4,3,1,90,0,0
158322,-100,4,2,1,50,0,0
159208,-100,4,2,1,10,0,0
159356,-100,4,3,1,80,0,0
159504,-100,4,3,1,80,0,0

[Colours]
Combo1 : 255,255,125
Combo2 : 50,50,100
Combo3 : 225,175,40
Combo4 : 50,125,255

[HitObjects]
292,192,637,5,2,0:0:0:0:
164,192,932,2,0,L|160:112,1,65,10|4,0:0|0:0,0:0:0:0:
260,36,1375,1,0,0:0:0:0:
260,36,1523,1,2,0:0:0:0:
116,192,1819,6,0,L|76:40,2,130,6|2|2,0:0|0:0|0:0,0:0:0:0:
232,192,2705,1,2,0:0:0:0:
364,192,3001,2,0,P|236:60|164:192,1,390,2|2,0:0|0:0,0:0:0:0:
292,192,4183,6,0,L|416:120,2,130,2|2|2,0:0|0:0|0:0,0:0:0:0:
176,192,5070,1,2,0:0:0:0:
176,192,5366,1,2,0:0:0:0:
292,192,5661,1,2,0:0:0:0:
160,308,5957,1,2,0:0:0:0:
300,308,6252,1,10,0:0:0:0:
440,308,6548,6,0,L|480:160,2,130,6|2|2,0:0|0:0|0:0,0:0:0:0:
324,308,7435,1,2,0:0:0:0:
196,308,7730,2,0,P|324:176|396:308,1,390,2|2,0:0|0:0,0:0:0:0:
256,192,8912,12,8,9799,0:0:0:0:
196,192,10095,5,6,0:0:0:0:
64,192,10390,1,2,0:0:0:0:
180,192,10686,1,2,0:0:0:0:
284,192,10981,1,10,0:0:0:0:
160,192,11277,6,0,L|40:124,2,130,6|2|8,0:0|0:0|0:0,0:0:0:0:
276,192,12164,1,2,0:0:0:0:
147,202,12459,2,0,P|107:166|147:114,1,130,2|2,0:0|0:0,0:0:0:0:
211,114,12903,1,8,0:0:0:0:
275,114,13050,2,0,L|279:254,1,130,2|10,0:0|0:0,0:0:0:0:
279,244,13641,6,0,L|395:176,2,130,2|2|8,0:0|0:0|0:0,0:0:0:0:
163,244,14528,1,2,0:0:0:0:
295,244,14824,1,2,0:0:0:0:
423,244,15119,1,2,0:0:0:0:
279,244,15415,1,8,0:0:0:0:
407,244,15710,2,0,L|491:244,1,65,8|2,0:0|0:0,0:0:0:0:
472,244,16006,6,0,L|352:176,2,130,2|2|8,0:0|0:0|0:0,0:0:0:0:
356,244,16893,1,2,0:0:0:0:
228,244,17188,2,0,P|192:220|228:156,1,130,2|2,0:0|0:0,0:0:0:0:
284,156,17632,1,8,0:0:0:0:
344,156,17779,1,2,0:0:0:0:
212,156,18075,1,10,0:0:0:0:
356,156,18370,6,0,L|472:88,2,130,6|2|8,0:0|0:0|0:0,0:0:0:0:
240,156,19257,2,0,L|236:80,1,65,2|8,0:0|0:0,0:0:0:0:
416,192,20735,6,0,P|484:108|396:8,1,260,6|2,0:0|0:0,0:0:0:0:
280,8,21622,1,2,0:0:0:0:
408,8,21917,2,0,L|412:92,1,65,2|8,0:0|0:0,0:0:0:0:
292,192,22361,1,2,0:0:0:0:
228,192,22508,2,0,L|100:120,1,130,2|8,0:0|0:0,0:0:0:0:
232,192,23100,5,6,0:0:0:0:
344,192,23691,1,2,0:0:0:0:
216,192,23986,1,8,0:0:0:0:
84,192,24282,2,0,L|80:60,1,130,2|2,0:0|0:0,0:0:0:0:
216,192,24873,2,0,L|220:324,1,130,2|8,0:0|0:0,0:0:0:0:
84,324,25464,6,0,P|16:240|104:140,1,260,6|2,0:0|0:0,0:0:0:0:
220,140,26351,1,2,0:0:0:0:
336,140,26646,2,0,L|340:216,1,65,2|8,0:0|0:0,0:0:0:0:
224,72,27237,1,2,0:0:0:0:
356,72,27533,1,2,0:0:0:0:
212,72,27829,6,0,L|97:138,1,130,6|2,0:0|0:0,0:0:0:0:
99,137,28420,1,2,0:0:0:0:
216,200,28715,1,8,0:0:0:0:
340,204,29011,2,0,B|440:204|440:28|336:28|336:28|208:28,1,390,2|8,0:0|0:0,0:0:0:0:
136,28,30045,1,2,0:0:0:0:
64,28,30193,6,0,L|60:184,1,130,6|2,0:0|0:0,0:0:0:0:
200,192,30784,2,0,L|332:192,1,130,2|8,0:0|0:0,0:0:0:0:
188,192,31375,2,0,L|56:192,1,130,6|2,0:0|0:0,0:0:0:0:
200,192,31967,2,0,L|204:328,1,130,2|8,0:0|0:0,0:0:0:0:
72,324,32558,6,0,B|8:324|8:324|8:252,1,130,2|2,0:0|0:0,0:0:0:0:
72,256,33001,1,8,0:0:0:0:
264,192,33444,2,0,L|268:112,2,65,2|2|2,0:0|0:0|0:0,0:0:0:0:
132,28,34331,1,2,0:0:0:0:
264,28,34627,1,8,0:0:0:0:
120,224,34922,6,0,P|40:292|136:376,1,260,6|2,0:0|0:0,0:0:0:0:
256,376,35809,1,2,0:0:0:0:
128,376,36104,2,0,L|124:240,1,130,8|2,0:0|0:0,0:0:0:0:
240,192,36696,1,2,0:0:0:0:
356,192,36991,1,2,0:0:0:0:
224,192,37287,5,6,0:0:0:0:
336,64,37878,1,8,0:0:0:0:
208,64,38173,1,8,0:0:0:0:
352,64,38469,2,0,P|436:152|360:240,1,260,6|8,0:0|0:0,0:0:0:0:
288,240,39208,1,0,0:0:0:0:
360,240,39356,1,8,0:0:0:0:
488,240,39651,6,0,L|492:376,1,130,2|8,0:0|0:0,0:0:0:0:
376,372,40243,1,8,0:0:0:0:
244,192,40834,1,8,0:0:0:0:
388,192,41129,1,12,0:0:0:0:
260,192,41425,6,0,L|128:192,1,130,2|8,0:0|0:0,0:0:0:0:
248,192,42016,2,0,L|252:128,1,65,8|2,0:0|0:0,0:0:0:0:
368,192,42607,1,8,0:0:0:0:
224,192,42903,1,6,0:0:0:0:
356,192,43198,6,0,L|470:126,2,130,2|8|8,0:0|0:0|0:0,0:0:0:0:
188,192,44381,1,8,0:0:0:0:
332,192,44676,1,6,0:0:0:0:
188,192,44972,6,0,L|120:152,2,65,8|8|8,0:0|0:0|0:0,0:0:0:0:
320,192,45563,2,0,L|324:120,1,65,8|8,0:0|0:0,0:0:0:0:
176,40,46154,2,0,L|44:40,1,130,8|8,0:0|0:0,0:0:0:0:
46,40,46597,1,8,0:0:0:0:
176,40,47040,1,8,0:0:0:0:
308,40,47336,6,0,L|422:105,1,130,6|8,0:0|0:0,0:0:0:0:
304,140,47927,2,0,L|418:206,1,130,8|2,0:0|0:0,0:0:0:0:
288,208,48518,6,0,L|156:208,2,130,8|8|8,0:0|0:0|0:0,0:0:0:0:
288,208,49405,1,8,0:0:0:0:
158,208,49701,6,0,B|152:56,1,130,12|8,0:0|0:0,0:0:0:0:
300,208,50292,2,0,L|304:344,1,130,8|8,0:0|0:0,0:0:0:0:
160,340,50883,5,6,0:0:0:0:
288,340,51178,1,6,0:0:0:0:
144,340,51474,1,6,0:0:0:0:
144,340,51770,1,8,0:0:0:0:
216,340,51917,1,8,0:0:0:0:
288,340,52065,5,6,0:0:0:0:
420,340,52361,2,0,L|307:275,1,130,8|8,0:0|0:0,0:0:0:0:
176,276,52952,1,8,0:0:0:0:
320,276,53247,6,0,P|396:236|408:176,1,130,8|8,0:0|0:0,0:0:0:0:
384,140,53691,1,2,0:0:0:0:
319,115,53838,1,8,0:0:0:0:
319,115,54134,1,8,0:0:0:0:
188,116,54430,6,0,L|184:268,1,130,12|8,0:0|0:0,0:0:0:0:
314,245,55021,2,0,L|184:245,1,130,8|8,0:0|0:0,0:0:0:0:
52,244,55612,5,6,0:0:0:0:
136,244,55907,1,6,0:0:0:0:
220,244,56203,1,6,0:0:0:0:
220,244,56499,1,8,0:0:0:0:
153,243,56646,1,8,0:0:0:0:
88,243,56794,6,0,L|84:91,1,130,6|8,0:0|0:0,0:0:0:0:
216,191,57385,2,0,L|220:47,1,130,8|8,0:0|0:0,0:0:0:0:
360,127,57976,6,0,L|238:57,2,130,8|8|8,0:0|0:0|0:0,0:0:0:0:
360,127,58863,1,8,0:0:0:0:
492,127,59159,6,0,B|494:263,1,130,6|8,0:0|0:0,0:0:0:0:
364,255,59750,2,0,L|228:255,1,130,8|8,0:0|0:0,0:0:0:0:
376,343,60341,5,6,0:0:0:0:
248,343,60637,1,6,0:0:0:0:
392,343,60932,1,6,0:0:0:0:
392,343,61228,1,8,0:0:0:0:
320,343,61375,1,8,0:0:0:0:
248,343,61523,5,6,0:0:0:0:
116,343,61819,2,0,L|228:278,1,130,8|8,0:0|0:0,0:0:0:0:
360,279,62410,1,8,0:0:0:0:
228,278,62705,5,2,0:0:0:0:
372,279,63001,1,8,0:0:0:0:
428,246,63149,1,2,0:0:0:0:
484,214,63297,1,8,0:0:0:0:
484,214,63592,1,2,0:0:0:0:
352,211,63888,6,0,L|348:59,1,130,2|2,0:0|0:0,0:0:0:0:
478,82,64479,2,0,L|348:82,1,130,2|8,0:0|0:0,0:0:0:0:
216,83,65070,5,6,0:0:0:0:
144,84,65366,1,6,0:0:0:0:
72,84,65661,1,6,0:0:0:0:
216,83,65957,2,0,L|220:11,1,65,8|2,0:0|0:0,0:0:0:0:
140,192,66843,6,0,L|132:116,2,65,8|8|12,0:0|0:0|0:0,0:0:0:0:
284,192,67435,6,0,L|404:124,2,130,12|2|8,0:0|0:0|0:0,0:0:0:0:
168,192,68321,1,2,0:0:0:0:
296,192,68617,2,0,P|336:156|296:104,1,130,2|2,0:0|0:0,0:0:0:0:
232,104,69060,1,8,0:0:0:0:
168,104,69208,2,0,L|164:244,1,130,2|8,0:0|0:0,0:0:0:0:
292,244,69799,6,0,L|176:176,2,130,2|2|8,0:0|0:0|0:0,0:0:0:0:
408,244,70686,1,2,0:0:0:0:
276,244,70981,1,2,0:0:0:0:
148,244,71277,1,2,0:0:0:0:
292,244,71572,1,8,0:0:0:0:
164,244,71868,2,0,L|80:244,1,65,8|8,0:0|0:0,0:0:0:0:
32,244,72164,6,0,L|152:176,2,130,6|2|8,0:0|0:0|0:0,0:0:0:0:
148,244,73050,1,2,0:0:0:0:
276,244,73346,2,0,P|312:220|276:156,1,130,2|2,0:0|0:0,0:0:0:0:
220,156,73789,1,8,0:0:0:0:
160,156,73937,1,2,0:0:0:0:
292,156,74233,1,8,0:0:0:0:
148,156,74528,6,0,L|32:88,2,130,6|2|8,0:0|0:0|0:0,0:0:0:0:
264,156,75415,2,0,L|268:80,1,65,2|8,0:0|0:0,0:0:0:0:
196,92,75710,6,0,L|80:156,1,130,8|2,0:0|0:0,0:0:0:0:
82,154,76302,1,8,0:0:0:0:
224,156,76597,1,8,0:0:0:0:
356,156,76893,6,0,L|360:16,1,130,6|2,0:0|0:0,0:0:0:0:
228,268,77484,2,0,L|224:132,1,130,2|2,0:0|0:0,0:0:0:0:
92,136,78075,1,8,0:0:0:0:
224,138,78370,1,8,0:0:0:0:
351,140,78666,1,12,0:0:0:0:
351,140,78961,6,0,L|215:140,1,130,2|2,0:0|0:0,0:0:0:0:
352,332,79553,2,0,L|348:200,1,130,2|2,0:0|0:0,0:0:0:0:
476,192,80144,1,8,0:0:0:0:
332,204,80439,1,8,0:0:0:0:
464,192,80735,1,12,0:0:0:0:
464,192,81030,6,0,L|468:56,1,130,2|2,0:0|0:0,0:0:0:0:
336,64,81622,2,0,L|332:208,1,130,2|2,0:0|0:0,0:0:0:0:
204,192,82213,2,0,L|82:122,2,130,8|8|12,0:0|0:0|0:0,0:0:0:0:
204,192,83099,6,0,L|200:60,1,130,2|2,0:0|0:0,0:0:0:0:
68,308,83691,2,0,L|72:176,1,130,2|2,0:0|0:0,0:0:0:0:
204,180,84282,1,2,0:0:0:0:
256,180,84429,1,2,0:0:0:0:
308,180,84577,2,0,L|312:316,1,130,2|8,0:0|0:0,0:0:0:0:
168,192,85168,6,0,L|164:52,1,130,6|2,0:0|0:0,0:0:0:0:
296,304,85759,2,0,L|300:168,1,130,8|8,0:0|0:0,0:0:0:0:
444,176,86351,2,0,L|322:105,2,130,2|8|12,0:0|0:0|0:0,0:0:0:0:
444,176,87237,6,0,L|308:176,1,130,8|8,0:0|0:0,0:0:0:0:
184,316,87828,2,0,L|180:184,1,130,8|8,0:0|0:0,0:0:0:0:
308,176,88420,1,8,0:0:0:0:
164,188,88715,1,8,0:0:0:0:
296,176,89011,1,12,0:0:0:0:
296,176,89306,6,0,L|300:32,1,130,8|8,0:0|0:0,0:0:0:0:
168,48,89897,2,0,L|164:192,1,130,8|8,0:0|0:0,0:0:0:0:
24,192,90489,2,0,L|145:122,2,130,8|8|12,0:0|0:0|0:0,0:0:0:0:
24,192,91375,6,0,L|20:56,1,130,8|8,0:0|0:0,0:0:0:0:
152,268,91966,2,0,L|156:132,1,130,8|8,0:0|0:0,0:0:0:0:
288,136,92558,1,8,0:0:0:0:
160,136,92853,1,8,0:0:0:0:
28,136,93149,1,6,0:0:0:0:
256,192,93444,12,0,94331,0:0:0:0:
300,192,95513,5,2,0:0:0:0:
184,192,95809,2,0,L|180:120,1,65,10|4,0:0|0:0,0:0:0:0:
300,40,96252,1,8,0:0:0:0:
252,40,96400,1,2,0:0:0:0:
124,40,96695,6,0,L|120:184,1,130,2|2,0:0|0:0,0:0:0:0:
236,220,97286,1,2,0:0:0:0:
96,192,97730,2,0,L|300:192,1,195,2|0,0:0|0:0,0:0:0:0:
420,192,98469,6,0,L|424:328,1,130,6|2,0:0|0:0,0:0:0:0:
308,320,99060,2,0,L|193:254,1,130,2|2,0:0|0:0,0:0:0:0:
308,320,99651,2,0,L|312:188,1,130,8|2,0:0|0:0,0:0:0:0:
180,192,100242,6,0,L|48:192,2,130,6|2|2,0:0|0:0|0:0,0:0:0:0:
336,192,101277,1,2,0:0:0:0:
264,192,101424,2,0,L|260:56,1,130,2|2,0:0|0:0,0:0:0:0:
392,64,102015,5,6,0:0:0:0:
276,64,102311,1,8,0:0:0:0:
160,64,102607,1,2,0:0:0:0:
336,64,103050,2,0,P|396:120|336:192,1,195,0|8,0:0|0:0,0:0:0:0:
216,192,103789,6,0,L|212:328,1,130,6|8,0:0|0:0,0:0:0:0:
334,277,104380,2,0,L|211:321,1,130,2|8,0:0|0:0,0:0:0:0:
96,324,104971,1,2,0:0:0:0:
168,324,105119,2,0,L|172:248,1,65,12|12,0:0|0:0,0:0:0:0:
44,192,105562,6,0,P|30:125|40:56,1,130,2|8,0:0|0:0,0:0:0:0:
104,40,106006,1,2,0:0:0:0:
260,40,106449,1,8,0:0:0:0:
372,105,106745,2,0,L|254:37,1,130,2|8,0:0|0:0,0:0:0:0:
391,40,107336,6,0,L|459:80,2,65,8|8|8,0:0|0:0|0:0,0:0:0:0:
259,40,107928,2,0,L|255:112,1,65,8|8,0:0|0:0,0:0:0:0:
403,192,108519,2,0,P|431:248|403:304,1,130,8|8,0:0|0:0,0:0:0:0:
343,308,108962,1,8,0:0:0:0:
211,308,109701,5,4,0:0:0:0:
360,192,113248,5,6,0:0:0:0:
192,192,113839,1,6,0:0:0:0:
412,192,114430,6,0,P|428:128|416:44,1,130,6|0,0:0|0:0,0:0:0:0:
304,64,115021,2,0,L|188:0,2,130,8|2|2,0:0|0:0|0:0,0:0:0:0:
96,64,116203,2,0,L|92:212,1,130,12|2,0:0|0:0,0:0:0:0:
212,196,116795,6,0,L|326:262,1,130,2|0,0:0|0:0,0:0:0:0:
196,196,117386,2,0,L|192:336,1,130,12|2,0:0|0:0,0:0:0:0:
336,328,117977,5,8,0:0:0:0:
208,328,118272,1,2,0:0:0:0:
352,328,118568,1,8,0:0:0:0:
352,328,118864,1,8,0:0:0:0:
280,328,119011,1,0,0:0:0:0:
208,328,119159,5,6,0:0:0:0:
256,192,120341,12,8,120933,0:0:0:0:
144,192,121524,6,0,L|280:192,1,130,6|0,0:0|0:0,0:0:0:0:
149,62,122115,2,0,L|143:216,1,130,8|2,0:0|0:0,0:0:0:0:
288,60,122706,5,6,0:0:0:0:
160,60,123002,1,6,0:0:0:0:
304,60,123297,1,6,0:0:0:0:
304,60,123593,1,8,0:0:0:0:
232,60,123740,1,8,0:0:0:0:
160,60,123888,5,6,0:0:0:0:
28,60,124184,2,0,L|24:192,1,130,8|8,0:0|0:0,0:0:0:0:
156,192,124775,1,8,0:0:0:0:
300,192,125070,6,0,P|376:232|388:292,1,130,8|8,0:0|0:0,0:0:0:0:
364,328,125514,1,2,0:0:0:0:
299,353,125662,1,8,0:0:0:0:
299,353,125957,1,8,0:0:0:0:
428,352,126253,6,0,L|432:200,1,130,6|8,0:0|0:0,0:0:0:0:
300,220,126844,2,0,L|172:192,1,130,8|8,0:0|0:0,0:0:0:0:
316,104,127435,5,6,0:0:0:0:
400,104,127731,1,6,0:0:0:0:
484,104,128026,1,6,0:0:0:0:
484,104,128322,1,8,0:0:0:0:
417,105,128470,1,8,0:0:0:0:
352,105,128617,6,0,L|348:257,1,130,6|8,0:0|0:0,0:0:0:0:
216,157,129208,2,0,L|212:301,1,130,8|8,0:0|0:0,0:0:0:0:
72,221,129800,6,0,L|194:291,2,130,8|8|8,0:0|0:0|0:0,0:0:0:0:
72,221,130686,1,8,0:0:0:0:
204,93,130982,6,0,B|208:225,1,130,6|8,0:0|0:0,0:0:0:0:
340,225,131573,2,0,L|476:225,1,130,8|8,0:0|0:0,0:0:0:0:
340,312,132164,5,6,0:0:0:0:
468,312,132460,1,6,0:0:0:0:
324,312,132755,1,6,0:0:0:0:
324,312,133051,1,8,0:0:0:0:
396,312,133199,1,8,0:0:0:0:
468,312,133346,5,6,0:0:0:0:
336,312,133642,2,0,L|448:247,1,130,2|2,0:0|0:0,0:0:0:0:
320,312,134233,1,2,0:0:0:0:
188,311,134529,5,2,0:0:0:0:
332,312,134824,2,0,L|390:278,2,65,2|8|2,0:0|0:0|0:0,0:0:0:0:
216,316,135415,1,2,0:0:0:0:
348,313,135711,6,0,L|352:161,1,130,2|2,0:0|0:0,0:0:0:0:
222,184,136302,2,0,L|92:184,1,130,2|8,0:0|0:0,0:0:0:0:
224,185,136893,5,6,0:0:0:0:
224,185,137189,1,6,0:0:0:0:
224,185,137484,1,6,0:0:0:0:
92,188,137780,2,0,L|88:116,1,65,8|2,0:0|0:0,0:0:0:0:
280,296,138667,6,0,L|288:220,2,65,8|8|8,0:0|0:0|0:0,0:0:0:0:
84,192,139849,1,8,0:0:0:0:
148,192,139997,1,8,0:0:0:0:
212,192,140144,1,8,0:0:0:0:
212,192,140440,6,0,L|332:124,2,130,6|8|2,0:0|0:0|0:0,0:0:0:0:
96,192,141327,1,8,0:0:0:0:
224,192,141622,6,0,P|264:156|224:104,1,130,2|8,0:0|0:0,0:0:0:0:
160,104,142066,1,2,0:0:0:0:
96,104,142213,2,0,L|92:244,1,130,2|8,0:0|0:0,0:0:0:0:
224,236,142804,6,0,L|340:168,2,130,6|8|2,0:0|0:0|0:0,0:0:0:0:
108,236,143691,1,8,0:0:0:0:
240,236,143987,5,2,0:0:0:0:
368,236,144282,1,10,0:0:0:0:
224,236,144578,1,10,0:0:0:0:
352,236,144873,2,0,L|436:236,1,65,8|0,0:0|0:0,0:0:0:0:
352,236,145169,6,0,L|232:168,2,130,6|8|2,0:0|0:0|0:0,0:0:0:0:
484,232,146056,1,8,0:0:0:0:
356,232,146351,6,0,P|320:208|356:144,1,130,2|8,0:0|0:0,0:0:0:0:
412,144,146795,1,2,0:0:0:0:
472,144,146942,1,2,0:0:0:0:
340,144,147238,1,8,0:0:0:0:
208,144,147534,6,0,L|90:76,2,130,6|8|2,0:0|0:0|0:0,0:0:0:0:
208,144,148420,1,8,0:0:0:0:
64,192,148716,6,0,L|181:257,2,130,6|2|2,0:0|0:0|0:0,0:0:0:0:
64,192,149603,1,8,0:0:0:0:
192,192,149898,6,0,L|196:56,1,130,2|2,0:0|0:0,0:0:0:0:
260,60,150341,1,8,0:0:0:0:
324,60,150489,1,2,0:0:0:0:
180,60,150785,1,8,0:0:0:0:
180,60,151080,6,0,L|312:60,2,130,2|2|2,0:0|0:0|0:0,0:0:0:0:
180,60,151967,1,8,0:0:0:0:
324,60,152263,6,0,L|328:128,2,65,2|12|2,0:0|0:0|0:0,0:0:0:0:
192,192,152854,1,8,0:0:0:0:
256,192,153002,1,2,0:0:0:0:
320,192,153149,1,8,0:0:0:0:
320,192,153445,6,0,L|184:192,2,130,6|2|2,0:0|0:0|0:0,0:0:0:0:
320,192,154332,1,8,0:0:0:0:
448,192,154627,2,0,P|464:280|448:320,1,130,2|2,0:0|0:0,0:0:0:0:
384,316,155070,1,8,0:0:0:0:
320,316,155218,1,8,0:0:0:0:
464,316,155514,1,8,0:0:0:0:
464,316,155809,6,0,L|320:316,2,130,6|2|2,0:0|0:0|0:0,0:0:0:0:
332,312,156696,2,0,L|260:312,1,65,2|8,0:0|0:0,0:0:0:0:
200,312,156992,5,6,0:0:0:0:
328,192,157287,1,6,0:0:0:0:
208,192,157583,1,6,0:0:0:0:
344,192,157878,1,6,0:0:0:0:
188,192,158174,5,6,0:0:0:0:
256,192,158470,12,8,159800,0:0:0:0:
