osu file format v14

[General]
AudioFilename: audio.mp3
AudioLeadIn: 0
PreviewTime: 48410
Countdown: 0
SampleSet: Soft
StackLeniency: 0.5
Mode: 0
LetterboxInBreaks: 0
WidescreenStoryboard: 1

[Editor]
Bookmarks: 6733,12808,24960,37112,43188,46226,49264,61416,67682,73568,85720,97872,103378,106986,110024,122175,128441,134327,140403,146479,149517,153315,158631,170783,182935,195087,201163,207239,213315,219391,229264,230024,231543,243694
DistanceSpacing: 0.85
BeatDivisor: 4
GridSize: 32
TimelineZoom: 2.3

[Metadata]
Title:ito
TitleUnicode:絃-ito-
Artist:Emiru no Aishita Tsukiyo ni Dai San Gensou Kyoku wo
ArtistUnicode:エミルの愛した月夜に第III幻想曲を
Creator:Lasse
Version:Petal
Source:
Tags:japanese metal rock doujin Emille's Moonlight Serenade サラ Sara 荊 いばら Ibara
BeatmapID:2255709
BeatmapSetID:1077982

[Difficulty]
HPDrainRate:5
CircleSize:4
OverallDifficulty:9
ApproachRate:9.6
SliderMultiplier:3.2
SliderTickRate:1

[Events]
//Background and Video events
0,0,"bgfixed.jpg",0,0
//Break Periods
//Storyboard Layer 0 (Background)
//Storyboard Layer 1 (Fail)
//Storyboard Layer 2 (Pass)
//Storyboard Layer 3 (Foreground)
//Storyboard Layer 4 (Overlay)
//Storyboard Sound Samples

[TimingPoints]
657,379.746835443038,4,2,4,70,1,0
6732,-1000,4,2,4,70,0,0
7302,-1000,4,2,4,55,0,0
7492,-1000,4,2,4,5,0,0
8062,-1000,4,2,4,40,0,0
8251,-1000,4,2,4,70,0,0
8821,-1000,4,2,4,55,0,0
9011,-1000,4,2,4,5,0,0
9581,-1000,4,2,4,40,0,0
9770,-1000,4,2,4,70,0,0
10340,-1000,4,2,4,55,0,0
10530,-1000,4,2,4,5,0,0
11100,-1000,4,2,4,40,0,0
11289,-1000,4,2,2,60,0,0
11479,-1000,4,2,2,58,0,0
11574,-1000,4,2,2,60,0,0
11764,-1000,4,2,2,58,0,0
11859,-1000,4,2,2,60,0,0
12049,-1000,4,2,2,62,0,0
12144,-1000,4,2,2,64,0,0
12239,-1000,4,2,2,66,0,0
12334,-1000,4,2,2,68,0,0
12429,-1000,4,2,2,70,0,0
12808,-90.9090909090909,4,2,4,75,0,0
22492,-142.857142857143,4,2,4,75,0,0
22587,-142.857142857143,4,2,4,68,0,0
22682,-90.9090909090909,4,2,4,70,0,0
22872,-90.9090909090909,4,2,4,66,0,0
23441,-90.9090909090909,4,2,4,68,0,0
24011,-90.9090909090909,4,2,4,70,0,0
24581,-90.9090909090909,4,2,4,72,0,0
24960,-111.111111111111,4,2,4,70,0,0
26479,-111.111111111111,4,2,4,50,0,0
27998,-111.111111111111,4,2,4,70,0,0
29422,-111.111111111111,4,2,4,60,0,0
29517,-111.111111111111,4,2,4,50,0,0
31036,-111.111111111111,4,2,4,70,0,0
32460,-111.111111111111,4,2,4,60,0,0
32555,-111.111111111111,4,2,4,50,0,0
34074,-111.111111111111,4,2,4,70,0,0
36353,-111.111111111111,4,2,4,69,0,0
36448,-111.111111111111,4,2,4,68,0,0
36543,-111.111111111111,4,2,4,67,0,0
36638,-111.111111111111,4,2,4,66,0,0
36732,-111.111111111111,4,2,4,65,0,0
36827,-111.111111111111,4,2,4,64,0,0
36922,-111.111111111111,4,2,4,63,0,0
37017,-111.111111111111,4,2,4,62,0,0
37112,-111.111111111111,4,2,4,60,0,0
37492,-200,4,2,4,55,0,0
42619,-200,4,2,5,57,0,0
42808,-200,4,2,5,54,0,0
42998,-200,4,2,5,56,0,0
43188,-250,4,2,4,48,0,0
46226,-83.3333333333333,4,2,4,68,0,0
46511,-83.3333333333333,4,2,43,5,0,0
46606,-76.9230769230769,4,2,4,70,0,0
46891,-76.9230769230769,4,2,43,5,0,0
46986,-71.4285714285714,4,2,4,72,0,0
47270,-71.4285714285714,4,2,43,5,0,0
47365,-66.6666666666667,4,2,4,74,0,0
47650,-66.6666666666667,4,2,43,5,0,0
47745,-66.6666666666667,4,2,2,70,0,0
48505,-66.6666666666667,4,2,2,60,0,0
48694,-66.6666666666667,4,2,2,62,0,0
48979,-66.6666666666667,4,2,2,64,0,0
49264,-83.3333333333333,4,2,4,80,0,1
54581,-100,4,2,4,80,0,1
55340,-83.3333333333333,4,2,4,80,0,1
59517,-83.3333333333333,4,2,4,75,0,1
59897,-83.3333333333333,4,2,4,80,0,1
61321,-83.3333333333333,4,2,4,80,0,0
61416,-83.3333333333333,4,2,4,80,0,1
67112,-83.3333333333333,4,2,2,75,0,0
67302,-200,4,2,2,70,0,0
67492,-200,4,2,2,60,0,0
67682,-83.3333333333333,4,2,4,80,0,1
72619,-83.3333333333333,4,2,4,78,0,1
72713,-83.3333333333333,4,2,4,76,0,1
72808,-83.3333333333333,4,2,4,76,0,0
73188,-66.6666666666667,4,2,5,74,0,0
73473,-66.6666666666667,4,2,4,50,0,0
73568,-90.9090909090909,4,2,4,75,0,0
83251,-142.857142857143,4,2,4,75,0,0
83346,-142.857142857143,4,2,4,68,0,0
83441,-90.9090909090909,4,2,4,70,0,0
83631,-90.9090909090909,4,2,4,66,0,0
84201,-90.9090909090909,4,2,4,68,0,0
84770,-90.9090909090909,4,2,4,70,0,0
85340,-90.9090909090909,4,2,4,68,0,0
85435,-90.9090909090909,4,2,4,66,0,0
85530,-90.9090909090909,4,2,4,64,0,0
85625,-90.9090909090909,4,2,4,62,0,0
85720,-333.333333333333,4,2,2,60,0,0
86289,-333.333333333333,4,2,2,45,0,0
94834,-400,4,2,43,38,0,0
94929,-400,4,2,43,10,0,0
96353,-400,4,2,43,30,0,0
97049,-200,4,2,43,44,0,0
97112,-200,4,2,43,40,0,0
97175,-200,4,2,43,36,0,0
97872,-200,4,2,4,55,0,0
103378,-200,4,2,5,57,0,0
103568,-200,4,2,5,54,0,0
103758,-200,4,2,5,58,0,0
103948,-250,4,2,4,48,0,0
106986,-83.3333333333333,4,2,4,68,0,0
107270,-83.3333333333333,4,2,43,5,0,0
107365,-76.9230769230769,4,2,4,70,0,0
107650,-76.9230769230769,4,2,43,5,0,0
107745,-71.4285714285714,4,2,4,72,0,0
108030,-71.4285714285714,4,2,43,5,0,0
108125,-66.6666666666667,4,2,4,74,0,0
108410,-66.6666666666667,4,2,43,5,0,0
108505,-66.6666666666667,4,2,2,70,0,0
109264,-66.6666666666667,4,2,2,60,0,0
109454,-66.6666666666667,4,2,2,62,0,0
109739,-66.6666666666667,4,2,2,64,0,0
110024,-83.3333333333333,4,2,4,80,0,1
115340,-100,4,2,4,80,0,1
116100,-83.3333333333333,4,2,4,80,0,1
120277,-83.3333333333333,4,2,4,75,0,1
120657,-83.3333333333333,4,2,4,80,0,1
122081,-83.3333333333333,4,2,4,80,0,0
122175,-83.3333333333333,4,2,4,80,0,1
127872,-83.3333333333333,4,2,2,75,0,0
128062,-200,4,2,2,70,0,0
128251,-200,4,2,2,60,0,0
128441,-83.3333333333333,4,2,4,80,0,1
133378,-83.3333333333333,4,2,4,78,0,1
133473,-83.3333333333333,4,2,4,76,0,1
133948,-66.6666666666667,4,2,5,74,0,0
134233,-66.6666666666667,4,2,4,50,0,0
134327,-76.9230769230769,4,2,4,80,0,1
140403,-105.263157894737,4,2,4,80,0,1
141163,-98.0392156862745,4,2,4,80,0,1
141922,-94.3396226415094,4,2,4,80,0,1
142682,-90.9090909090909,4,2,4,80,0,1
143062,-86.2068965517241,4,2,4,80,0,1
143441,-71.4285714285714,4,2,4,80,0,1
144581,-71.4285714285714,4,2,4,76,0,1
144960,-71.4285714285714,4,2,4,78,0,1
145530,-71.4285714285714,4,2,4,80,0,1
146100,-71.4285714285714,4,2,4,82,0,1
146194,-71.4285714285714,4,2,4,80,0,1
146289,-71.4285714285714,4,2,4,78,0,1
146384,-71.4285714285714,4,2,4,76,0,1
146479,-111.111111111111,4,2,4,74,0,0
146859,-106.382978723404,4,2,4,74,0,0
149517,-111.111111111111,4,2,4,74,0,0
149897,-106.382978723404,4,2,4,74,0,0
152555,-111.111111111111,4,2,4,74,0,0
152935,-106.382978723404,4,2,4,74,0,0
155593,-111.111111111111,4,2,4,74,0,0
155973,-106.382978723404,4,2,4,74,0,0
157112,-83.3333333333333,4,2,4,75,0,0
157207,-83.3333333333333,4,2,4,74,0,0
157302,-76.9230769230769,4,2,4,76,0,0
157397,-76.9230769230769,4,2,4,74,0,0
157492,-71.4285714285714,4,2,4,77,0,0
157587,-71.4285714285714,4,2,4,74,0,0
157682,-66.6666666666667,4,2,4,78,0,0
157777,-66.6666666666667,4,2,4,74,0,0
157872,-62.5,4,2,4,80,0,0
157967,-62.5,4,2,4,74,0,0
158631,-227.272727272727,4,2,4,52,0,0
161289,-227.272727272727,4,2,4,50,0,0
161669,-208.333333333333,4,2,5,54,0,0
162049,-208.333333333333,4,2,4,54,0,0
164327,-208.333333333333,4,2,4,50,0,0
164707,-196.078431372549,4,2,5,56,0,0
165087,-196.078431372549,4,2,4,56,0,0
167365,-196.078431372549,4,2,4,52,0,0
167745,-83.3333333333333,4,2,4,68,0,0
168030,-83.3333333333333,4,2,43,5,0,0
168125,-76.9230769230769,4,2,4,70,0,0
168410,-76.9230769230769,4,2,43,5,0,0
168505,-71.4285714285714,4,2,4,72,0,0
168789,-71.4285714285714,4,2,43,5,0,0
168884,-66.6666666666667,4,2,4,74,0,0
169169,-66.6666666666667,4,2,43,5,0,0
169264,-66.6666666666667,4,2,2,70,0,0
170024,-66.6666666666667,4,2,2,60,0,0
170213,-66.6666666666667,4,2,2,62,0,0
170498,-66.6666666666667,4,2,2,64,0,0
170783,-76.9230769230769,4,2,4,80,0,1
176100,-100,4,2,4,80,0,1
176859,-76.9230769230769,4,2,4,80,0,1
181036,-76.9230769230769,4,2,4,75,0,1
181416,-76.9230769230769,4,2,4,80,0,1
182840,-76.9230769230769,4,2,4,80,0,0
182935,-76.9230769230769,4,2,4,80,0,1
188631,-76.9230769230769,4,2,2,75,0,0
188821,-200,4,2,2,70,0,0
189011,-200,4,2,2,60,0,0
189201,-76.9230769230769,4,2,4,80,0,1
194138,-76.9230769230769,4,2,4,78,0,1
194232,-76.9230769230769,4,2,4,76,0,1
194707,-142.857142857143,4,2,5,64,0,0
194992,-142.857142857143,4,2,5,50,0,0
195087,-125,4,2,4,72,0,0
200641,-125,4,2,43,10,0,0
200783,-125,4,2,4,72,0,0
200831,-125,4,2,43,10,0,0
200973,-125,4,2,4,72,0,0
201020,-125,4,2,43,10,0,0
201163,-125,4,2,4,72,0,0
202160,-125,4,2,43,10,0,0
202302,-125,4,2,4,72,0,0
202350,-125,4,2,43,10,0,0
202492,-125,4,2,4,72,0,0
202539,-125,4,2,43,10,0,0
202682,-125,4,2,4,72,0,0
202729,-125,4,2,43,10,0,0
202872,-125,4,2,4,72,0,0
203631,-125,4,2,4,68,0,0
203821,-125,4,2,4,70,0,0
204011,-125,4,2,4,72,0,0
207239,-111.111111111111,4,2,4,74,0,0
213315,-100,4,2,4,74,0,0
216732,-100,4,2,4,76,0,0
217112,-100,4,2,4,78,0,0
217492,-90.9090909090909,4,2,4,80,0,0
217682,-90.9090909090909,4,2,4,70,0,0
219391,-90.9090909090909,4,2,4,75,0,0
228694,-142.857142857143,4,2,4,75,0,0
229169,-142.857142857143,4,2,4,68,0,0
229264,-90.9090909090909,4,2,4,70,0,0
229454,-90.9090909090909,4,2,4,66,0,0
230024,-83.3333333333333,4,2,4,74,0,0
230403,-76.9230769230769,4,2,4,76,0,0
230783,-71.4285714285714,4,2,4,78,0,0
231163,-66.6666666666667,4,2,4,80,0,0
231543,-83.3333333333333,4,2,4,78,0,0
240467,-76.9230769230769,4,2,4,78,0,0
240657,-76.9230769230769,4,2,4,78,0,0
241226,-142.857142857143,4,2,4,78,0,0
241321,-142.857142857143,4,2,4,68,0,0
241416,-76.9230769230769,4,2,4,78,0,0
241511,-76.9230769230769,4,2,4,76,0,0
241606,-76.9230769230769,4,2,4,74,0,0
241701,-76.9230769230769,4,2,4,72,0,0
241796,-76.9230769230769,4,2,4,70,0,0
242175,-76.9230769230769,4,2,4,74,0,0
242745,-76.9230769230769,4,2,4,77,0,0
243315,-66.6666666666667,4,2,4,80,0,0
243410,-66.6666666666667,4,2,4,70,0,0
243505,-66.6666666666667,4,2,4,80,0,0
243600,-66.6666666666667,4,2,4,70,0,0

[Colours]
Combo1 : 255,120,195
Combo2 : 190,180,230
Combo3 : 215,220,255
Combo4 : 140,220,255
Combo5 : 255,120,245
Combo6 : 245,175,255
Combo7 : 250,210,255
Combo8 : 120,180,255

[HitObjects]
177,46,6732,53,6,3:1:0:0:
244,275,6922,1,6,3:1:0:0:
364,162,7302,22,0,L|301:153,1,64,2|0,0:0|0:0,0:0:0:0:
184,31,8251,69,4,3:1:0:0:
143,335,8441,1,4,3:1:0:0:
27,185,8821,102,0,L|92:178,1,64,2|0,0:0|0:0,0:0:0:0:
197,16,9770,21,4,3:1:0:0:
285,363,9960,1,4,3:1:0:0:
430,215,10340,22,0,L|367:206,1,64,2|0,0:0|0:0,0:0:0:0:
234,254,11289,37,12,0:0:0:0:
354,90,11479,53,8,0:3:0:0:
384,99,11574,1,8,0:0:0:0:
233,14,11764,53,8,0:3:0:0:
193,16,11859,1,8,0:0:0:0:
411,105,12049,53,0,1:0:0:0:
450,80,12144,53,0,1:0:0:0:
502,111,12239,53,0,1:0:0:0:
464,184,12334,53,0,1:0:0:0:
512,258,12429,53,8,1:3:0:0:
81,358,12808,22,0,P|76:321|69:270,1,88.000002685547,6|0,3:2|0:0,0:0:0:0:
252,384,12998,2,0,P|257:340|263:296,1,88.000002685547,10|0,0:0|0:0,0:0:0:0:
175,148,13188,53,2,3:0:0:0:
119,198,13283,1,0,3:0:0:0:
44,189,13378,1,8,0:0:0:0:
4,125,13473,1,0,0:0:0:0:
47,48,13568,53,2,3:0:0:0:
120,81,13663,1,0,0:0:0:0:
193,115,13758,1,8,0:0:0:0:
268,145,13853,1,0,3:0:0:0:
355,105,13948,53,2,0:0:0:0:
283,140,14043,1,0,3:0:0:0:
318,211,14138,1,8,0:0:0:0:
390,176,14232,1,0,0:0:0:0:
347,89,14327,53,6,3:3:0:0:
370,16,14422,1,0,0:0:0:0:
446,17,14517,1,8,0:0:0:0:
468,88,14612,1,0,0:0:0:0:
406,136,14707,53,2,3:0:0:0:
332,105,14802,1,0,3:0:0:0:
252,107,14897,1,8,0:0:0:0:
177,79,14992,1,0,0:0:0:0:
89,104,15087,53,2,3:0:0:0:
114,32,15182,1,0,0:0:0:0:
163,89,15277,1,8,0:0:0:0:
138,161,15372,1,0,3:0:0:0:
211,216,15467,53,2,0:0:0:0:
294,206,15562,1,0,3:0:0:0:
347,270,15657,1,8,0:0:0:0:
428,253,15751,1,0,0:0:0:0:
479,326,15846,54,0,B|484:353|507:359|507:359|510:330|496:318,1,88.000002685547,6|0,3:1|0:0,0:0:0:0:
351,91,16036,2,0,B|356:64|379:58|379:58|382:87|369:97,1,88.000002685547,10|0,0:0|0:0,0:0:0:0:
110,244,16226,53,2,3:0:0:0:
54,193,16321,1,0,3:0:0:0:
70,119,16416,1,8,0:0:0:0:
142,95,16511,1,0,0:0:0:0:
195,189,16606,53,2,3:0:0:0:
271,175,16701,1,0,0:0:0:0:
298,101,16796,1,8,0:0:0:0:
248,39,16891,1,0,3:0:0:0:
142,95,16986,53,2,0:0:0:0:
91,32,17081,1,0,3:0:0:0:
171,18,17175,1,8,0:0:0:0:
400,278,17365,21,6,0:3:0:0:
512,228,17492,1,0,0:0:0:0:
485,106,17619,1,0,0:0:0:0:
387,256,17745,53,2,3:0:0:0:
496,238,17872,1,0,0:0:0:0:
500,125,17998,1,0,0:0:0:0:
375,234,18125,53,2,3:0:0:0:
477,244,18251,1,0,0:0:0:0:
508,145,18378,1,0,0:0:0:0:
370,213,18505,53,2,0:0:0:0:
457,246,18631,1,0,0:0:0:0:
509,164,18758,1,0,0:0:0:0:
364,66,18884,86,0,L|467:47,1,88.000002685547,6|0,3:2|0:0,0:0:0:0:
227,32,19074,2,0,L|124:13,1,88.000002685547,8|0,0:0|0:0,0:0:0:0:
258,146,19264,2,0,P|244:192|246:249,1,88.000002685547,0|0,3:0|0:0,0:0:0:0:
28,345,19454,53,10,0:0:0:0:
85,281,19549,1,0,0:0:0:0:
120,376,19644,2,0,P|118:332|105:290,1,88.000002685547,2|0,3:0|0:0,0:0:0:0:
256,246,19834,2,0,P|258:202|271:160,1,88.000002685547,10|0,0:0|3:0,0:0:0:0:
227,32,20024,2,0,L|124:13,1,88.000002685547,2|0,0:0|3:0,0:0:0:0:
364,66,20213,2,0,L|467:47,1,88.000002685547,10|0,0:0|0:0,0:0:0:0:
360,158,20403,54,0,P|435:155|465:255,1,176.000005371094,6|8,0:1|0:0,0:0:0:0:
219,384,20783,1,2,3:0:0:0:
172,309,20878,1,0,3:0:0:0:
237,249,20973,2,0,B|254:210|254:210|239:166,1,88.000002685547,8|0,0:0|0:0,0:0:0:0:
111,52,21163,54,0,P|28:53|0:131,1,176.000005371094,2|8,3:3|0:0,0:0:0:0:
126,238,21448,1,0,3:0:0:0:
126,238,21543,2,0,B|117:197|117:197|140:156,1,88.000002685547,2|0,0:0|3:0,0:0:0:0:
275,33,21732,85,10,0:0:0:0:
335,96,21827,1,0,0:0:0:0:
388,26,21922,2,0,L|301:11,1,88.000002685547,6|0,3:1|0:0,0:0:0:0:
376,182,22112,53,10,0:0:0:0:
421,209,22207,1,0,0:0:0:0:
462,195,22302,1,0,3:0:0:0:
475,162,22397,1,0,3:0:0:0:
467,136,22492,2,0,P|467:111|490:72,1,55.9999982910157,10|0,0:0|0:0,0:0:0:0:
368,269,22682,54,0,B|262:249|300:308|189:281,1,176.000005371094,6|8,3:3|0:0,0:0:0:0:
14,111,23062,5,0,3:0:0:0:
39,105,23157,1,0,3:0:0:0:
64,100,23251,1,0,3:0:0:0:
90,96,23346,1,0,3:0:0:0:
154,133,23441,85,14,3:1:0:0:
89,170,23536,1,0,3:0:0:0:
24,133,23631,1,0,3:0:0:0:
24,58,23726,1,0,3:0:0:0:
90,20,23821,1,0,3:0:0:0:
154,58,23916,1,0,3:0:0:0:
176,135,24011,53,14,3:1:0:0:
253,155,24106,1,0,3:0:0:0:
308,98,24201,1,0,3:0:0:0:
287,22,24296,1,0,3:0:0:0:
209,2,24391,1,0,3:0:0:0:
154,58,24486,1,0,3:0:0:0:
162,141,24581,21,14,1:1:0:0:
91,182,24675,37,0,1:0:0:0:
28,141,24770,69,0,1:0:0:0:
28,103,24865,37,0,1:0:0:0:
48,71,24960,86,0,L|139:60,1,71.9999978027344,6|0,3:1|0:0,0:0:0:0:
243,171,25150,2,0,L|152:160,1,71.9999978027344,8|0,0:0|0:0,0:0:0:0:
333,82,25340,1,2,3:0:0:0:
362,16,25435,1,0,3:0:0:0:
434,17,25530,2,0,P|479:40|485:141,1,143.999995605469,10|0,0:0|3:0,0:0:0:0:
354,343,25910,53,10,0:0:0:0:
305,286,26005,1,0,3:0:0:0:
343,224,26100,1,0,3:0:0:0:
414,241,26194,1,0,3:0:0:0:
418,313,26289,1,8,0:0:0:0:
231,376,26479,101,2,0:0:0:0:
229,358,26574,1,0,0:0:0:0:
227,340,26669,1,0,0:0:0:0:
225,322,26764,1,0,0:0:0:0:
223,304,26859,1,0,0:0:0:0:
60,359,27049,53,2,0:0:0:0:
58,342,27144,1,0,0:0:0:0:
143,370,27334,53,0,0:0:0:0:
141,352,27429,1,0,0:0:0:0:
139,334,27524,1,0,0:0:0:0:
137,316,27619,1,2,0:0:0:0:
0,151,27998,70,0,L|76:140,1,71.9999978027344,6|0,3:1|0:0,0:0:0:0:
290,59,28188,1,10,0:0:0:0:
236,107,28283,1,0,0:0:0:0:
174,69,28378,2,0,P|171:29|152:-23,1,71.9999978027344,2|2,3:0|3:0,0:0:0:0:
350,114,28568,2,0,P|352:149|361:184,1,71.9999978027344,10|0,0:0|0:0,0:0:0:0:
203,308,28758,54,0,L|116:295,1,71.9999978027344,2|0,3:0|0:0,0:0:0:0:
338,376,28948,2,0,L|425:363,1,71.9999978027344,10|0,0:0|3:0,0:0:0:0:
209,291,29138,2,0,P|206:251|193:217,1,71.9999978027344,2|0,2:0|3:0,0:0:0:0:
361,184,29327,2,0,P|364:144|377:110,1,71.9999978027344,10|0,0:0|0:0,0:0:0:0:
239,8,29517,101,2,0:0:0:0:
224,50,29707,1,0,0:0:0:0:
188,78,29897,1,0,0:0:0:0:
113,56,30087,53,2,0:0:0:0:
179,92,30277,1,0,0:0:0:0:
114,131,30467,1,0,0:0:0:0:
172,182,30657,53,2,0:0:0:0:
165,200,30846,1,0,0:0:0:0:
83,321,31036,70,0,L|11:332,1,71.9999978027345,6|0,3:1|0:0,0:0:0:0:
264,379,31226,1,10,0:0:0:0:
224,319,31321,1,0,0:0:0:0:
272,266,31416,2,0,B|283:234|283:234|265:165,1,71.9999978027344,2|0,3:0|3:0,0:0:0:0:
186,98,31606,2,0,L|19:77,1,143.999995605469,10|0,0:0|3:0,0:0:0:0:
329,27,31986,53,10,0:0:0:0:
365,88,32081,1,0,3:0:0:0:
433,69,32175,2,0,P|438:26|450:-10,1,71.9999978027344,2|0,0:0|3:0,0:0:0:0:
512,153,32365,2,0,P|508:188|498:223,1,71.9999978027344,10|0,0:0|0:0,0:0:0:0:
381,349,32555,101,2,0:0:0:0:
330,288,32745,53,0,0:0:0:0:
343,284,32840,1,0,0:0:0:0:
356,280,32935,1,0,0:0:0:0:
274,231,33125,53,2,0:0:0:0:
256,336,33315,1,0,0:0:0:0:
274,231,33505,1,0,0:0:0:0:
178,255,33694,53,2,0:0:0:0:
182,284,33884,1,0,0:0:0:0:
21,384,34074,6,0,B|7:353|7:353|18:316,1,71.9999978027344,6|0,3:1|0:0,0:0:0:0:
182,284,34264,2,0,B|193:320|193:320|179:351,1,71.9999978027344,10|0,0:0|0:0,0:0:0:0:
54,199,34454,1,2,3:0:0:0:
123,217,34549,1,0,3:0:0:0:
178,170,34644,2,0,B|192:139|192:139|180:102,1,71.9999978027344,10|0,0:0|0:0,0:0:0:0:
86,17,34834,54,0,L|-8:5,1,71.9999978027344,2|0,3:0|0:0,0:0:0:0:
180,103,35024,2,0,L|274:91,1,71.9999978027344,10|0,0:0|3:0,0:0:0:0:
54,199,35213,1,2,0:0:0:0:
50,220,35308,1,0,3:0:0:0:
45,241,35403,1,8,0:0:0:0:
40,262,35498,1,0,0:0:0:0:
36,283,35593,86,0,L|47:354,1,71.9999978027344,6|0,3:0|0:0,0:0:0:0:
228,217,35783,2,0,L|216:288,1,71.9999978027344,14|0,0:1|0:0,0:0:0:0:
43,128,35973,2,0,L|54:199,1,71.9999978027344,14|0,0:1|0:0,0:0:0:0:
204,24,36163,69,8,0:0:0:0:
279,37,36258,101,8,0:0:0:0:
354,50,36353,37,0,1:0:0:0:
319,29,36448,53,0,1:0:0:0:
350,54,36543,53,0,1:0:0:0:
322,24,36638,53,0,1:0:0:0:
346,57,36732,53,0,1:0:0:0:
326,21,36827,53,0,1:0:0:0:
341,59,36922,53,0,1:0:0:0:
331,19,37017,53,0,1:0:0:0:
337,59,37112,53,6,3:2:0:0:
309,134,37492,21,0,3:0:0:0:
351,210,37682,1,0,0:0:0:0:
351,210,37777,1,0,0:0:0:0:
351,210,37872,1,2,3:2:0:0:
235,375,38251,53,2,3:0:0:0:
166,362,38441,1,0,0:0:0:0:
166,362,38536,1,0,0:0:0:0:
166,362,38631,1,2,3:2:0:0:
105,201,39011,53,2,3:0:0:0:
175,170,39201,1,0,0:0:0:0:
175,170,39296,1,0,0:0:0:0:
175,170,39391,1,2,3:2:0:0:
280,22,39770,53,2,3:0:0:0:
265,35,39865,1,0,0:0:0:0:
247,44,39960,1,0,0:0:0:0:
228,48,40055,1,0,0:0:0:0:
208,45,40150,1,6,3:2:0:0:
347,93,40530,53,2,3:0:0:0:
309,164,40720,1,0,0:0:0:0:
309,164,40815,1,0,0:0:0:0:
309,164,40910,1,2,3:0:0:0:
412,263,41289,53,2,3:0:0:0:
443,342,41479,1,0,0:0:0:0:
443,342,41574,1,0,0:0:0:0:
443,342,41669,1,2,3:0:0:0:
478,127,42049,53,2,3:0:0:0:
412,162,42239,1,0,0:0:0:0:
412,162,42334,1,0,0:0:0:0:
412,162,42429,1,2,3:0:0:0:
252,100,42619,85,8,0:0:0:0:
366,52,42808,69,2,3:2:0:0:
181,4,42998,37,8,0:0:0:0:
254,82,43188,69,6,0:0:0:0:
48,151,43568,69,2,0:0:0:0:
48,151,43758,2,0,L|45:114,2,32,0|0|2,0:0|0:0|0:0,0:0:0:0:
190,236,44327,53,2,0:0:0:0:
190,236,44517,2,0,L|193:199,2,32,0|0|2,0:0|0:0|0:0,0:0:0:0:
58,342,45087,53,2,0:0:0:0:
58,342,45277,2,0,L|55:305,2,32,0|0|2,0:0|0:0|0:0,0:0:0:0:
247,383,45846,54,0,L|253:343,3,32,2|0|0|0,0:0|0:0|0:0|0:0,0:0:0:0:
166,326,46226,22,0,L|480:286,1,287.999991210938,6|0,3:1|0:0,0:0:0:0:
462,275,46606,54,0,L|152:314,1,311.999985717774,6|0,3:1|0:0,0:0:0:0:
139,303,46986,54,0,L|472:260,1,335.999989746094,6|0,3:1|0:0,0:0:0:0:
481,248,47365,54,0,L|123:293,1,360.000013732911,6|0,3:1|0:0,0:0:0:0:
0,262,47745,69,8,2:2:0:0:
61,220,47840,1,8,2:2:0:0:
51,197,47935,1,8,2:1:0:0:
41,175,48030,1,8,2:1:0:0:
105,138,48125,1,8,2:0:0:0:
507,96,48505,53,10,0:3:0:0:
377,10,48694,53,10,0:0:0:0:
406,3,48789,1,8,0:0:0:0:
325,144,48979,53,8,0:3:0:0:
348,153,49074,1,10,0:3:0:0:
155,31,49264,22,0,L|38:19,1,95.9999970703126,6|0,3:2|0:0,0:0:0:0:
189,217,49454,2,0,L|306:229,1,95.9999970703126,8|0,0:0|0:0,0:0:0:0:
38,383,49644,1,0,3:0:0:0:
32,296,49739,1,0,3:0:0:0:
33,209,49834,2,0,B|28:178|28:178|34:158|34:158|26:110,1,95.9999970703126,10|0,0:0|0:0,0:0:0:0:
156,311,50024,54,0,B|258:304|230:359|340:356,1,191.999994140625,2|8,3:2|0:0,0:0:0:0:
458,384,50308,1,0,3:0:0:0:
512,288,50403,2,0,L|499:186,1,95.9999970703126,2|0,0:0|3:0,0:0:0:0:
303,220,50593,2,0,L|315:124,1,95.9999970703126,10|0,0:0|0:0,0:0:0:0:
426,15,50783,54,0,P|474:9|525:0,1,95.9999970703126,6|0,3:3|0:0,0:0:0:0:
303,220,50973,2,0,P|350:225|397:234,1,95.9999970703126,8|0,0:0|0:0,0:0:0:0:
156,59,51163,1,2,3:0:0:0:
93,131,51258,1,0,3:0:0:0:
5,90,51353,2,0,B|-9:46|-9:46|7:-3,1,95.9999970703126,8|0,0:0|0:0,0:0:0:0:
182,157,51543,54,0,L|212:370,1,191.999994140625,2|8,3:0|0:0,0:0:0:0:
105,384,51827,1,0,3:0:0:0:
22,334,51922,2,0,P|3:290|14:244,1,95.9999970703126,2|0,0:0|3:0,0:0:0:0:
182,157,52112,2,0,P|193:111|174:67,1,95.9999970703126,10|0,0:0|0:0,0:0:0:0:
297,282,52302,54,0,P|317:369|408:375,1,191.999994140625,6|8,3:1|0:0,0:0:0:0:
512,318,52587,1,0,0:0:0:0:
498,222,52682,2,0,B|485:125,1,95.9999970703126,2|0,3:0|3:0,0:0:0:0:
293,63,52872,54,0,P|272:150|182:157,1,191.999994140625,10|0,0:0|3:0,0:0:0:0:
60,82,53157,1,0,3:0:0:0:
119,18,53251,2,0,L|218:2,1,95.9999970703126,10|0,0:0|3:0,0:0:0:0:
111,244,53441,2,0,L|46:166,1,95.9999970703126,2|0,0:3|3:0,0:0:0:0:
311,138,53631,2,0,L|270:230,1,95.9999970703126,10|0,0:0|0:0,0:0:0:0:
194,382,53821,86,0,B|167:265|209:316|185:190,1,191.999994140625,6|8,3:1|0:0,0:0:0:0:
287,0,54201,53,2,3:0:0:0:
326,27,54296,1,0,3:0:0:0:
372,16,54391,1,8,0:0:0:0:
512,126,54581,53,2,0:0:0:0:
481,100,54675,1,0,0:0:0:0:
441,93,54770,1,8,0:0:0:0:
403,105,54865,1,0,3:0:0:0:
370,128,54960,2,0,P|332:128|271:100,1,80,2|0,0:0|3:0,0:0:0:0:
435,215,55150,2,0,P|474:215|512:228,1,80,8|0,0:0|0:0,0:0:0:0:
325,283,55340,86,0,P|305:370|216:373,1,191.999994140625,6|8,3:2|0:0,0:0:0:0:
119,268,55625,1,0,0:0:0:0:
202,207,55720,2,0,B|249:220|249:220|316:186,1,95.9999970703126,2|0,3:0|3:0,0:0:0:0:
170,103,55910,2,0,P|150:15|61:12,1,191.999994140625,10|0,0:0|3:0,0:0:0:0:
0,179,56194,53,0,0:0:0:0:
0,179,56289,2,0,L|104:166,1,95.9999970703126,10|0,0:0|3:0,0:0:0:0:
219,297,56479,2,0,L|123:285,1,95.9999970703126,2|0,0:0|3:0,0:0:0:0:
193,83,56669,2,0,L|288:71,1,95.9999970703126,10|0,0:0|0:0,0:0:0:0:
512,224,56859,54,0,B|527:178|527:178|507:134,1,95.9999970703126,6|0,3:0|0:0,0:0:0:0:
294,152,57049,2,0,B|274:195|274:195|289:241,1,95.9999970703126,8|0,0:0|0:0,0:0:0:0:
387,384,57239,1,2,3:0:0:0:
391,288,57334,1,0,3:0:0:0:
400,192,57429,2,0,L|405:73,1,95.9999970703126,8|0,0:0|0:0,0:0:0:0:
225,20,57619,54,0,B|113:-4|152:67|26:25,1,191.999994140625,2|8,3:0|0:0,0:0:0:0:
93,128,57903,1,0,3:0:0:0:
193,126,57998,2,0,L|321:110,1,95.9999970703126,2|0,0:0|3:0,0:0:0:0:
176,301,58188,2,0,L|139:179,1,95.9999970703126,8|0,0:0|0:0,0:0:0:0:
93,128,58378,85,6,3:1:0:0:
11,384,58568,1,8,0:0:0:0:
226,215,58758,53,0,3:0:0:0:
187,213,58853,1,0,3:0:0:0:
148,209,58948,1,8,0:0:0:0:
205,384,59138,53,2,3:0:0:0:
259,64,59327,1,8,0:0:0:0:
340,314,59517,53,0,3:0:0:0:
318,320,59612,1,0,3:0:0:0:
297,328,59707,1,0,3:0:0:0:
275,335,59802,1,0,3:0:0:0:
205,384,59897,37,14,3:1:0:0:
196,322,59992,1,0,3:0:0:0:
188,261,60087,1,0,3:0:0:0:
180,200,60182,1,0,3:0:0:0:
172,138,60277,1,0,3:0:0:0:
164,77,60372,1,0,3:0:0:0:
156,16,60467,2,0,B|128:60|128:60|149:104,1,95.9999970703126,10|0,3:1|3:0,0:0:0:0:
225,195,60657,53,2,3:1:0:0:
294,204,60751,1,0,3:0:0:0:
365,213,60846,1,0,3:0:0:0:
435,222,60941,1,0,3:0:0:0:
505,231,61036,2,0,B|529:188|529:188|505:149,1,95.9999970703126,10|0,3:1|3:2,0:0:0:0:
314,296,61226,2,0,B|290:339|290:339|314:378,1,95.9999970703126,10|0,3:1|3:2,0:0:0:0:
133,120,61416,38,0,L|37:112,1,95.9999970703126,6|0,3:2|0:0,0:0:0:0:
252,14,61606,2,0,L|347:7,1,95.9999970703126,8|0,0:0|0:0,0:0:0:0:
504,148,61796,1,0,3:0:0:0:
445,71,61891,1,0,3:0:0:0:
355,106,61986,2,0,L|260:113,1,95.9999970703126,10|0,0:0|0:0,0:0:0:0:
414,190,62175,54,0,P|502:207|513:296,1,191.999994140625,2|8,3:2|0:0,0:0:0:0:
409,384,62460,1,0,3:0:0:0:
328,331,62555,2,0,B|344:285|344:285|325:241,1,95.9999970703126,2|0,0:0|3:0,0:0:0:0:
177,384,62745,2,0,B|161:338|161:338|180:295,1,95.9999970703126,10|0,0:0|0:0,0:0:0:0:
320,151,62935,54,0,L|439:138,1,95.9999970703126,6|0,3:0|0:0,0:0:0:0:
162,201,63125,2,0,L|43:188,1,95.9999970703126,8|0,0:0|0:0,0:0:0:0:
236,4,63315,1,2,3:0:0:0:
321,47,63410,1,0,3:0:0:0:
413,22,63505,2,0,L|532:9,1,95.9999970703126,8|0,0:0|0:0,0:0:0:0:
512,244,63694,54,0,P|504:153|419:120,1,191.999994140625,2|8,3:0|0:0,0:0:0:0:
324,228,63979,1,0,3:0:0:0:
324,228,64074,2,0,B|433:220,1,95.9999970703126,2|0,0:0|3:0,0:0:0:0:
211,349,64264,2,0,B|102:341,1,95.9999970703126,10|0,0:0|0:0,0:0:0:0:
36,130,64454,54,0,P|45:40|140:26,1,191.999994140625,6|8,3:1|0:0,0:0:0:0:
225,126,64739,1,0,0:0:0:0:
177,209,64834,2,0,P|128:197|67:229,1,95.9999970703126,2|0,3:0|3:0,0:0:0:0:
211,349,65024,2,0,P|245:312|248:243,1,95.9999970703126,10|0,0:0|0:0,0:0:0:0:
71,307,65213,2,0,P|85:355|143:392,1,95.9999970703126,0|0,3:0|0:0,0:0:0:0:
346,298,65403,53,10,0:0:0:0:
428,346,65498,1,0,3:0:0:0:
490,284,65593,2,0,P|498:242|468:189,1,95.9999970703126,2|0,0:0|3:0,0:0:0:0:
351,32,65783,2,0,P|358:78|336:120,1,95.9999970703126,10|0,0:0|0:0,0:0:0:0:
194,197,65973,85,6,3:1:0:0:
15,35,66163,53,0,3:0:0:0:
101,26,66258,1,0,3:0:0:0:
187,17,66353,1,0,3:0:0:0:
53,249,66543,53,0,3:0:0:0:
139,258,66638,1,0,3:0:0:0:
225,267,66732,69,0,1:0:0:0:
194,197,66827,1,0,1:0:0:0:
239,135,66922,1,0,1:0:0:0:
315,142,67017,1,0,1:0:0:0:
346,211,67112,53,8,3:1:0:0:
350,223,67175,1,8,3:1:0:0:
352,235,67239,1,8,3:1:0:0:
355,247,67302,2,0,B|363:272|363:272|359:290|359:290|371:339,1,80,10|8,3:1|3:1,0:0:0:0:
367,324,67682,70,0,L|488:308,1,95.9999970703126,12|0,0:0|0:0,0:0:0:0:
315,142,67872,1,2,3:0:0:0:
238,182,67967,1,0,3:0:0:0:
175,122,68062,2,0,L|164:25,1,95.9999970703126,8|0,0:0|0:0,0:0:0:0:
325,46,68251,2,0,L|315:142,1,95.9999970703126,0|0,3:0|0:0,0:0:0:0:
144,227,68441,53,10,0:0:0:0:
71,200,68536,1,0,3:0:0:0:
7,242,68631,2,0,B|-10:288|-10:288|6:332,1,95.9999970703126,2|0,0:0|3:0,0:0:0:0:
178,379,68821,2,0,L|291:371,1,95.9999970703126,10|0,0:0|0:0,0:0:0:0:
416,155,69011,54,0,L|320:161,1,95.9999970703126,6|0,3:0|0:0,0:0:0:0:
501,323,69201,2,0,B|518:277|518:277|501:233,1,95.9999970703126,8|0,0:0|0:0,0:0:0:0:
308,71,69391,1,2,3:0:0:0:
237,121,69486,1,0,3:0:0:0:
156,89,69581,2,0,B|139:45|139:45|156:0,1,95.9999970703126,8|0,0:0|0:0,0:0:0:0:
416,155,69770,54,0,L|396:371,1,191.999994140625,2|8,3:0|0:0,0:0:0:0:
229,280,70055,1,0,3:0:0:0:
197,368,70150,2,0,B|244:382|244:382|284:357,1,95.9999970703126,2|0,0:0|3:0,0:0:0:0:
267,190,70340,2,0,B|220:176|220:176|179:199,1,95.9999970703126,10|0,0:0|0:0,0:0:0:0:
75,286,70530,85,6,3:1:0:0:
392,326,70720,1,8,0:0:0:0:
248,12,70910,53,0,3:0:0:0:
244,40,71005,1,0,3:0:0:0:
241,68,71100,1,8,0:0:0:0:
78,24,71289,53,6,3:1:0:0:
361,70,71479,53,8,0:0:0:0:
398,63,71574,1,8,0:3:0:0:
272,235,71764,53,8,0:3:0:0:
224,244,71859,1,8,0:0:0:0:
447,343,72049,101,2,1:0:0:0:
361,70,72239,1,0,1:0:0:0:
447,343,72429,1,0,1:0:0:0:
486,37,72619,53,2,1:0:0:0:
472,138,72713,53,2,1:0:0:0:
458,240,72808,53,8,1:3:0:0:
486,37,73188,86,0,P|391:183|226:144,1,360.000013732911,10|0,3:2|0:0,0:0:0:0:
100,17,73568,70,0,L|187:9,1,88.000002685547,6|0,3:2|0:0,0:0:0:0:
87,243,73758,2,0,L|0:235,1,88.000002685547,10|0,0:0|0:0,0:0:0:0:
230,148,73948,53,2,3:0:0:0:
266,212,74043,1,0,3:0:0:0:
337,231,74138,1,8,0:0:0:0:
400,194,74232,1,0,0:0:0:0:
436,122,74327,53,2,3:0:0:0:
356,125,74422,1,0,0:0:0:0:
351,46,74517,1,8,0:0:0:0:
431,42,74612,1,0,3:0:0:0:
452,128,74707,53,2,0:0:0:0:
411,201,74802,1,0,3:0:0:0:
430,281,74897,1,8,0:0:0:0:
392,355,74992,1,0,0:0:0:0:
308,379,75087,53,6,3:3:0:0:
291,307,75182,1,0,0:0:0:0:
278,233,75277,1,8,0:0:0:0:
263,160,75372,1,0,0:0:0:0:
279,83,75467,53,2,3:0:0:0:
273,163,75562,1,0,3:0:0:0:
208,209,75657,1,8,0:0:0:0:
130,188,75751,1,0,0:0:0:0:
100,109,75846,53,2,3:0:0:0:
173,80,75941,1,0,0:0:0:0:
116,24,76036,1,8,0:0:0:0:
43,53,76131,1,0,3:0:0:0:
7,142,76226,53,2,0:0:0:0:
49,212,76321,1,0,3:0:0:0:
130,205,76416,1,8,0:0:0:0:
190,263,76511,1,0,0:0:0:0:
267,249,76606,54,0,B|289:211|289:211|281:167,1,88.000002685547,6|0,3:1|0:0,0:0:0:0:
116,24,76796,2,0,B|94:62|94:62|101:105,1,88.000002685547,10|0,0:0|0:0,0:0:0:0:
396,0,76986,53,2,3:0:0:0:
332,41,77081,1,0,3:0:0:0:
351,114,77175,1,8,0:0:0:0:
426,118,77270,1,0,0:0:0:0:
512,177,77365,53,2,3:0:0:0:
505,255,77460,1,0,0:0:0:0:
428,275,77555,1,8,0:0:0:0:
387,208,77650,1,0,3:0:0:0:
431,107,77745,53,2,0:0:0:0:
506,69,77840,1,0,3:0:0:0:
438,21,77935,1,8,0:0:0:0:
72,54,78125,21,6,0:3:0:0:
134,166,78251,1,0,0:0:0:0:
259,135,78378,1,0,0:0:0:0:
99,40,78505,53,2,3:0:0:0:
128,159,78631,1,0,0:0:0:0:
251,161,78758,1,0,0:0:0:0:
129,34,78884,53,2,3:0:0:0:
127,150,79011,1,0,0:0:0:0:
238,182,79138,1,0,0:0:0:0:
158,35,79264,53,2,0:0:0:0:
128,141,79391,1,0,0:0:0:0:
222,198,79517,1,0,0:0:0:0:
348,93,79644,86,0,P|360:52|350:9,1,88.000002685547,6|0,3:2|0:0,0:0:0:0:
132,135,79834,2,0,L|16:136,1,88.000002685547,8|0,0:0|0:0,0:0:0:0:
192,291,80024,2,0,P|182:333|194:375,1,88.000002685547,0|0,3:0|0:0,0:0:0:0:
472,316,80213,53,10,0:0:0:0:
423,242,80308,1,0,0:0:0:0:
487,183,80403,2,0,P|499:141|489:98,1,88.000002685547,2|0,3:0|0:0,0:0:0:0:
343,201,80593,2,0,P|333:243|345:285,1,88.000002685547,10|0,0:0|3:0,0:0:0:0:
249,78,80783,2,0,L|147:64,1,88.000002685547,2|0,0:0|3:0,0:0:0:0:
369,19,80973,2,0,L|471:5,1,88.000002685547,10|0,0:0|0:0,0:0:0:0:
239,94,81163,54,0,L|41:100,1,176.000005371094,6|8,0:1|0:0,0:0:0:0:
345,285,81543,1,2,3:0:0:0:
424,323,81638,1,0,3:0:0:0:
490,264,81732,2,0,B|505:224|505:224|486:182,1,88.000002685547,8|0,0:0|0:0,0:0:0:0:
239,94,81922,54,0,L|223:269,1,176.000005371094,2|8,3:3|0:0,0:0:0:0:
105,371,82207,1,0,3:0:0:0:
105,371,82302,2,0,B|90:331|90:331|108:289,1,88.000002685547,2|0,0:0|3:0,0:0:0:0:
338,135,82492,85,10,0:0:0:0:
403,194,82587,1,0,0:0:0:0:
442,115,82682,2,0,L|356:96,1,88.000002685547,6|0,3:1|0:0,0:0:0:0:
174,40,82872,53,10,0:0:0:0:
197,87,82967,1,0,0:0:0:0:
240,98,83062,1,0,3:0:0:0:
268,77,83157,1,0,3:0:0:0:
276,51,83251,2,0,L|270:-13,1,55.9999982910157,10|0,0:0|0:0,0:0:0:0:
124,119,83441,54,0,P|79:115|37:224,1,176.000005371094,6|8,3:3|0:0,0:0:0:0:
300,372,83821,5,0,3:0:0:0:
306,347,83916,1,0,3:0:0:0:
311,322,84011,1,0,3:0:0:0:
315,296,84106,1,0,3:0:0:0:
353,232,84201,85,14,3:1:0:0:
391,296,84296,1,0,3:0:0:0:
353,362,84391,1,0,3:0:0:0:
277,362,84486,1,0,3:0:0:0:
241,297,84581,1,0,3:0:0:0:
277,232,84675,1,0,3:0:0:0:
348,196,84770,53,14,3:1:0:0:
353,116,84865,1,0,3:0:0:0:
286,73,84960,1,0,3:0:0:0:
216,107,85055,1,0,3:0:0:0:
212,187,85150,1,0,3:0:0:0:
277,232,85245,1,0,3:0:0:0:
365,217,85340,69,14,1:1:0:0:
410,286,85435,53,0,1:0:0:0:
380,358,85530,53,0,1:0:0:0:
359,346,85625,53,0,1:0:0:0:
346,330,85720,53,6,0:2:0:0:
417,98,86289,69,8,0:1:0:0:
512,107,86479,2,0,L|401:96,1,95.9999970703126,8|8,0:0|0:1,0:0:0:0:
117,107,87619,53,8,0:1:0:0:
213,68,87998,1,8,0:0:0:0:
117,107,88188,1,8,0:1:0:0:
349,316,88758,53,10,2:1:0:0:
149,246,89327,53,8,0:1:0:0:
137,341,89517,2,0,L|150:237,1,95.9999970703126,8|8,0:0|0:1,0:0:0:0:
406,47,90657,53,8,0:1:0:0:
453,160,91036,1,8,0:0:0:0:
406,47,91226,1,8,0:1:0:0:
338,273,91796,53,10,0:1:0:0:
176,38,92365,53,8,0:1:0:0:
272,45,92555,2,0,L|177:38,1,95.9999970703126,8|8,0:0|0:1,0:0:0:0:
0,213,93694,53,8,0:1:0:0:
131,195,94074,1,8,0:0:0:0:
0,213,94264,1,8,0:1:0:0:
163,52,94834,38,0,P|162:217|289:267,1,320,8|6,0:3|0:2,0:0:0:0:
483,335,97049,38,0,L|491:361,2,26.6666666666667,2|2|2,0:2|0:0|0:0,0:0:0:0:
417,44,97872,85,6,3:2:0:0:
362,250,98251,53,0,3:0:0:0:
446,234,98441,1,0,0:0:0:0:
446,234,98536,1,0,0:0:0:0:
446,234,98631,1,2,3:2:0:0:
247,84,99011,53,2,3:0:0:0:
331,100,99201,1,0,0:0:0:0:
331,100,99296,1,0,0:0:0:0:
331,100,99391,1,2,3:2:0:0:
109,213,99770,53,2,3:0:0:0:
193,197,99960,1,0,0:0:0:0:
193,197,100055,1,0,0:0:0:0:
193,197,100150,1,2,3:2:0:0:
110,23,100530,53,2,3:0:0:0:
114,52,100625,1,0,0:0:0:0:
106,81,100720,1,0,0:0:0:0:
88,105,100815,1,0,0:0:0:0:
62,119,100910,1,6,3:2:0:0:
257,255,101289,53,2,3:0:0:0:
281,185,101479,1,0,0:0:0:0:
281,185,101574,1,0,0:0:0:0:
281,185,101669,1,2,3:0:0:0:
166,323,102049,53,2,3:0:0:0:
144,255,102239,1,0,0:0:0:0:
144,255,102334,1,0,0:0:0:0:
144,255,102429,1,2,3:0:0:0:
335,384,102808,53,2,3:0:0:0:
359,314,102998,1,0,0:0:0:0:
359,314,103093,1,0,0:0:0:0:
359,314,103188,1,2,3:0:0:0:
325,138,103378,85,8,0:0:0:0:
269,235,103568,69,2,3:2:0:0:
228,36,103758,37,8,0:0:0:0:
329,156,103948,69,6,0:0:0:0:
434,29,104327,69,2,0:0:0:0:
434,29,104517,2,0,L|380:17,2,32,0|0|2,0:0|0:0|0:0,0:0:0:0:
209,122,105087,53,2,0:0:0:0:
209,122,105277,2,0,L|263:110,2,32,0|0|2,0:0|0:0|0:0,0:0:0:0:
457,223,105846,53,2,0:0:0:0:
457,223,106036,2,0,L|403:211,2,32,0|0|2,0:0|0:0|0:0,0:0:0:0:
262,369,106606,54,0,L|256:329,3,32,2|0|0|0,0:0|0:0|0:0|0:0,0:0:0:0:
185,196,106986,22,0,B|176:263|249:316|249:316|307:247|282:183,1,287.999991210938,6|0,3:1|0:0,0:0:0:0:
286,179,107365,54,0,B|312:247|249:322|249:322|171:264|180:192,1,311.999985717774,6|0,3:1|0:0,0:0:0:0:
175,189,107745,54,0,B|165:267|250:329|250:329|317:248|289:175,1,335.999989746094,6|0,3:1|0:0,0:0:0:0:
293,171,108125,54,0,B|323:249|251:336|251:336|160:269|170:186,1,360.000013732911,6|0,3:1|0:0,0:0:0:0:
179,67,108505,69,8,2:2:0:0:
122,115,108600,1,8,2:2:0:0:
111,94,108694,1,8,2:1:0:0:
100,72,108789,1,8,2:1:0:0:
42,119,108884,1,8,2:0:0:0:
456,2,109264,53,10,0:3:0:0:
330,158,109454,53,10,0:0:0:0:
318,125,109549,1,8,0:0:0:0:
501,249,109739,53,8,0:3:0:0:
512,231,109834,1,10,0:3:0:0:
236,384,110024,22,0,L|225:289,1,95.9999970703126,6|0,3:2|0:0,0:0:0:0:
502,326,110213,2,0,L|512:230,1,95.9999970703126,8|0,0:0|0:0,0:0:0:0:
345,73,110403,1,0,3:0:0:0:
265,127,110498,1,0,3:0:0:0:
173,97,110593,2,0,L|162:2,1,95.9999970703126,10|0,0:0|0:0,0:0:0:0:
1,310,110783,54,0,P|3:220|87:183,1,191.999994140625,2|8,3:2|0:0,0:0:0:0:
235,209,111068,1,0,3:0:0:0:
158,269,111163,2,0,B|116:292|116:292|71:267,1,95.9999970703126,2|0,0:0|3:0,0:0:0:0:
173,97,111353,2,0,P|165:50|191:8,1,95.9999970703126,10|0,0:0|0:0,0:0:0:0:
425,252,111543,54,0,B|467:275|467:275|509:251,1,95.9999970703126,6|0,3:3|0:0,0:0:0:0:
388,87,111732,2,0,P|396:40|372:-1,1,95.9999970703126,8|0,0:0|0:0,0:0:0:0:
272,206,111922,1,2,3:0:0:0:
277,300,112017,1,0,3:0:0:0:
349,364,112112,2,0,B|391:387|391:387|433:363,1,95.9999970703126,8|0,0:0|0:0,0:0:0:0:
253,193,112302,54,0,B|144:165|175:240|59:211,1,191.999994140625,2|8,3:0|0:0,0:0:0:0:
0,66,112587,1,0,3:0:0:0:
79,109,112682,2,0,L|176:101,1,95.9999970703126,2|0,0:0|3:0,0:0:0:0:
277,300,112872,2,0,L|181:292,1,95.9999970703126,10|0,0:0|0:0,0:0:0:0:
334,107,113062,54,0,P|357:20|446:18,1,191.999994140625,6|8,3:1|0:0,0:0:0:0:
411,170,113346,1,0,0:0:0:0:
505,209,113441,2,0,B|522:165|522:165|500:121,1,95.9999970703126,2|0,3:0|3:0,0:0:0:0:
294,245,113631,54,0,P|383:248|405:335,1,191.999994140625,10|0,0:0|3:0,0:0:0:0:
223,384,113916,1,0,3:0:0:0:
191,293,114011,2,0,B|207:247|207:247|194:200,1,95.9999970703126,10|0,0:0|3:0,0:0:0:0:
24,296,114201,2,0,B|55:332|55:332|101:345,1,95.9999970703126,2|0,0:3|3:0,0:0:0:0:
104,149,114391,2,0,B|56:158|56:158|22:191,1,95.9999970703126,10|0,0:0|0:0,0:0:0:0:
106,246,114581,86,0,B|223:218|180:273|300:244,1,191.999994140625,6|8,3:1|0:0,0:0:0:0:
511,78,114960,53,2,3:0:0:0:
474,47,115055,1,0,3:0:0:0:
477,0,115150,1,8,0:0:0:0:
444,260,115340,53,2,0:0:0:0:
450,222,115435,1,0,0:0:0:0:
443,184,115530,1,8,0:0:0:0:
423,151,115625,1,0,3:0:0:0:
391,128,115720,2,0,L|292:114,1,80,2|0,0:0|3:0,0:0:0:0:
215,256,115910,2,0,L|314:242,1,80,8|0,0:0|0:0,0:0:0:0:
147,99,116100,86,0,P|131:11|43:14,1,191.999994140625,6|8,3:2|0:0,0:0:0:0:
0,167,116384,1,0,0:0:0:0:
91,195,116479,2,0,L|197:178,1,95.9999970703126,2|0,3:0|3:0,0:0:0:0:
318,341,116669,2,0,P|229:342|215:255,1,191.999994140625,10|0,0:0|3:0,0:0:0:0:
405,131,116954,53,0,0:0:0:0:
405,131,117049,2,0,P|401:178|414:224,1,95.9999970703126,10|0,0:0|3:0,0:0:0:0:
185,179,117239,2,0,P|198:133|194:85,1,95.9999970703126,2|0,0:0|3:0,0:0:0:0:
383,29,117429,2,0,L|478:17,1,95.9999970703126,10|0,0:0|0:0,0:0:0:0:
175,76,117619,54,0,B|137:69|137:69|120:72|120:72|80:66,1,95.9999970703126,6|0,3:0|0:0,0:0:0:0:
214,255,117808,2,0,B|252:248|252:248|269:251|269:251|309:245,1,95.9999970703126,8|0,0:0|0:0,0:0:0:0:
62,384,117998,1,2,3:0:0:0:
42,299,118093,1,0,3:0:0:0:
23,214,118188,2,0,B|2:100,1,95.9999970703126,8|0,0:0|0:0,0:0:0:0:
211,0,118378,54,0,P|200:84|312:96,1,191.999994140625,2|8,3:0|0:0,0:0:0:0:
406,153,118663,1,0,3:0:0:0:
482,97,118758,2,0,B|498:52|498:52|481:7,1,95.9999970703126,2|0,0:0|3:0,0:0:0:0:
288,113,118948,2,0,B|272:158|272:158|289:203,1,95.9999970703126,8|0,0:0|0:0,0:0:0:0:
479,285,119138,85,6,3:1:0:0:
369,22,119327,1,8,0:0:0:0:
265,288,119517,53,0,3:0:0:0:
304,286,119612,1,0,3:0:0:0:
343,282,119707,1,8,0:0:0:0:
259,106,119897,53,2,3:0:0:0:
145,383,120087,1,8,0:0:0:0:
21,272,120277,53,0,3:0:0:0:
40,282,120372,1,0,3:0:0:0:
58,293,120467,1,0,3:0:0:0:
79,305,120562,1,0,3:0:0:0:
145,383,120657,37,14,3:1:0:0:
154,321,120751,1,0,3:0:0:0:
162,260,120846,1,0,3:0:0:0:
170,199,120941,1,0,3:0:0:0:
178,137,121036,1,0,3:0:0:0:
186,76,121131,1,0,3:0:0:0:
193,14,121226,2,0,P|148:26|164:68,1,95.9999970703126,10|0,3:1|3:0,0:0:0:0:
241,232,121416,53,2,3:1:0:0:
308,201,121511,1,0,3:0:0:0:
376,173,121606,1,0,3:0:0:0:
443,146,121701,1,0,3:0:0:0:
511,116,121796,2,0,P|475:89|431:105,1,95.9999970703126,10|0,3:1|3:2,0:0:0:0:
338,275,121986,2,0,P|374:302|418:286,1,95.9999970703126,10|0,3:1|3:2,0:0:0:0:
203,109,122175,38,0,L|192:8,1,95.9999970703126,6|0,3:2|0:0,0:0:0:0:
108,257,122365,2,0,L|119:358,1,95.9999970703126,8|0,0:0|0:0,0:0:0:0:
15,135,122555,1,0,3:0:0:0:
109,122,122650,1,0,3:0:0:0:
203,109,122745,2,0,L|298:94,1,95.9999970703126,10|0,0:0|0:0,0:0:0:0:
497,172,122935,54,0,P|500:265|412:282,1,191.999994140625,2|8,3:2|0:0,0:0:0:0:
236,260,123220,1,0,3:0:0:0:
320,305,123315,2,0,B|337:261|337:261|320:215,1,95.9999970703126,2|0,0:0|3:0,0:0:0:0:
161,220,123505,2,0,B|144:266|144:266|161:310,1,95.9999970703126,10|0,0:0|0:0,0:0:0:0:
348,384,123694,54,0,L|467:371,1,95.9999970703126,6|0,3:0|0:0,0:0:0:0:
172,204,123884,2,0,L|53:191,1,95.9999970703126,8|0,0:0|0:0,0:0:0:0:
293,71,124074,1,2,3:0:0:0:
364,135,124169,1,0,3:0:0:0:
448,88,124264,2,0,P|463:43|441:-1,1,95.9999970703126,8|0,0:0|0:0,0:0:0:0:
346,144,124454,54,0,P|272:201|299:293,1,191.999994140625,2|8,3:0|0:0,0:0:0:0:
455,292,124739,1,0,3:0:0:0:
501,361,124834,2,0,B|455:378|455:378|411:361,1,95.9999970703126,2|0,0:0|3:0,0:0:0:0:
203,287,125024,2,0,B|249:304|249:304|292:287,1,95.9999970703126,10|0,0:0|0:0,0:0:0:0:
434,140,125213,54,0,P|443:48|364:1,1,191.999994140625,6|8,3:1|0:0,0:0:0:0:
223,15,125498,1,0,0:0:0:0:
276,95,125593,2,0,B|322:110|322:110|367:91,1,95.9999970703126,2|0,3:0|3:0,0:0:0:0:
169,191,125783,2,0,B|123:206|123:206|78:187,1,95.9999970703126,10|0,0:0|0:0,0:0:0:0:
304,315,125973,2,0,B|350:330|350:330|395:311,1,95.9999970703126,0|0,3:0|0:0,0:0:0:0:
507,100,126163,53,10,0:0:0:0:
434,140,126258,1,0,3:0:0:0:
365,91,126353,2,0,L|351:-11,1,95.9999970703126,2|0,0:0|3:0,0:0:0:0:
291,220,126543,2,0,L|304:315,1,95.9999970703126,10|0,0:0|0:0,0:0:0:0:
172,167,126732,85,6,3:1:0:0:
13,363,126922,53,0,3:0:0:0:
99,354,127017,1,0,3:0:0:0:
185,345,127112,1,0,3:0:0:0:
0,149,127302,53,0,3:0:0:0:
86,158,127397,1,0,3:0:0:0:
172,167,127492,69,0,1:0:0:0:
141,97,127587,1,0,1:0:0:0:
186,35,127682,1,0,1:0:0:0:
262,42,127777,1,0,1:0:0:0:
293,111,127872,53,8,3:1:0:0:
297,123,127935,1,8,3:1:0:0:
300,135,127998,1,8,3:1:0:0:
304,147,128062,2,0,B|310:169|310:169|307:185|307:185|320:239,1,80,10|8,3:1|3:1,0:0:0:0:
316,225,128441,70,0,P|369:227|422:189,1,95.9999970703126,12|0,0:0|0:0,0:0:0:0:
262,42,128631,1,2,3:0:0:0:
214,114,128726,1,0,3:0:0:0:
130,90,128821,2,0,P|113:49|125:-6,1,95.9999970703126,8|0,0:0|0:0,0:0:0:0:
224,213,129011,2,0,P|233:259|215:303,1,95.9999970703126,0|0,3:0|0:0,0:0:0:0:
349,103,129201,53,10,0:0:0:0:
421,129,129296,1,0,3:0:0:0:
488,92,129391,2,0,P|505:51|493:-4,1,95.9999970703126,2|0,0:0|3:0,0:0:0:0:
405,206,129581,2,0,P|395:252|413:296,1,95.9999970703126,10|0,0:0|0:0,0:0:0:0:
214,114,129770,54,0,L|119:116,1,95.9999970703126,6|0,3:0|0:0,0:0:0:0:
317,294,129960,2,0,L|412:296,1,95.9999970703126,8|0,0:0|0:0,0:0:0:0:
182,377,130150,1,2,3:0:0:0:
160,293,130245,1,0,3:0:0:0:
139,210,130340,2,0,B|115:101,1,95.9999970703126,8|0,0:0|0:0,0:0:0:0:
326,13,130530,54,0,P|315:88|192:99,1,191.999994140625,2|8,3:0|0:0,0:0:0:0:
348,218,130815,1,0,3:0:0:0:
419,154,130910,2,0,B|406:109|406:109|425:63,1,95.9999970703126,2|0,0:0|3:0,0:0:0:0:
512,241,131100,2,0,B|525:286|525:286|505:331,1,95.9999970703126,10|0,0:0|0:0,0:0:0:0:
376,384,131289,85,6,3:1:0:0:
326,13,131479,1,8,0:0:0:0:
199,216,131669,53,0,3:0:0:0:
227,214,131764,1,0,3:0:0:0:
255,212,131859,1,8,0:0:0:0:
150,53,132049,53,6,3:1:0:0:
96,293,132239,53,8,0:0:0:0:
117,325,132334,1,8,0:3:0:0:
0,143,132524,53,8,0:3:0:0:
29,103,132619,1,8,0:0:0:0:
344,272,132808,101,2,1:0:0:0:
266,2,132998,1,0,1:0:0:0:
344,272,133188,1,0,1:0:0:0:
468,71,133378,53,2,1:0:0:0:
378,99,133473,53,2,1:0:0:0:
329,179,133568,53,8,1:3:0:0:
468,71,133948,86,0,B|506:106|505:141|505:141|419:5|265:38,1,360.000013732911,10|0,3:2|0:0,0:0:0:0:
23,149,134327,38,0,B|72:165|72:165|122:149,1,103.999995239258,6|0,3:2|0:0,0:0:0:0:
257,298,134517,2,0,B|207:281|207:281|157:297,1,103.999995239258,8|0,0:0|0:0,0:0:0:0:
345,133,134707,1,2,3:0:0:0:
425,180,134802,1,0,3:0:0:0:
495,117,134897,2,0,B|511:68|511:68|495:17,1,103.999995239258,8|0,0:0|0:0,0:0:0:0:
345,133,135087,2,0,B|329:182|329:182|344:232,1,103.999995239258,0|0,3:0|0:0,0:0:0:0:
129,18,135277,54,0,P|177:0|229:-1,1,103.999995239258,10|0,0:0|3:0,0:0:0:0:
137,262,135467,2,0,P|98:228|71:183,1,103.999995239258,2|0,0:0|3:0,0:0:0:0:
345,133,135657,2,0,P|335:183|310:229,1,103.999995239258,10|0,0:0|0:0,0:0:0:0:
254,384,135846,54,0,B|243:264|226:306|215:180,1,207.999990478516,6|8,3:3|0:0,0:0:0:0:
163,356,136131,1,2,0:0:0:0:
163,356,136226,2,0,L|42:371,1,103.999995239258,2|0,3:0|3:0,0:0:0:0:
309,229,136416,2,0,L|430:244,1,103.999995239258,10|0,0:0|0:0,0:0:0:0:
243,60,136606,54,0,P|217:143|96:130,1,207.999990478516,2|8,3:3|0:0,0:0:0:0:
0,39,136891,1,2,0:0:0:0:
0,39,136986,2,0,L|121:24,1,103.999995239258,2|0,3:0|3:0,0:0:0:0:
201,251,137175,2,0,B|80:236,1,103.999995239258,8|0,0:0|0:0,0:0:0:0:
294,0,137365,54,0,P|330:90|427:84,1,207.999990478516,6|8,3:1|0:0,0:0:0:0:
202,162,137650,1,2,0:0:0:0:
202,162,137745,2,0,B|222:113|222:113|196:68,1,103.999995239258,2|0,3:0|3:0,0:0:0:0:
78,222,137935,2,0,B|52:266|52:266|72:315,1,103.999995239258,10|0,0:0|0:0,0:0:0:0:
322,384,138125,54,0,L|440:372,1,103.999995239258,2|0,0:0|0:0,0:0:0:0:
224,267,138315,1,10,0:0:0:0:
175,325,138410,2,0,L|57:313,1,103.999995239258,2|0,3:0|0:0,0:0:0:0:
280,173,138600,1,2,3:0:0:0:
326,235,138694,2,0,L|444:223,1,103.999995239258,10|0,0:0|0:0,0:0:0:0:
221,121,138884,54,0,P|237:72|214:27,1,103.999995239258,6|0,3:3|0:0,0:0:0:0:
66,222,139074,2,0,P|49:270|72:315,1,103.999995239258,8|0,0:0|0:0,0:0:0:0:
270,375,139264,1,2,3:0:0:0:
343,330,139359,1,0,3:0:0:0:
413,381,139454,2,0,P|463:388|512:372,1,103.999995239258,8|0,0:0|0:0,0:0:0:0:
435,139,139644,54,0,P|450:86|422:27,1,103.999995239258,2|0,3:0|0:0,0:0:0:0:
350,91,139834,2,0,P|384:128|434:139,1,103.999995239258,8|0,0:0|3:0,0:0:0:0:
161,265,140024,54,0,P|198:230|249:223,1,103.999995239258,2|0,0:0|3:0,0:0:0:0:
241,322,140213,2,0,P|192:306|161:265,1,103.999995239258,8|0,0:0|0:0,0:0:0:0:
24,79,140403,21,6,3:1:0:0:
88,39,140498,1,0,0:0:0:0:
163,40,140593,1,8,0:0:0:0:
226,80,140688,1,0,0:0:0:0:
258,148,140783,1,2,3:0:0:0:
249,223,140878,1,0,3:0:0:0:
281,290,140973,1,8,0:0:0:0:
343,329,141068,1,0,0:0:0:0:
426,303,141163,53,2,3:0:0:0:
392,227,141258,1,0,0:0:0:0:
389,146,141353,1,8,0:0:0:0:
417,69,141448,1,0,3:0:0:0:
472,9,141543,1,2,0:0:0:0:
505,83,141638,1,0,3:0:0:0:
507,165,141732,1,8,0:0:0:0:
479,242,141827,1,0,0:0:0:0:
419,314,141922,53,6,3:0:0:0:
376,240,142017,1,0,0:0:0:0:
310,188,142112,1,8,0:0:0:0:
229,165,142207,1,0,0:0:0:0:
145,173,142302,1,2,3:0:0:0:
187,246,142397,1,0,3:0:0:0:
253,299,142492,1,8,0:0:0:0:
334,322,142587,1,0,0:0:0:0:
419,314,142682,53,2,3:0:0:0:
364,245,142777,1,0,0:0:0:0:
340,161,142872,1,8,0:0:0:0:
349,74,142967,1,0,3:0:0:0:
391,1,143062,53,2,0:0:0:0:
362,86,143157,1,0,3:0:0:0:
286,136,143251,1,8,0:0:0:0:
196,128,143346,1,0,0:0:0:0:
135,68,143441,54,0,B|166:23|235:30|235:30|237:107|196:128,1,223.999993164063,6|8,3:1|0:0,0:0:0:0:
46,225,143726,1,2,0:0:0:0:
46,225,143821,2,0,P|20:177|57:114,1,111.999996582031,2|0,3:0|3:0,0:0:0:0:
190,279,144011,2,0,P|209:329|183:377,1,111.999996582031,10|0,0:0|0:0,0:0:0:0:
317,108,144201,54,0,L|451:89,1,111.999996582031,2|0,3:0|0:0,0:0:0:0:
512,315,144391,2,0,L|401:299,1,111.999996582031,10|0,0:0|0:0,0:0:0:0:
188,183,144581,101,0,3:0:0:0:
211,172,144675,1,0,3:0:0:0:
235,163,144770,1,0,3:0:0:0:
260,155,144865,1,0,3:0:0:0:
329,182,144960,21,14,3:1:0:0:
271,229,145055,1,0,3:0:0:0:
201,202,145150,1,0,3:0:0:0:
189,128,145245,1,0,3:0:0:0:
251,78,145340,1,0,3:0:0:0:
317,108,145435,1,0,3:0:0:0:
351,180,145530,53,14,3:1:0:0:
430,188,145625,1,0,3:0:0:0:
476,124,145720,1,0,3:0:0:0:
443,52,145815,1,0,3:0:0:0:
363,44,145910,1,0,3:0:0:0:
317,108,146005,1,0,3:0:0:0:
339,189,146100,5,14,1:1:0:0:
292,255,146194,53,0,1:0:0:0:
244,256,146289,53,0,1:0:0:0:
206,228,146384,53,0,1:0:0:0:
201,202,146479,86,0,P|218:171|182:57,1,143.999995605469,6|8,0:2|0:0,0:0:0:0:
177,54,146859,53,2,3:0:0:0:
105,71,146954,1,0,3:0:0:0:
55,126,147049,1,8,0:0:0:0:
46,200,147144,1,0,3:0:0:0:
92,266,147239,53,2,3:0:0:0:
165,254,147334,1,0,0:0:0:0:
239,242,147429,1,8,0:0:0:0:
313,230,147524,1,0,3:0:0:0:
387,267,147619,53,2,0:0:0:0:
378,340,147713,1,0,3:0:0:0:
451,349,147808,1,8,0:0:0:0:
460,276,147903,1,0,0:0:0:0:
381,257,147998,53,6,3:0:0:0:
330,202,148093,1,0,0:0:0:0:
311,130,148188,1,8,0:0:0:0:
329,58,148283,1,0,3:0:0:0:
395,5,148378,53,2,3:0:0:0:
406,79,148473,1,0,3:0:0:0:
480,106,148568,1,8,0:0:0:0:
464,29,148663,1,0,0:0:0:0:
400,90,148758,53,2,3:0:0:0:
328,108,148853,1,0,0:0:0:0:
252,106,148948,1,8,0:0:0:0:
180,84,149043,1,0,3:0:0:0:
113,34,149138,53,2,0:0:0:0:
170,93,149232,1,0,3:0:0:0:
248,120,149327,1,8,0:0:0:0:
330,123,149422,1,0,0:0:0:0:
410,103,149517,54,0,B|449:56|400:6|400:6|349:33,1,143.999995605469,6|8,3:3|0:0,0:0:0:0:
348,37,149897,53,2,3:0:0:0:
328,108,149992,1,0,3:0:0:0:
330,184,150087,1,8,0:0:0:0:
353,255,150182,1,0,3:0:0:0:
414,315,150277,53,2,3:0:0:0:
452,248,150372,1,0,0:0:0:0:
471,170,150467,1,8,0:0:0:0:
467,93,150562,1,0,3:0:0:0:
421,21,150657,53,2,0:0:0:0:
348,37,150751,1,0,3:0:0:0:
272,35,150846,1,8,0:0:0:0:
202,6,150941,1,0,0:0:0:0:
273,51,151036,53,6,3:0:0:0:
256,130,151131,1,0,0:0:0:0:
176,137,151226,1,8,0:0:0:0:
144,63,151321,1,0,3:0:0:0:
171,151,151416,53,2,3:0:0:0:
113,198,151511,1,0,3:0:0:0:
49,159,151606,1,8,0:0:0:0:
65,86,151701,1,0,0:0:0:0:
144,63,151796,53,2,3:0:0:0:
212,89,151891,1,0,0:0:0:0:
288,93,151986,1,8,0:0:0:0:
359,73,152081,1,0,3:0:0:0:
420,17,152175,53,2,0:0:0:0:
372,84,152270,1,0,3:0:0:0:
363,166,152365,1,8,0:0:0:0:
397,241,152460,1,0,0:0:0:0:
464,289,152555,54,0,B|487:306|487:306|519:245|486:192,1,143.999995605469,6|8,3:2|0:0,0:0:0:0:
475,177,152935,53,2,3:0:0:0:
400,186,153030,1,0,3:0:0:0:
325,196,153125,1,8,0:0:0:0:
251,205,153220,1,0,3:0:0:0:
174,215,153315,53,2,3:0:0:0:
248,223,153410,1,0,0:0:0:0:
323,231,153505,1,8,0:0:0:0:
397,241,153600,1,0,3:0:0:0:
477,255,153694,53,2,0:0:0:0:
398,269,153789,1,0,3:0:0:0:
319,283,153884,1,8,0:0:0:0:
240,297,153979,1,0,0:0:0:0:
159,311,154074,53,6,3:0:0:0:
221,270,154169,1,0,0:0:0:0:
261,207,154264,1,8,0:0:0:0:
272,133,154359,1,0,3:0:0:0:
250,58,154454,53,2,3:0:0:0:
197,117,154549,1,0,3:0:0:0:
138,63,154644,1,8,0:0:0:0:
191,4,154739,1,0,0:0:0:0:
253,68,154834,53,2,3:0:0:0:
313,111,154929,1,0,0:0:0:0:
387,120,155024,1,8,0:0:0:0:
457,94,155119,1,0,3:0:0:0:
512,35,155213,53,2,0:0:0:0:
469,106,155308,1,0,3:0:0:0:
391,136,155403,1,8,0:0:0:0:
308,127,155498,1,0,0:0:0:0:
253,68,155593,54,0,P|194:25|119:32,1,143.999995605469,6|8,3:1|0:0,0:0:0:0:
108,43,155973,53,2,3:0:0:0:
154,101,156068,1,0,3:0:0:0:
178,172,156163,1,8,0:0:0:0:
177,247,156258,1,0,3:0:0:0:
152,325,156353,53,2,3:0:0:0:
149,246,156448,1,0,0:0:0:0:
178,172,156543,1,8,0:0:0:0:
234,116,156638,1,0,3:0:0:0:
320,106,156732,53,2,3:0:0:0:
341,181,156827,1,0,3:0:0:0:
416,160,156922,1,8,3:2:0:0:
395,84,157017,1,0,3:0:0:0:
307,110,157112,70,0,L|190:86,1,95.9999970703126,14|0,0:1|3:0,0:0:0:0:
416,290,157302,54,0,L|509:335,1,103.999995239258,10|0,0:1|3:0,0:0:0:0:
298,103,157492,54,0,L|191:49,1,111.999996582031,10|0,0:1|3:0,0:0:0:0:
422,299,157682,54,0,L|516:380,1,120.000004577637,10|0,0:1|3:0,0:0:0:0:
291,93,157872,54,0,L|186:-1,1,128,10|0,0:1|3:0,0:0:0:0:
0,272,158631,22,0,B|88:246|54:297|157:262,1,140.800004296875,6|0,0:2|0:0,0:0:0:0:
228,207,159201,53,0,0:0:0:0:
228,207,159296,1,0,0:0:0:0:
228,207,159391,2,0,P|205:138|235:58,1,140.800004296875,2|0,0:0|0:0,0:0:0:0:
322,18,159960,53,0,0:0:0:0:
322,18,160055,1,0,0:0:0:0:
322,18,160150,2,0,L|479:31,1,140.800004296875,2|0,0:0|0:0,0:0:0:0:
512,120,160720,53,0,0:0:0:0:
512,120,160815,1,0,0:0:0:0:
512,120,160910,1,2,0:0:0:0:
512,120,161289,54,0,L|492:181,3,35.2000010742188,0|0|0|0,0:0|0:0|0:0|0:0,0:0:0:0:
512,182,161669,54,0,P|442:151|369:169,1,153.60000375,10|0,0:0|0:0,0:0:0:0:
297,234,162239,53,0,0:0:0:0:
297,234,162334,1,0,0:0:0:0:
297,234,162429,2,0,P|223:251|154:221,1,153.60000375,2|0,0:0|0:0,0:0:0:0:
118,148,162998,53,0,0:0:0:0:
118,148,163093,1,0,0:0:0:0:
118,148,163188,2,0,P|144:102|105:10,1,153.60000375,2|2,0:0|0:0,0:0:0:0:
28,40,163758,53,0,0:0:0:0:
28,40,163853,1,0,0:0:0:0:
28,40,163948,1,2,0:0:0:0:
28,40,164327,54,0,L|39:92,3,38.4000009375,0|0|0|0,0:0|0:0|0:0|0:0,0:0:0:0:
16,108,164707,54,0,L|213:82,1,163.200000996094,10|0,0:0|0:0,0:0:0:0:
259,161,165277,53,0,0:0:0:0:
259,161,165372,1,0,0:0:0:0:
259,161,165467,2,0,P|240:233|296:319,1,163.200000996094,2|0,0:0|0:0,0:0:0:0:
397,315,166036,53,0,0:0:0:0:
397,315,166131,1,0,0:0:0:0:
397,315,166226,2,0,P|436:245|417:167,1,163.200000996094,2|0,0:0|0:0,0:0:0:0:
346,104,166796,53,0,0:0:0:0:
346,104,166891,1,0,0:0:0:0:
346,104,166986,1,6,0:1:0:0:
346,104,167365,54,0,L|268:89,3,40.8000002490234,0|0|0|0,0:0|0:0|0:0|0:0,0:0:0:0:
246,38,167745,86,0,B|281:97|250:180|183:192|183:192|147:154|176:108,1,287.999991210938,6|0,3:1|0:0,0:0:0:0:
173,106,168125,54,0,B|142:155|180:196|180:196|258:184|287:92|245:28,1,311.999985717774,6|0,3:1|0:0,0:0:0:0:
247,22,168505,54,0,B|297:90|259:187|179:200|179:200|136:156|170:102,1,335.999989746094,6|0,3:1|0:0,0:0:0:0:
167,98,168884,54,0,B|133:158|178:205|178:205|264:190|302:87|249:14,1,360.000013732911,6|0,3:1|0:0,0:0:0:0:
363,71,169264,69,8,2:2:0:0:
425,115,169359,1,8,2:2:0:0:
434,93,169454,1,8,2:1:0:0:
443,70,169549,1,8,2:1:0:0:
505,120,169644,1,8,2:0:0:0:
249,14,170024,53,10,0:3:0:0:
120,193,170213,53,10,0:0:0:0:
111,156,170308,1,8,0:0:0:0:
311,279,170498,53,8,0:3:0:0:
325,256,170593,1,10,0:3:0:0:
128,360,170783,22,0,B|87:357|87:357|67:368|67:368|27:365,1,103.999995239258,6|0,3:2|0:0,0:0:0:0:
311,279,170973,2,0,B|352:276|352:276|372:287|372:287|411:284,1,103.999995239258,8|0,0:0|0:0,0:0:0:0:
190,123,171163,1,0,3:0:0:0:
120,193,171258,1,0,3:0:0:0:
30,151,171353,2,0,B|3:108|3:108|27:60,1,103.999995239258,10|0,0:0|0:0,0:0:0:0:
188,10,171543,54,0,B|318:-5|250:81|381:70,1,207.999990478516,2|8,3:2|0:0,0:0:0:0:
428,175,171827,1,0,3:0:0:0:
506,114,171922,2,0,P|520:79|503:13,1,103.999995239258,2|0,0:0|3:0,0:0:0:0:
294,93,172112,2,0,P|278:141|293:190,1,103.999995239258,10|0,0:0|0:0,0:0:0:0:
409,330,172302,54,0,B|532:318,1,103.999995239258,6|0,3:3|0:0,0:0:0:0:
245,376,172492,2,0,B|122:364,1,103.999995239258,8|0,0:0|0:0,0:0:0:0:
315,194,172682,1,2,3:0:0:0:
401,242,172777,1,0,3:0:0:0:
475,175,172872,2,0,P|490:126|474:77,1,103.999995239258,8|0,0:0|0:0,0:0:0:0:
312,4,173062,54,0,B|186:-5|260:95|125:85,1,207.999990478516,2|8,3:0|0:0,0:0:0:0:
45,185,173346,1,0,3:0:0:0:
2,95,173441,2,0,B|-16:47|-16:47|6:-3,1,103.999995239258,2|0,0:0|3:0,0:0:0:0:
141,217,173631,2,0,B|159:265|159:265|136:314,1,103.999995239258,10|0,0:0|0:0,0:0:0:0:
298,129,173821,54,0,P|310:35|419:22,1,207.999990478516,6|8,3:1|0:0,0:0:0:0:
512,148,174106,1,0,0:0:0:0:
457,230,174201,2,0,B|353:220,1,103.999995239258,2|0,3:0|3:0,0:0:0:0:
309,384,174391,54,0,P|296:286|198:267,1,207.999990478516,10|0,0:0|3:0,0:0:0:0:
115,371,174675,1,0,3:0:0:0:
115,371,174770,2,0,L|245:355,1,103.999995239258,10|0,0:0|3:0,0:0:0:0:
54,155,174960,2,0,L|2:275,1,103.999995239258,2|0,0:3|3:0,0:0:0:0:
282,224,175150,2,0,L|203:119,1,103.999995239258,10|0,0:0|0:0,0:0:0:0:
127,0,175340,86,0,B|160:106|110:96|155:212,1,207.999990478516,6|8,3:1|0:0,0:0:0:0:
479,384,175720,53,2,3:0:0:0:
460,335,175815,1,0,3:0:0:0:
470,283,175910,1,8,0:0:0:0:
398,115,176100,53,2,0:0:0:0:
391,153,176194,1,0,0:0:0:0:
365,183,176289,1,8,0:0:0:0:
327,194,176384,1,0,3:0:0:0:
286,184,176479,2,0,L|206:173,1,80,2|0,0:0|3:0,0:0:0:0:
140,41,176669,2,0,L|60:30,1,80,8|0,0:0|0:0,0:0:0:0:
0,256,176859,86,0,P|94:262|119:170,1,207.999990478516,6|8,3:2|0:0,0:0:0:0:
248,0,177144,1,0,0:0:0:0:
248,0,177239,2,0,B|254:39|254:39|251:62|251:62|263:129,1,103.999995239258,2|0,3:0|3:0,0:0:0:0:
512,239,177429,2,0,P|416:246|391:154,1,207.999990478516,10|0,0:0|3:0,0:0:0:0:
264,327,177713,53,0,0:0:0:0:
264,327,177808,2,0,L|366:341,1,103.999995239258,10|0,0:0|3:0,0:0:0:0:
119,185,177998,2,0,B|77:184|77:184|62:189|62:189|8:186,1,103.999995239258,2|0,0:0|3:0,0:0:0:0:
223,17,178188,2,0,L|335:1,1,103.999995239258,10|0,0:0|0:0,0:0:0:0:
119,185,178378,54,0,L|103:81,1,103.999995239258,6|0,3:0|0:0,0:0:0:0:
395,122,178568,2,0,L|379:224,1,103.999995239258,8|0,0:0|0:0,0:0:0:0:
165,352,178758,1,2,3:0:0:0:
152,265,178853,1,0,3:0:0:0:
136,176,178948,2,0,L|120:73,1,103.999995239258,8|0,0:0|0:0,0:0:0:0:
310,2,179138,54,0,P|302:97|395:122,1,207.999990478516,2|8,3:0|0:0,0:0:0:0:
460,206,179422,1,0,3:0:0:0:
512,123,179517,2,0,B|531:77|531:77|504:29,1,103.999995239258,2|0,0:0|3:0,0:0:0:0:
324,167,179707,2,0,B|305:213|305:213|331:260,1,103.999995239258,8|0,0:0|0:0,0:0:0:0:
483,363,179897,85,6,3:1:0:0:
399,36,180087,1,8,0:0:0:0:
331,260,180277,53,0,3:0:0:0:
370,258,180372,1,0,3:0:0:0:
409,254,180467,1,8,0:0:0:0:
252,30,180657,53,2,3:0:0:0:
150,376,180846,1,8,0:0:0:0:
0,77,181036,53,0,3:0:0:0:
16,68,181131,1,0,3:0:0:0:
33,59,181226,1,0,3:0:0:0:
50,51,181321,1,0,3:0:0:0:
117,7,181416,37,14,3:1:0:0:
124,69,181511,1,0,3:0:0:0:
130,130,181606,1,0,3:0:0:0:
136,192,181701,1,0,3:0:0:0:
142,254,181796,1,0,3:0:0:0:
148,315,181891,1,0,3:0:0:0:
150,376,181986,2,0,B|102:388|102:388|113:329,1,103.999995239258,10|0,3:1|3:0,0:0:0:0:
210,126,182175,53,2,3:1:0:0:
282,101,182270,1,0,3:0:0:0:
354,79,182365,1,0,3:0:0:0:
425,56,182460,1,0,3:0:0:0:
500,36,182555,2,0,P|530:76|507:124,1,103.999995239258,10|0,3:1|3:2,0:0:0:0:
282,101,182745,2,0,P|263:54|293:14,1,103.999995239258,10|0,3:1|3:2,0:0:0:0:
507,219,182935,38,0,L|497:322,1,103.999995239258,6|0,3:2|0:0,0:0:0:0:
264,384,183125,2,0,L|253:266,1,103.999995239258,8|0,0:0|0:0,0:0:0:0:
11,156,183315,1,0,3:0:0:0:
82,224,183410,1,0,3:0:0:0:
168,176,183505,2,0,L|179:58,1,103.999995239258,10|0,0:0|0:0,0:0:0:0:
392,4,183694,54,0,P|296:6|282:101,1,207.999990478516,2|8,3:2|0:0,0:0:0:0:
412,210,183979,1,0,3:0:0:0:
493,144,184074,2,0,B|511:97|511:97|479:41,1,103.999995239258,2|0,0:0|3:0,0:0:0:0:
281,100,184264,2,0,L|149:78,1,103.999995239258,10|0,0:0|0:0,0:0:0:0:
340,308,184454,54,0,L|442:324,1,103.999995239258,6|0,3:0|0:0,0:0:0:0:
177,371,184644,2,0,B|150:324|150:324|168:277,1,103.999995239258,8|0,0:0|0:0,0:0:0:0:
281,100,184834,1,2,3:0:0:0:
369,145,184929,1,0,3:0:0:0:
459,105,185024,2,0,B|477:58|477:58|450:11,1,103.999995239258,8|0,0:0|0:0,0:0:0:0:
281,100,185213,54,0,B|247:221|291:188|260:306,1,207.999990478516,2|8,3:0|0:0,0:0:0:0:
154,384,185498,1,0,3:0:0:0:
71,320,185593,2,0,P|55:274|63:211,1,103.999995239258,2|0,0:0|3:0,0:0:0:0:
177,114,185783,2,0,B|280:100,1,103.999995239258,10|0,0:0|0:0,0:0:0:0:
481,224,185973,54,0,P|478:316|371:320,1,207.999990478516,6|8,3:1|0:0,0:0:0:0:
286,197,186258,1,0,0:0:0:0:
377,146,186353,2,0,B|396:99|396:99|372:47,1,103.999995239258,2|0,3:0|3:0,0:0:0:0:
214,233,186543,2,0,B|245:272|245:272|302:278,1,103.999995239258,10|0,0:0|0:0,0:0:0:0:
220,48,186732,2,0,B|169:55|169:55|136:101,1,103.999995239258,0|0,3:0|0:0,0:0:0:0:
314,299,186922,53,10,0:0:0:0:
401,344,187017,1,0,3:0:0:0:
474,277,187112,2,0,L|468:166,1,103.999995239258,2|0,0:0|3:0,0:0:0:0:
214,151,187302,2,0,L|220:48,1,103.999995239258,10|0,0:0|0:0,0:0:0:0:
0,238,187492,85,6,3:1:0:0:
202,58,187682,53,0,3:0:0:0:
117,44,187777,1,0,3:0:0:0:
31,29,187872,1,0,3:0:0:0:
192,270,188062,53,0,3:0:0:0:
278,261,188157,1,0,3:0:0:0:
364,252,188251,69,0,1:0:0:0:
333,322,188346,1,0,1:0:0:0:
378,384,188441,1,0,1:0:0:0:
454,377,188536,1,0,1:0:0:0:
485,308,188631,53,8,3:1:0:0:
489,296,188694,1,8,3:1:0:0:
491,284,188758,1,8,3:1:0:0:
494,272,188821,2,0,B|502:249|502:249|495:222|495:222|501:183,1,80,10|8,3:1|3:1,0:0:0:0:
499,194,189201,70,0,L|486:90,1,103.999995239258,12|0,0:0|0:0,0:0:0:0:
239,0,189391,1,2,3:0:0:0:
220,93,189486,1,0,3:0:0:0:
292,155,189581,2,0,B|332:149|332:149|346:153|346:153|394:145,1,103.999995239258,8|0,0:0|0:0,0:0:0:0:
122,50,189770,2,0,B|82:44|82:44|68:48|68:48|-9:36,1,103.999995239258,0|0,3:0|0:0,0:0:0:0:
205,195,189960,53,10,0:0:0:0:
290,233,190055,1,0,3:0:0:0:
366,179,190150,2,0,B|406:174|406:174|420:178|420:178|496:166,1,103.999995239258,2|0,0:0|3:0,0:0:0:0:
383,368,190340,2,0,P|394:315|370:266,1,103.999995239258,10|0,0:0|0:0,0:0:0:0:
128,243,190530,54,0,P|105:288|116:338,1,103.999995239258,6|0,3:0|0:0,0:0:0:0:
371,384,190720,2,0,B|495:382,1,103.999995239258,8|0,0:0|0:0,0:0:0:0:
283,144,190910,1,2,3:0:0:0:
205,195,191005,1,0,3:0:0:0:
130,138,191100,2,0,P|107:92|118:42,1,103.999995239258,8|0,0:0|0:0,0:0:0:0:
302,0,191289,54,0,B|440:17|340:74|494:107,1,207.999990478516,2|8,3:0|0:0,0:0:0:0:
352,240,191574,1,0,3:0:0:0:
447,281,191669,2,0,B|466:230|466:230|433:172,1,103.999995239258,2|0,0:0|3:0,0:0:0:0:
268,301,191859,2,0,B|302:342|302:342|352:343,1,103.999995239258,10|0,0:0|0:0,0:0:0:0:
235,83,192049,85,6,3:1:0:0:
98,384,192239,1,8,0:0:0:0:
0,201,192429,53,0,3:0:0:0:
28,197,192524,1,0,3:0:0:0:
56,194,192619,1,8,0:0:0:0:
268,301,192808,53,6,3:1:0:0:
147,9,192998,53,8,0:0:0:0:
111,16,193093,1,8,0:3:0:0:
338,214,193283,53,8,0:3:0:0:
293,203,193378,1,8,0:0:0:0:
423,27,193568,101,2,1:0:0:0:
458,336,193758,1,0,1:0:0:0:
171,212,193948,1,0,1:0:0:0:
423,27,194138,53,2,1:0:0:0:
434,129,194232,53,2,1:0:0:0:
447,232,194327,53,8,1:3:0:0:
423,27,194707,22,0,P|400:101|320:72,1,167.999994873047,10|0,0:0|0:0,0:0:0:0:
241,11,195087,37,14,2:1:0:0:
149,191,195277,1,0,3:0:0:0:
149,191,195372,1,0,3:0:0:0:
149,191,195467,2,0,L|295:176,1,128,10|0,0:0|3:0,0:0:0:0:
140,61,195846,53,10,0:0:0:0:
180,300,196036,1,0,3:0:0:0:
366,323,196226,1,8,0:0:0:0:
326,84,196416,1,0,3:0:0:0:
277,178,196606,53,10,0:0:0:0:
435,263,196796,1,0,3:0:0:0:
435,263,196891,1,0,3:0:0:0:
435,263,196986,2,0,L|447:115,1,128,10|0,0:0|3:0,0:0:0:0:
260,0,197365,53,10,0:0:0:0:
101,174,197555,1,2,3:1:0:0:
88,154,197650,1,2,3:0:0:0:
143,102,197745,2,0,L|292:80,1,128,10|0,0:0|3:0,0:0:0:0:
43,22,198125,53,14,0:1:0:0:
251,210,198315,1,0,3:0:0:0:
251,210,198410,1,0,3:0:0:0:
251,210,198505,2,0,L|272:68,1,128,10|0,0:0|3:0,0:0:0:0:
149,191,198884,53,10,0:0:0:0:
369,253,199074,1,0,3:0:0:0:
479,279,199264,53,10,0:0:0:0:
181,366,199454,1,0,3:0:0:0:
382,112,199644,53,14,0:1:0:0:
310,370,199834,1,0,3:0:0:0:
310,370,199929,1,0,3:0:0:0:
310,370,200024,2,0,L|279:228,1,128,14|0,0:1|3:0,0:0:0:0:
252,169,200403,53,8,0:0:0:0:
108,310,200593,86,0,P|126:315|137:291,1,32,2|0,3:0|0:0,0:0:0:0:
65,221,200783,2,0,P|51:234|66:255,1,32,10|0,0:0|0:0,0:0:0:0:
163,228,200973,2,0,P|158:209|132:212,1,32,2|0,3:0|0:0,0:0:0:0:
0,150,201163,53,14,0:1:0:0:
169,63,201353,1,0,3:0:0:0:
169,63,201448,1,0,3:0:0:0:
169,63,201543,2,0,L|25:45,1,128,8|0,0:0|3:0,0:0:0:0:
255,1,201922,53,8,0:0:0:0:
364,151,202112,54,0,P|379:153|394:147,1,32,2|0,3:0|0:0,0:0:0:0:
465,72,202302,2,0,P|477:52|468:27,1,32,10|0,0:0|0:0,0:0:0:0:
494,170,202492,54,0,P|499:184|511:194,1,32,2|0,3:0|0:0,0:0:0:0:
372,49,202682,2,0,P|363:36|349:29,1,32,10|0,0:0|0:0,0:0:0:0:
238,200,202872,53,0,3:0:0:0:
243,224,202967,1,0,3:0:0:0:
248,249,203062,1,8,0:0:0:0:
142,94,203251,53,2,3:0:0:0:
101,151,203346,1,2,3:0:0:0:
36,123,203441,1,10,0:0:0:0:
224,0,203631,53,6,3:1:0:0:
253,272,203821,1,8,0:0:0:0:
449,209,204011,53,2,3:0:0:0:
441,188,204106,1,2,3:0:0:0:
371,227,204201,1,14,0:1:0:0:
419,10,204391,53,0,3:0:0:0:
424,35,204486,1,0,3:0:0:0:
429,60,204581,1,8,0:0:0:0:
163,165,204770,53,2,3:0:0:0:
378,253,204960,2,0,L|531:235,1,128,10|0,0:0|3:0,0:0:0:0:
409,325,205245,1,2,3:0:0:0:
331,315,205340,2,0,L|178:297,1,128,10|0,0:0|3:0,0:0:0:0:
265,35,205720,53,14,0:1:0:0:
378,253,205910,1,0,3:0:0:0:
415,242,206005,1,0,3:0:0:0:
445,218,206100,2,0,P|464:135|432:97,1,128,14|0,0:1|0:0,0:0:0:0:
169,0,206479,53,10,0:0:0:0:
90,278,206669,1,0,3:0:0:0:
48,384,206859,53,10,0:0:0:0:
0,43,207049,1,0,3:0:0:0:
90,278,207239,85,14,3:1:0:0:
225,179,207429,1,0,3:0:0:0:
225,179,207524,1,0,3:0:0:0:
225,179,207619,2,0,L|60:168,1,143.999995605469,10|0,0:0|3:0,0:0:0:0:
278,43,207998,53,10,0:0:0:0:
330,261,208188,1,0,3:3:0:0:
502,218,208378,1,8,0:0:0:0:
450,0,208568,1,0,3:3:0:0:
325,170,208758,53,10,0:0:0:0:
488,361,208948,1,0,3:0:0:0:
488,361,209043,1,0,3:0:0:0:
488,361,209138,2,0,L|502:210,1,143.999995605469,10|0,0:0|3:0,0:0:0:0:
278,43,209517,53,10,0:0:0:0:
182,195,209707,1,2,0:0:0:0:
174,176,209802,1,2,0:0:0:0:
102,145,209897,2,0,L|119:-1,1,143.999995605469,10|0,0:0|3:0,0:0:0:0:
298,247,210277,53,14,0:1:0:0:
143,359,210467,1,0,3:0:0:0:
143,359,210562,1,0,3:0:0:0:
143,359,210657,2,0,L|-7:348,1,143.999995605469,10|0,0:0|3:0,0:0:0:0:
206,66,211036,53,10,0:0:0:0:
308,276,211226,1,0,3:0:0:0:
344,368,211416,53,10,0:0:0:0:
399,68,211606,1,0,3:0:0:0:
512,257,211796,53,14,0:1:0:0:
271,176,211986,1,0,3:0:0:0:
271,176,212081,1,0,3:0:0:0:
271,176,212175,2,0,L|416:161,1,143.999995605469,14|0,0:1|3:0,0:0:0:0:
223,25,212555,53,10,0:0:0:0:
75,246,212745,1,0,3:1:0:0:
76,12,212935,1,8,0:0:0:0:
218,296,213125,85,2,3:0:0:0:
231,278,213220,1,2,3:0:0:0:
182,217,213315,1,14,0:1:0:0:
291,27,213505,53,0,3:0:0:0:
303,64,213600,1,0,3:0:0:0:
318,101,213694,2,0,B|386:137|386:137|474:85,1,160,10|0,0:0|3:0,0:0:0:0:
262,0,214074,53,8,0:0:0:0:
182,217,214264,1,0,3:0:0:0:
0,59,214454,54,0,L|171:42,1,160,10|0,0:0|3:0,0:0:0:0:
342,233,214834,2,0,L|171:216,1,160,10|0,0:1|3:0,0:0:0:0:
174,239,215119,1,0,3:0:0:0:
166,261,215213,1,8,0:0:0:0:
30,383,215403,53,2,3:0:0:0:
7,331,215498,1,2,3:0:0:0:
22,277,215593,1,10,0:0:0:0:
140,29,215783,53,6,3:1:0:0:
238,364,215973,1,8,0:0:0:0:
492,273,216163,1,0,3:0:0:0:
349,148,216353,37,14,3:1:0:0:
301,143,216448,1,0,3:0:0:0:
253,138,216543,1,0,3:0:0:0:
205,133,216638,1,0,3:0:0:0:
126,112,216732,101,10,3:1:0:0:
163,66,216827,1,0,3:0:0:0:
118,29,216922,1,0,3:0:0:0:
81,73,217017,1,0,3:0:0:0:
125,141,217112,37,10,3:1:0:0:
75,203,217207,1,0,3:0:0:0:
0,174,217302,1,0,3:0:0:0:
4,94,217397,1,0,3:0:0:0:
81,73,217492,54,0,B|106:57|135:60|135:60|170:48|167:11|167:11|139:8|123:17|117:32,1,176.000005371094,14|0,3:1|3:0,0:0:0:0:
369,0,219011,53,14,0:1:0:0:
432,384,219201,1,14,0:1:0:0:
229,137,219391,102,0,L|127:128,1,88.000002685547,6|0,3:2|0:0,0:0:0:0:
411,285,219581,2,0,L|513:294,1,88.000002685547,10|0,0:0|0:0,0:0:0:0:
319,162,219770,53,2,3:0:0:0:
291,229,219865,1,0,3:0:0:0:
222,251,219960,1,8,0:0:0:0:
160,213,220055,1,0,0:0:0:0:
142,130,220150,53,2,3:0:0:0:
216,157,220245,1,0,0:0:0:0:
243,83,220340,1,8,0:0:0:0:
169,56,220435,1,0,3:0:0:0:
132,141,220530,53,2,0:0:0:0:
61,185,220625,1,0,3:0:0:0:
17,114,220720,1,8,0:0:0:0:
88,70,220815,1,0,0:0:0:0:
132,141,220910,53,6,3:3:0:0:
199,173,221005,1,0,0:0:0:0:
273,183,221100,1,8,0:0:0:0:
348,169,221194,1,0,0:0:0:0:
412,121,221289,53,2,3:0:0:0:
339,156,221384,1,0,3:0:0:0:
306,230,221479,1,8,0:0:0:0:
322,308,221574,1,0,0:0:0:0:
381,369,221669,53,2,3:0:0:0:
400,295,221764,1,0,0:0:0:0:
473,274,221859,1,8,0:0:0:0:
454,347,221954,1,0,3:0:0:0:
395,282,222049,53,2,0:0:0:0:
430,206,222144,1,0,3:0:0:0:
379,139,222239,1,8,0:0:0:0:
421,66,222334,1,0,0:0:0:0:
344,9,222429,54,0,B|240:-2,1,88.000002685547,6|0,3:1|0:0,0:0:0:0:
175,210,222619,2,0,B|262:200,1,88.000002685547,10|0,0:0|0:0,0:0:0:0:
66,44,222808,53,2,3:0:0:0:
0,82,222903,1,0,3:0:0:0:
17,156,222998,1,8,0:0:0:0:
91,162,223093,1,0,0:0:0:0:
175,210,223188,53,2,3:0:0:0:
168,288,223283,1,0,0:0:0:0:
91,308,223378,1,8,0:0:0:0:
50,241,223473,1,0,3:0:0:0:
96,149,223568,53,2,0:0:0:0:
167,105,223663,1,0,3:0:0:0:
146,23,223758,1,8,0:0:0:0:
457,114,223948,21,6,0:3:0:0:
366,220,224074,1,0,0:0:0:0:
249,140,224201,1,0,0:0:0:0:
461,149,224327,53,2,3:0:0:0:
353,225,224454,1,0,0:0:0:0:
262,120,224581,1,0,0:0:0:0:
457,185,224707,53,2,3:0:0:0:
340,228,224834,1,0,0:0:0:0:
280,107,224960,1,0,0:0:0:0:
446,217,225087,53,2,0:0:0:0:
328,228,225213,1,0,0:0:0:0:
299,97,225340,1,0,0:0:0:0:
430,38,225467,86,0,L|528:25,1,88.000002685547,6|0,3:2|0:0,0:0:0:0:
280,107,225657,2,0,P|273:49|249:5,1,88.000002685547,8|0,0:0|0:0,0:0:0:0:
243,266,225846,2,0,P|246:309|262:350,1,88.000002685547,0|0,3:0|0:0,0:0:0:0:
130,140,226036,53,10,0:0:0:0:
59,193,226131,1,0,0:0:0:0:
0,127,226226,2,0,P|3:83|19:42,1,88.000002685547,2|0,3:0|0:0,0:0:0:0:
143,256,226416,2,0,P|139:299|123:340,1,88.000002685547,10|0,0:0|3:0,0:0:0:0:
297,111,226606,54,0,L|414:97,1,88.000002685547,2|0,0:0|3:0,0:0:0:0:
425,291,226796,2,0,L|512:301,1,88.000002685547,10|0,0:0|0:0,0:0:0:0:
370,89,226986,54,0,B|314:78|314:78|275:85|275:85|178:64,1,176.000005371094,6|8,0:1|0:0,0:0:0:0:
287,323,227365,1,2,3:0:0:0:
368,359,227460,1,0,3:0:0:0:
425,291,227555,2,0,B|445:254|445:254|434:203,1,88.000002685547,8|0,0:0|0:0,0:0:0:0:
359,74,227745,54,0,B|269:52|288:117|168:73,1,176.000005371094,2|8,3:3|0:0,0:0:0:0:
43,23,228030,1,0,3:0:0:0:
43,23,228125,2,0,B|139:4,1,88.000002685547,2|0,0:0|3:0,0:0:0:0:
260,189,228315,21,10,0:0:0:0:
195,248,228410,1,0,0:0:0:0:
116,208,228505,2,0,P|101:164|131:105,1,88.000002685547,6|0,3:1|0:0,0:0:0:0:
257,55,228694,53,10,0:0:0:0:
275,103,228789,1,0,0:0:0:0:
318,115,228884,1,0,3:0:0:0:
350,93,228979,1,0,3:0:0:0:
359,74,229074,2,0,L|366:17,1,55.9999982910157,10|0,0:0|0:0,0:0:0:0:
427,147,229264,54,0,P|503:169|486:283,1,176.000005371094,6|8,3:3|0:0,0:0:0:0:
354,368,229644,5,0,3:0:0:0:
327,364,229739,1,0,3:0:0:0:
301,361,229834,1,0,3:0:0:0:
275,358,229929,1,0,3:0:0:0:
202,380,230024,85,14,3:1:0:0:
216,307,230119,1,2,3:0:0:0:
230,234,230213,2,0,L|208:136,1,95.9999970703126,2|0,3:0|3:0,0:0:0:0:
32,5,230403,53,6,3:3:0:0:
16,82,230498,1,2,3:0:0:0:
0,160,230593,2,0,L|22:264,1,103.999995239258,8|0,3:2|3:0,0:0:0:0:
305,178,230783,54,0,L|279:60,1,111.999996582031,6|0,3:1|3:0,0:0:0:0:
18,166,230973,54,0,L|43:283,1,111.999996582031,10|0,3:3|3:0,0:0:0:0:
379,120,231163,54,0,L|353:2,1,120.000004577637,14|0,3:1|3:0,0:0:0:0:
36,172,231353,54,0,L|61:289,1,120.000004577637,10|0,3:3|3:0,0:0:0:0:
308,335,231543,38,0,B|335:328|335:328|355:337|355:337|415:325,1,95.9999970703126,6|0,3:2|0:0,0:0:0:0:
128,179,231732,2,0,B|101:172|101:172|81:181|81:181|21:169,1,95.9999970703126,10|0,0:0|0:0,0:0:0:0:
259,44,231922,53,2,3:0:0:0:
303,106,232017,1,0,3:0:0:0:
379,120,232112,1,8,0:0:0:0:
443,78,232207,1,0,0:0:0:0:
476,6,232302,53,2,3:0:0:0:
430,72,232397,1,0,0:0:0:0:
425,152,232492,1,8,0:0:0:0:
457,225,232587,1,0,3:0:0:0:
512,286,232682,53,2,0:0:0:0:
445,234,232777,1,0,3:0:0:0:
367,264,232872,1,8,0:0:0:0:
300,212,232967,1,0,0:0:0:0:
212,234,233062,53,6,3:3:0:0:
197,311,233157,1,0,0:0:0:0:
120,296,233251,1,8,0:0:0:0:
135,219,233346,1,0,0:0:0:0:
219,217,233441,53,2,3:0:0:0:
251,143,233536,1,0,3:0:0:0:
191,89,233631,1,8,0:0:0:0:
122,130,233726,1,0,0:0:0:0:
186,79,233821,53,2,3:0:0:0:
161,6,233916,1,0,0:0:0:0:
83,7,234011,1,8,0:0:0:0:
59,81,234106,1,0,3:0:0:0:
123,141,234201,53,2,0:0:0:0:
191,89,234296,1,0,3:0:0:0:
261,137,234391,1,8,0:0:0:0:
327,83,234486,1,0,0:0:0:0:
397,151,234581,54,0,L|421:255,1,95.9999970703126,6|0,3:1|0:0,0:0:0:0:
191,89,234770,2,0,L|167:-15,1,95.9999970703126,10|0,0:0|0:0,0:0:0:0:
1,254,234960,53,2,3:0:0:0:
4,175,235055,1,0,3:0:0:0:
79,154,235150,1,8,0:0:0:0:
121,218,235245,1,0,0:0:0:0:
216,261,235340,53,2,3:0:0:0:
283,214,235435,1,0,0:0:0:0:
261,137,235530,1,8,0:0:0:0:
181,134,235625,1,0,3:0:0:0:
123,228,235720,53,2,0:0:0:0:
42,251,235815,1,0,3:0:0:0:
4,175,235910,1,8,0:0:0:0:
238,1,236100,21,6,0:3:0:0:
270,124,236226,1,0,0:0:0:0:
386,177,236353,1,0,0:0:0:0:
262,17,236479,53,2,3:0:0:0:
261,137,236606,1,0,0:0:0:0:
354,214,236732,1,0,0:0:0:0:
279,38,236859,53,2,3:0:0:0:
249,147,236986,1,0,0:0:0:0:
315,239,237112,1,0,0:0:0:0:
289,62,237239,53,2,0:0:0:0:
236,153,237365,1,0,0:0:0:0:
273,252,237492,1,0,0:0:0:0:
406,317,237619,86,0,L|508:310,1,95.9999970703126,6|0,3:2|3:2,0:0:0:0:
264,265,237808,2,0,L|161:271,1,95.9999970703126,8|0,3:2|3:2,0:0:0:0:
417,330,237998,2,0,L|519:323,1,95.9999970703126,0|0,3:2|3:2,0:0:0:0:
306,93,238188,53,10,3:2:0:0:
236,153,238283,1,2,3:2:0:0:
162,91,238378,2,0,B|146:49|146:49|173:-12,1,95.9999970703126,2|0,3:2|3:2,0:0:0:0:
390,93,238568,2,0,B|408:140|408:140|379:196,1,95.9999970703126,10|0,3:2|3:2,0:0:0:0:
168,271,238758,54,0,B|132:266|132:266|115:273|115:273|73:269,1,95.9999970703126,2|0,3:2|3:2,0:0:0:0:
322,331,238948,2,0,B|358:326|358:326|375:333|375:333|416:329,1,95.9999970703126,10|0,3:2|3:2,0:0:0:0:
152,176,239138,54,0,L|134:63,1,95.9999970703126,2|0,3:2|3:2,0:0:0:0:
78,189,239327,2,0,L|60:76,1,95.9999970703126,8|0,3:2|3:2,0:0:0:0:
379,239,239517,54,0,L|397:126,1,95.9999970703126,2|0,3:2|3:2,0:0:0:0:
453,252,239707,2,0,L|471:139,1,95.9999970703126,8|0,3:2|3:2,0:0:0:0:
168,271,239897,54,0,L|150:158,1,95.9999970703126,2|0,3:2|3:2,0:0:0:0:
94,284,240087,2,0,L|76:171,1,95.9999970703126,8|0,3:2|3:2,0:0:0:0:
364,334,240277,54,0,L|382:221,1,95.9999970703126,2|0,3:2|3:2,0:0:0:0:
216,108,240467,21,10,0:0:0:0:
153,177,240562,1,2,0:0:0:0:
80,116,240657,2,0,P|63:76|83:11,1,103.999995239258,6|0,0:1|0:0,0:0:0:0:
293,0,240846,53,10,0:0:0:0:
303,42,240941,1,0,3:0:0:0:
339,69,241036,1,0,3:0:0:0:
369,74,241131,1,0,3:0:0:0:
388,69,241226,2,0,P|424:55|453:48,1,55.9999982910157,0|0,3:0|3:0,0:0:0:0:
118,257,241416,54,0,P|69:268|-3:235,1,103.999995239258,14|0,3:1|0:0,0:0:0:0:
393,171,241606,2,0,P|442:160|514:193,1,103.999995239258,2|0,3:0|0:0,0:0:0:0:
249,384,241796,69,0,3:0:0:0:
255,359,241891,1,0,3:0:0:0:
260,334,241986,1,0,3:0:0:0:
264,308,242081,1,0,3:0:0:0:
308,243,242175,101,14,3:1:0:0:
343,313,242270,1,0,3:0:0:0:
298,379,242365,1,0,3:0:0:0:
219,374,242460,1,0,3:0:0:0:
186,303,242555,1,0,3:0:0:0:
228,238,242650,1,0,3:0:0:0:
305,205,242745,37,14,3:1:0:0:
316,122,242840,1,0,3:0:0:0:
249,72,242935,1,0,3:0:0:0:
174,103,243030,1,0,3:0:0:0:
164,186,243125,1,0,3:0:0:0:
228,238,243220,1,0,3:0:0:0:
322,200,243315,54,0,B|365:194|365:194|382:202|382:202|465:195,1,120.000004577637,14|0,0:1|0:0,0:0:0:0:
122,8,243505,2,0,B|79:2|79:2|62:10|62:10|-21:3,1,120.000004577637,14|0,0:1|0:0,0:0:0:0:
