osu file format v14

[General]
AudioFilename: audio.mp3
AudioLeadIn: 0
PreviewTime: 48410
Countdown: 0
SampleSet: Soft
StackLeniency: 0.7
Mode: 0
LetterboxInBreaks: 0
WidescreenStoryboard: 1

[Editor]
DistanceSpacing: 0.9
BeatDivisor: 4
GridSize: 32
TimelineZoom: 1.8

[Metadata]
Title:ito
TitleUnicode:絃-ito-
Artist:Emiru no Aishita Tsukiyo ni Dai San Gensou Kyoku wo
ArtistUnicode:エミルの愛した月夜に第III幻想曲を
Creator:Lasse
Version:Normal
Source:
Tags:japanese metal rock doujin Emille's Moonlight Serenade サラ Sara 荊 いばら Ibara
BeatmapID:2255708
BeatmapSetID:1077982

[Difficulty]
HPDrainRate:4
CircleSize:3.4
OverallDifficulty:5
ApproachRate:6
SliderMultiplier:1.2
SliderTickRate:1

[Events]
//Background and Video events
0,0,"bgfixed.jpg",0,0
//Break Periods
2,43388,45176
2,85919,93784
2,104147,105936
2,158631,166695
//Storyboard Layer 0 (Background)
//Storyboard Layer 1 (Fail)
//Storyboard Layer 2 (Pass)
//Storyboard Layer 3 (Foreground)
//Storyboard Layer 4 (Overlay)
//Storyboard Sound Samples

[TimingPoints]
657,379.746835443038,4,2,4,70,1,0
6732,-166.666666666667,4,2,4,70,0,0
7302,-166.666666666667,4,2,4,55,0,0
7492,-166.666666666667,4,2,4,5,0,0
7872,-166.666666666667,4,2,4,40,0,0
8251,-166.666666666667,4,2,4,70,0,0
8821,-166.666666666667,4,2,4,55,0,0
9011,-166.666666666667,4,2,4,5,0,0
9391,-166.666666666667,4,2,4,40,0,0
9770,-166.666666666667,4,2,4,70,0,0
10340,-166.666666666667,4,2,4,55,0,0
10530,-166.666666666667,4,2,4,5,0,0
10910,-166.666666666667,4,2,4,40,0,0
11289,-111.111111111111,4,2,2,60,0,0
11479,-111.111111111111,4,2,2,58,0,0
11574,-111.111111111111,4,2,2,60,0,0
11764,-111.111111111111,4,2,2,58,0,0
11859,-111.111111111111,4,2,2,60,0,0
12049,-111.111111111111,4,2,2,62,0,0
12144,-111.111111111111,4,2,2,64,0,0
12239,-111.111111111111,4,2,2,66,0,0
12334,-111.111111111111,4,2,2,68,0,0
12429,-111.111111111111,4,2,2,70,0,0
12808,-100,4,2,4,75,0,0
22492,-100,4,2,4,75,0,0
22587,-100,4,2,4,68,0,0
22682,-100,4,2,4,70,0,0
22872,-100,4,2,4,66,0,0
23441,-100,4,2,4,68,0,0
24011,-100,4,2,4,70,0,0
24581,-100,4,2,4,72,0,0
24960,-111.111111111111,4,2,4,70,0,0
26479,-111.111111111111,4,2,4,50,0,0
27998,-111.111111111111,4,2,4,70,0,0
29422,-111.111111111111,4,2,4,60,0,0
29517,-111.111111111111,4,2,4,50,0,0
31036,-111.111111111111,4,2,4,70,0,0
32460,-111.111111111111,4,2,4,60,0,0
32555,-111.111111111111,4,2,4,50,0,0
34074,-111.111111111111,4,2,4,70,0,0
36353,-125,4,2,4,69,0,0
36448,-125,4,2,4,68,0,0
36543,-125,4,2,4,67,0,0
36638,-125,4,2,4,66,0,0
36732,-125,4,2,4,65,0,0
36827,-125,4,2,4,64,0,0
36922,-125,4,2,4,63,0,0
37017,-125,4,2,4,62,0,0
37112,-142.857142857143,4,2,4,60,0,0
37492,-142.857142857143,4,2,4,55,0,0
42619,-142.857142857143,4,2,5,57,0,0
42808,-142.857142857143,4,2,5,54,0,0
42998,-142.857142857143,4,2,5,56,0,0
43188,-142.857142857143,4,2,4,48,0,0
46226,-100,4,2,4,68,0,0
46511,-100,4,2,43,5,0,0
46606,-100,4,2,4,70,0,0
46891,-100,4,2,43,5,0,0
46986,-100,4,2,4,72,0,0
47270,-100,4,2,43,5,0,0
47365,-100,4,2,4,74,0,0
47650,-100,4,2,43,5,0,0
47745,-111.111111111111,4,2,2,70,0,0
48505,-111.111111111111,4,2,2,60,0,0
48694,-111.111111111111,4,2,2,62,0,0
48979,-111.111111111111,4,2,2,64,0,0
49264,-90.9090909090909,4,2,4,80,0,1
54581,-90.9090909090909,4,2,4,80,0,1
55340,-90.9090909090909,4,2,4,80,0,1
59517,-90.9090909090909,4,2,4,75,0,1
59897,-90.9090909090909,4,2,4,80,0,1
61321,-90.9090909090909,4,2,4,80,0,0
61416,-90.9090909090909,4,2,4,80,0,1
67112,-90.9090909090909,4,2,2,75,0,0
67492,-90.9090909090909,4,2,2,60,0,0
67682,-90.9090909090909,4,2,4,80,0,1
72619,-90.9090909090909,4,2,4,78,0,1
72713,-90.9090909090909,4,2,4,76,0,1
72808,-90.9090909090909,4,2,4,76,0,0
73188,-100,4,2,5,74,0,0
73473,-100,4,2,4,50,0,0
73568,-100,4,2,4,75,0,0
83251,-100,4,2,4,75,0,0
83346,-100,4,2,4,68,0,0
83441,-100,4,2,4,70,0,0
83631,-100,4,2,4,66,0,0
84201,-100,4,2,4,68,0,0
84770,-100,4,2,4,70,0,0
85340,-100,4,2,4,68,0,0
85435,-100,4,2,4,66,0,0
85530,-100,4,2,4,64,0,0
85625,-100,4,2,4,62,0,0
85720,-133.333333333333,4,2,2,60,0,0
86289,-133.333333333333,4,2,2,40,0,0
94834,-133.333333333333,4,2,43,38,0,0
94929,-166.666666666667,4,2,43,10,0,0
96353,-166.666666666667,4,2,43,30,0,0
97049,-200,4,2,43,44,0,0
97112,-200,4,2,43,40,0,0
97175,-200,4,2,43,36,0,0
97872,-142.857142857143,4,2,4,55,0,0
103378,-142.857142857143,4,2,5,57,0,0
103568,-142.857142857143,4,2,5,54,0,0
103758,-142.857142857143,4,2,5,58,0,0
103948,-142.857142857143,4,2,4,48,0,0
106986,-111.111111111111,4,2,4,68,0,0
107270,-111.111111111111,4,2,43,5,0,0
107365,-111.111111111111,4,2,4,70,0,0
107650,-111.111111111111,4,2,43,5,0,0
107745,-111.111111111111,4,2,4,72,0,0
108030,-111.111111111111,4,2,43,5,0,0
108125,-111.111111111111,4,2,4,74,0,0
108410,-111.111111111111,4,2,43,5,0,0
108505,-111.111111111111,4,2,2,70,0,0
109264,-133.333333333333,4,2,2,60,0,0
109454,-133.333333333333,4,2,2,62,0,0
109739,-133.333333333333,4,2,2,64,0,0
110024,-90.9090909090909,4,2,4,80,0,1
115340,-90.9090909090909,4,2,4,80,0,1
116100,-90.9090909090909,4,2,4,80,0,1
120277,-90.9090909090909,4,2,4,75,0,1
120657,-90.9090909090909,4,2,4,80,0,1
122081,-90.9090909090909,4,2,4,80,0,0
122175,-90.9090909090909,4,2,4,80,0,1
127872,-117.647058823529,4,2,2,75,0,0
128062,-200,4,2,2,70,0,0
128251,-200,4,2,2,60,0,0
128441,-90.9090909090909,4,2,4,80,0,1
133378,-90.9090909090909,4,2,4,78,0,1
133473,-90.9090909090909,4,2,4,76,0,1
133948,-100,4,2,5,74,0,0
134233,-100,4,2,4,50,0,0
134327,-90.9090909090909,4,2,4,80,0,1
140403,-90.9090909090909,4,2,4,80,0,1
141163,-90.9090909090909,4,2,4,80,0,1
141922,-90.9090909090909,4,2,4,80,0,1
142682,-90.9090909090909,4,2,4,80,0,1
143062,-90.9090909090909,4,2,4,80,0,1
143441,-90.9090909090909,4,2,4,80,0,1
144581,-90.9090909090909,4,2,4,76,0,1
144960,-90.9090909090909,4,2,4,78,0,1
145530,-90.9090909090909,4,2,4,80,0,1
146100,-100,4,2,4,82,0,1
146194,-90.9090909090909,4,2,4,80,0,1
146289,-90.9090909090909,4,2,4,78,0,1
146384,-90.9090909090909,4,2,4,76,0,1
146479,-100,4,2,4,74,0,0
146859,-100,4,2,4,74,0,0
149517,-100,4,2,4,74,0,0
149897,-100,4,2,4,74,0,0
152555,-100,4,2,4,74,0,0
152935,-100,4,2,4,74,0,0
155593,-100,4,2,4,74,0,0
155973,-100,4,2,4,74,0,0
157112,-100,4,2,4,75,0,0
157207,-100,4,2,4,74,0,0
157302,-100,4,2,4,76,0,0
157397,-100,4,2,4,74,0,0
157492,-100,4,2,4,77,0,0
157587,-100,4,2,4,74,0,0
157682,-100,4,2,4,78,0,0
157777,-100,4,2,4,74,0,0
157872,-100,4,2,4,80,0,0
157967,-100,4,2,4,74,0,0
158631,-227.272727272727,4,2,4,52,0,0
161289,-227.272727272727,4,2,4,50,0,0
161669,-208.333333333333,4,2,5,54,0,0
162049,-208.333333333333,4,2,4,54,0,0
164327,-208.333333333333,4,2,4,50,0,0
164707,-196.078431372549,4,2,5,56,0,0
165087,-196.078431372549,4,2,4,56,0,0
167365,-196.078431372549,4,2,4,52,0,0
167745,-111.111111111111,4,2,4,68,0,0
168030,-111.111111111111,4,2,43,5,0,0
168125,-111.111111111111,4,2,4,70,0,0
168410,-111.111111111111,4,2,43,5,0,0
168505,-111.111111111111,4,2,4,72,0,0
168789,-111.111111111111,4,2,43,5,0,0
168884,-111.111111111111,4,2,4,74,0,0
169169,-111.111111111111,4,2,43,5,0,0
169264,-111.111111111111,4,2,2,70,0,0
170024,-133.333333333333,4,2,2,60,0,0
170213,-133.333333333333,4,2,2,62,0,0
170498,-133.333333333333,4,2,2,64,0,0
170783,-90.9090909090909,4,2,4,80,0,1
176100,-90.9090909090909,4,2,4,80,0,1
176859,-90.9090909090909,4,2,4,80,0,1
181036,-90.9090909090909,4,2,4,75,0,1
181416,-90.9090909090909,4,2,4,80,0,1
182840,-90.9090909090909,4,2,4,80,0,0
182935,-90.9090909090909,4,2,4,80,0,1
188631,-117.647058823529,4,2,2,75,0,0
188821,-90.9090909090909,4,2,2,70,0,0
189011,-90.9090909090909,4,2,2,60,0,0
189201,-90.9090909090909,4,2,4,80,0,1
194138,-90.9090909090909,4,2,4,78,0,1
194232,-90.9090909090909,4,2,4,76,0,1
194707,-100,4,2,5,64,0,0
194992,-111.111111111111,4,2,5,50,0,0
195087,-111.111111111111,4,2,4,72,0,0
200641,-111.111111111111,4,2,43,10,0,0
200783,-111.111111111111,4,2,4,72,0,0
200831,-111.111111111111,4,2,43,10,0,0
200973,-111.111111111111,4,2,4,72,0,0
201020,-111.111111111111,4,2,43,10,0,0
201163,-111.111111111111,4,2,4,72,0,0
202160,-111.111111111111,4,2,43,10,0,0
202302,-111.111111111111,4,2,4,72,0,0
202350,-111.111111111111,4,2,43,10,0,0
202492,-111.111111111111,4,2,4,72,0,0
202539,-111.111111111111,4,2,43,10,0,0
202682,-111.111111111111,4,2,4,72,0,0
202729,-111.111111111111,4,2,43,10,0,0
202872,-111.111111111111,4,2,4,72,0,0
203631,-111.111111111111,4,2,4,68,0,0
203821,-111.111111111111,4,2,4,70,0,0
204011,-111.111111111111,4,2,4,72,0,0
207239,-111.111111111111,4,2,4,74,0,0
213315,-111.111111111111,4,2,4,74,0,0
216732,-111.111111111111,4,2,4,76,0,0
217112,-111.111111111111,4,2,4,78,0,0
217492,-111.111111111111,4,2,4,80,0,0
217682,-111.111111111111,4,2,4,70,0,0
219011,-100,4,2,4,70,0,0
219391,-100,4,2,4,75,0,0
228694,-100,4,2,4,75,0,0
229169,-100,4,2,4,68,0,0
229264,-100,4,2,4,70,0,0
229454,-100,4,2,4,66,0,0
230024,-100,4,2,4,74,0,0
230403,-100,4,2,4,76,0,0
230783,-100,4,2,4,78,0,0
231163,-100,4,2,4,80,0,0
231543,-100,4,2,4,78,0,0
240467,-100,4,2,4,78,0,0
240657,-100,4,2,4,78,0,0
241226,-100,4,2,4,78,0,0
241321,-100,4,2,4,68,0,0
241416,-100,4,2,4,78,0,0
241511,-100,4,2,4,76,0,0
241606,-100,4,2,4,74,0,0
241701,-100,4,2,4,72,0,0
241796,-100,4,2,4,70,0,0
242175,-100,4,2,4,74,0,0
242745,-100,4,2,4,77,0,0
243315,-100,4,2,4,80,0,0
243410,-100,4,2,4,70,0,0
243505,-100,4,2,4,80,0,0
243600,-100,4,2,4,70,0,0

[Colours]
Combo1 : 255,120,195
Combo2 : 190,180,230
Combo3 : 215,220,255
Combo4 : 140,220,255
Combo5 : 255,120,245
Combo6 : 245,175,255
Combo7 : 250,210,255
Combo8 : 120,180,255

[HitObjects]
102,38,6732,53,6,3:1:0:0:
102,38,6922,1,6,3:1:0:0:
270,76,8251,101,4,3:1:0:0:
270,76,8441,1,4,3:1:0:0:
111,143,9770,69,4,3:1:0:0:
111,143,9960,1,4,3:1:0:0:
270,202,11289,6,0,P|286:162|271:103,2,80.9999975280763,12|8|8,0:0|0:0|0:0,0:0:0:0:
242,248,12049,2,0,P|223:290|253:348,1,107.999996704102,0|8,1:0|1:3,0:0:0:0:
366,384,12808,86,0,L|374:308,1,60,6|10,3:2|0:0,0:0:0:0:
381,271,13188,1,2,3:0:0:0:
495,235,13568,1,2,3:0:0:0:
496,114,13948,1,2,0:0:0:0:
466,68,14138,1,8,0:0:0:0:
426,31,14327,2,0,L|294:16,1,120,6|2,3:3|3:0,0:0:0:0:
207,85,15087,1,2,3:0:0:0:
285,175,15467,1,2,0:0:0:0:
207,266,15846,54,0,L|129:272,1,60,6|10,3:1|0:0,0:0:0:0:
109,310,16226,1,2,3:0:0:0:
0,257,16606,1,2,3:0:0:0:
31,141,16986,1,2,0:0:0:0:
78,115,17175,1,8,0:0:0:0:
133,130,17365,2,0,P|191:143|265:115,1,120,6|2,0:3|3:0,0:0:0:0:
330,38,18125,2,0,P|387:21|445:34,1,120,2|2,3:0|0:0,0:0:0:0:
503,139,18884,54,0,L|491:281,1,120,6|0,3:2|3:0,0:0:0:0:
479,311,19454,2,0,P|421:327|363:314,1,120,10|10,0:0|0:0,0:0:0:0:
316,286,20024,1,2,0:0:0:0:
277,247,20213,1,10,0:0:0:0:
253,198,20403,2,0,L|242:78,1,120,6|2,0:1|3:0,0:0:0:0:
141,12,21163,1,2,3:3:0:0:
37,72,21543,1,2,0:0:0:0:
50,123,21732,1,10,0:0:0:0:
65,174,21922,54,0,L|53:308,1,120,6|0,3:1|3:0,0:0:0:0:
140,378,22682,2,0,P|172:343|264:353,1,120,6|0,3:3|3:0,0:0:0:0:
367,359,23441,2,0,B|425:377|425:377|490:350,1,120,14|0,3:1|3:0,0:0:0:0:
504,299,24011,2,0,B|497:266|497:266|510:237|510:237|496:170,1,120,14|0,3:1|3:0,0:0:0:0:
485,124,24581,1,14,1:1:0:0:
396,45,24960,86,0,P|350:72|296:50,1,107.999996704102,6|2,3:1|3:0,0:0:0:0:
253,29,25530,2,0,P|203:12|158:38,1,107.999996704102,10|10,0:0|0:0,0:0:0:0:
136,87,26100,1,0,3:0:0:0:
136,87,26289,1,8,0:0:0:0:
351,297,27998,54,0,L|470:288,1,107.999996704102,6|2,3:1|3:0,0:0:0:0:
501,255,28568,2,0,P|517:206|484:149,2,107.999996704102,10|10|10,0:0|0:0|0:0,0:0:0:0:
316,344,31036,54,0,L|206:328,1,107.999996704102,6|2,3:1|3:0,0:0:0:0:
166,362,31606,1,10,0:0:0:0:
74,304,31986,1,10,0:0:0:0:
74,304,32175,1,2,0:0:0:0:
74,304,32365,1,10,0:0:0:0:
248,228,34074,54,0,L|376:219,1,107.999996704102,6|2,3:1|3:0,0:0:0:0:
406,200,34644,2,0,P|431:159|399:95,1,107.999996704102,10|10,0:0|0:0,0:0:0:0:
383,76,35213,1,2,0:0:0:0:
383,76,35403,1,8,0:0:0:0:
383,76,35593,2,0,L|275:68,1,107.999996704102,6|14,3:0|0:1,0:0:0:0:
182,0,36353,2,0,P|192:45|166:147,1,144,0|0,1:0|1:0,0:0:0:0:
136,172,37112,70,0,L|49:162,2,83.9999974365235,6|0|2,3:2|3:0|3:2,0:0:0:0:
213,201,38251,1,2,3:0:0:0:
281,152,38631,2,0,P|292:119|277:67,2,83.9999974365235,2|2|2,3:2|3:0|3:2,0:0:0:0:
153,261,40150,54,0,P|136:291|143:345,2,83.9999974365235,6|2|2,3:2|3:0|3:0,0:0:0:0:
213,201,41289,1,2,3:0:0:0:
296,207,41669,2,0,L|383:197,1,83.9999974365235,2|2,3:0|3:0,0:0:0:0:
457,165,42429,2,0,B|472:126|472:126|451:88|451:88|470:52|470:52|446:6,1,167.999994873047,2|6,3:0|0:0,0:0:0:0:
106,171,46226,21,6,3:1:0:0:
27,244,46606,1,6,3:1:0:0:
73,341,46986,1,6,3:1:0:0:
179,327,47365,1,6,3:1:0:0:
199,222,47745,2,0,L|214:110,1,107.999996704102,8|8,2:2|2:0,0:0:0:0:
424,26,49264,102,0,P|477:25|494:105,1,132.00000402832,6|0,3:2|3:0,0:0:0:0:
481,146,49834,1,10,0:0:0:0:
453,198,50024,2,0,L|316:180,1,132.00000402832,2|2,3:2|0:0,0:0:0:0:
276,219,50593,2,0,L|139:237,1,132.00000402832,10|8,0:0|0:0,0:0:0:0:
109,284,51163,1,2,3:0:0:0:
199,380,51543,1,2,3:0:0:0:
313,314,51922,53,2,0:0:0:0:
313,314,52112,2,0,L|450:332,1,132.00000402832,10|0,0:0|0:0,0:0:0:0:
481,284,52682,1,2,3:0:0:0:
509,231,52872,2,0,P|523:161|492:88,1,132.00000402832,10|10,0:0|0:0,0:0:0:0:
403,14,53631,1,10,0:0:0:0:
403,14,53821,2,0,L|251:22,1,132.00000402832,6|2,3:1|3:0,0:0:0:0:
230,146,54581,2,0,L|78:154,1,132.00000402832,2|2,0:0|0:0,0:0:0:0:
40,165,55150,1,8,0:0:0:0:
7,214,55340,54,0,P|-8:282|31:356,1,132.00000402832,6|2,3:2|3:0,0:0:0:0:
61,374,55910,1,10,0:0:0:0:
185,335,56289,2,0,P|200:267|161:193,1,132.00000402832,10|10,0:0|0:0,0:0:0:0:
129,175,56859,1,6,3:0:0:0:
137,43,57239,1,2,3:0:0:0:
265,9,57619,1,2,3:0:0:0:
336,120,57998,1,2,0:0:0:0:
252,221,58378,6,0,P|237:289|276:363,1,132.00000402832,6|0,3:1|3:0,0:0:0:0:
305,383,58948,1,8,0:0:0:0:
305,383,59138,2,0,L|446:372,1,132.00000402832,2|0,3:0|3:0,0:0:0:0:
507,261,59897,2,0,P|512:196|481:139,1,132.00000402832,14|0,3:1|3:0,0:0:0:0:
437,106,60467,1,10,3:1:0:0:
437,106,60657,1,2,3:1:0:0:
307,132,61036,2,0,L|236:114,1,66.0000020141602,10|10,3:1|3:1,0:0:0:0:
200,73,61416,102,0,B|143:35|143:35|72:68,1,132.00000402832,6|0,3:2|3:0,0:0:0:0:
39,100,61986,1,10,0:0:0:0:
11,152,62175,2,0,L|32:289,1,132.00000402832,2|2,3:2|0:0,0:0:0:0:
69,327,62745,2,0,P|126:305|206:309,1,132.00000402832,10|8,0:0|0:0,0:0:0:0:
247,337,63315,1,2,3:0:0:0:
362,273,63694,1,2,3:0:0:0:
267,171,64074,53,2,0:0:0:0:
267,171,64264,2,0,P|201:173|139:150,1,132.00000402832,10|0,0:0|0:0,0:0:0:0:
97,116,64834,1,2,3:0:0:0:
97,116,65024,1,10,0:0:0:0:
189,22,65403,1,10,0:0:0:0:
189,22,65593,2,0,L|268:16,1,66.0000020141602,2|10,0:0|0:0,0:0:0:0:
310,39,65973,2,0,B|361:39|361:39|382:60|382:60|449:76,1,132.00000402832,6|0,3:1|3:0,0:0:0:0:
512,178,66732,2,0,P|512:235|442:261,2,132.00000402832,0|10|8,1:0|3:1|3:1,0:0:0:0:
473,132,67682,54,0,L|333:103,1,132.00000402832,12|8,0:0|0:0,0:0:0:0:
224,162,68441,2,0,L|195:302,1,132.00000402832,10|10,0:0|0:0,0:0:0:0:
173,346,69011,2,0,P|117:353|55:309,2,132.00000402832,6|2|2,3:0|3:0|3:0,0:0:0:0:
298,305,70150,1,2,0:0:0:0:
305,246,70340,1,10,0:0:0:0:
304,186,70530,6,0,P|285:117|328:44,1,132.00000402832,6|0,3:1|3:0,0:0:0:0:
436,28,71289,2,0,P|472:89|449:171,1,132.00000402832,6|0,3:1|0:0,0:0:0:0:
431,197,71859,1,8,0:0:0:0:
391,241,72049,2,0,B|329:266|306:336|306:336|376:358|436:327,1,264.000008056641,2|8,1:0|1:3,0:0:0:0:
512,261,73188,1,10,3:2:0:0:
505,139,73568,102,0,L|493:65,1,60,6|10,3:2|0:0,0:0:0:0:
484,26,73948,1,2,3:0:0:0:
388,98,74327,1,2,3:0:0:0:
284,37,74707,1,2,0:0:0:0:
230,43,74897,1,8,0:0:0:0:
176,49,75087,2,0,B|139:37|139:37|111:49|111:49|47:34,1,120,6|2,3:3|3:0,0:0:0:0:
2,142,75846,1,2,3:0:0:0:
45,253,76226,1,2,0:0:0:0:
155,298,76606,54,0,L|235:289,1,60,6|10,3:1|0:0,0:0:0:0:
256,325,76986,1,2,3:0:0:0:
347,266,77365,1,2,3:0:0:0:
277,168,77745,1,2,0:0:0:0:
246,123,77935,1,8,0:0:0:0:
259,70,78125,2,0,P|293:41|377:33,1,120,6|2,0:3|3:0,0:0:0:0:
459,104,78884,2,0,P|467:147|432:224,1,120,2|2,3:0|0:0,0:0:0:0:
332,294,79644,54,0,L|209:280,1,120,6|0,3:2|3:0,0:0:0:0:
180,236,80213,2,0,P|187:170|160:108,1,120,10|10,0:0|0:0,0:0:0:0:
135,77,80783,1,2,0:0:0:0:
83,63,80973,1,10,0:0:0:0:
34,86,81163,2,0,P|6:138|4:197,1,120,6|2,0:1|3:0,0:0:0:0:
49,309,81922,1,2,3:3:0:0:
162,269,82302,1,2,0:0:0:0:
196,309,82492,1,10,0:0:0:0:
237,344,82682,54,0,B|291:361|291:361|366:329,1,120,6|0,3:1|3:0,0:0:0:0:
438,254,83441,2,0,L|433:110,1,120,6|0,3:3|3:0,0:0:0:0:
366,34,84201,2,0,B|354:71|354:71|246:85,1,120,14|0,3:1|3:0,0:0:0:0:
221,66,84770,2,0,B|209:29|209:29|101:15,1,120,14|0,3:1|3:0,0:0:0:0:
75,32,85340,2,0,B|63:73|63:73|68:104|68:104|53:170,1,120,14|6,1:1|0:2,0:0:0:0:
0,292,94834,22,0,B|230:241|103:396|349:346,1,360.000013732911,8|6,0:3|0:2,0:0:0:0:
484,122,97872,70,0,L|494:30,2,83.9999974365235,6|0|2,3:2|3:0|3:2,0:0:0:0:
438,192,99011,1,2,3:0:0:0:
360,159,99391,2,0,P|317:143|269:151,2,83.9999974365235,2|2|2,3:2|3:0|3:2,0:0:0:0:
484,262,100910,54,0,L|494:354,2,83.9999974365235,6|2|2,3:2|3:0|3:0,0:0:0:0:
438,192,102049,1,2,3:0:0:0:
360,225,102429,2,0,P|317:241|269:233,1,83.9999974365235,2|2,3:0|3:0,0:0:0:0:
208,191,103188,2,0,B|212:168|223:152|223:152|206:134|202:114|202:114|215:97|221:78|221:78|206:57|197:32,1,167.999994873047,2|6,3:0|0:0,0:0:0:0:
502,192,106986,21,6,3:1:0:0:
506,299,107365,1,6,3:1:0:0:
405,335,107745,1,6,3:1:0:0:
340,250,108125,1,6,3:1:0:0:
400,162,108505,2,0,P|416:110|393:57,1,107.999996704102,8|8,2:2|2:0,0:0:0:0:
46,9,110024,102,0,L|39:152,1,132.00000402832,6|0,3:2|3:0,0:0:0:0:
52,199,110593,1,10,0:0:0:0:
78,252,110783,2,0,P|128:274|215:234,1,132.00000402832,2|2,3:2|0:0,0:0:0:0:
236,205,111353,2,0,L|243:62,1,132.00000402832,10|8,0:0|0:0,0:0:0:0:
276,24,111922,1,2,3:0:0:0:
406,6,112302,1,2,3:0:0:0:
501,97,112682,53,2,0:0:0:0:
501,97,112872,2,0,L|494:240,1,132.00000402832,10|0,0:0|0:0,0:0:0:0:
487,288,113441,1,2,3:0:0:0:
473,345,113631,2,0,P|412:367|351:345,1,132.00000402832,10|10,0:0|0:0,0:0:0:0:
252,270,114391,1,10,0:0:0:0:
252,270,114581,2,0,B|247:219|247:219|252:198|252:198|245:138,1,132.00000402832,6|2,3:1|3:0,0:0:0:0:
161,39,115340,2,0,P|100:17|39:39,1,132.00000402832,2|2,0:0|0:0,0:0:0:0:
25,96,115910,1,8,0:0:0:0:
17,155,116100,54,0,L|11:287,1,132.00000402832,6|2,3:2|3:0,0:0:0:0:
19,345,116669,1,10,0:0:0:0:
135,367,117049,2,0,B|186:364|186:364|204:373|204:373|269:369,1,132.00000402832,10|10,0:0|0:0,0:0:0:0:
321,349,117619,1,6,3:0:0:0:
214,270,117998,1,2,3:0:0:0:
318,189,118378,1,2,3:0:0:0:
220,100,118758,1,2,0:0:0:0:
326,13,119138,6,0,B|377:10|377:10|395:19|395:19|460:15,1,132.00000402832,6|0,3:1|3:0,0:0:0:0:
502,52,119707,1,8,0:0:0:0:
502,52,119897,2,0,P|520:100|483:192,1,132.00000402832,2|0,3:0|3:0,0:0:0:0:
393,255,120657,2,0,B|342:252|342:252|324:261|324:261|259:257,1,132.00000402832,14|0,3:1|3:0,0:0:0:0:
212,236,121226,1,10,3:1:0:0:
212,236,121416,1,2,3:1:0:0:
172,110,121796,2,0,L|153:20,1,66.0000020141602,10|10,3:1|3:1,0:0:0:0:
103,21,122175,102,0,P|37:39|53:112,1,132.00000402832,6|0,3:2|3:0,0:0:0:0:
66,144,122745,1,10,0:0:0:0:
112,180,122935,2,0,L|260:161,1,132.00000402832,2|2,3:2|0:0,0:0:0:0:
297,187,123505,2,0,L|445:168,1,132.00000402832,10|8,0:0|0:0,0:0:0:0:
477,203,124074,1,2,3:0:0:0:
510,75,124454,1,2,3:0:0:0:
391,17,124834,53,2,0:0:0:0:
391,17,125024,2,0,B|334:22|334:22|325:31|325:31|243:36,1,132.00000402832,10|0,0:0|0:0,0:0:0:0:
210,21,125593,1,2,3:0:0:0:
210,21,125783,1,10,0:0:0:0:
119,116,126163,1,10,0:0:0:0:
119,116,126353,2,0,L|124:193,1,66.0000020141602,2|10,0:0|0:0,0:0:0:0:
165,223,126732,2,0,B|197:280|197:280|162:365,1,132.00000402832,6|0,3:1|3:0,0:0:0:0:
39,350,127492,2,0,B|10:295|10:295|42:208,2,132.00000402832,0|10|8,1:0|3:1|3:1,0:0:0:0:
92,377,128441,54,0,L|237:367,1,132.00000402832,12|8,0:0|0:0,0:0:0:0:
271,244,129201,2,0,P|256:179|283:110,1,132.00000402832,10|10,0:0|0:0,0:0:0:0:
319,77,129770,2,0,L|464:67,2,132.00000402832,6|2|2,3:0|3:0|3:0,0:0:0:0:
221,166,130910,1,2,0:0:0:0:
201,109,131100,1,10,0:0:0:0:
174,55,131289,6,0,B|119:20|119:20|58:49,1,132.00000402832,6|0,3:1|3:0,0:0:0:0:
0,167,132049,2,0,L|9:309,1,132.00000402832,6|0,3:1|0:0,0:0:0:0:
53,337,132619,1,8,0:0:0:0:
110,323,132808,2,0,B|265:280|207:389|380:352,1,264.000008056641,2|8,1:0|1:3,0:0:0:0:
470,301,133948,1,10,3:2:0:0:
392,194,134327,6,0,B|354:130|394:71|394:71|339:9|273:50,1,264.000008056641,6|0,3:2|3:0,0:0:0:0:
239,97,135277,1,10,0:0:0:0:
239,97,135467,1,2,0:0:0:0:
115,142,135846,2,0,B|65:149|65:149|22:105,2,99.0000030212403,6|2|10,3:3|0:0|0:0,0:0:0:0:
174,133,136606,2,0,B|224:126|224:126|267:170,2,99.0000030212403,2|2|8,3:3|0:0|0:0,0:0:0:0:
146,185,137365,54,0,L|132:297,1,99.0000030212403,6|2,3:1|0:0,0:0:0:0:
191,365,137935,1,10,0:0:0:0:
191,365,138125,2,0,B|243:359|243:359|262:369|262:369|347:364,1,132.00000402832,2|0,0:0|0:0,0:0:0:0:
449,339,138884,2,0,B|474:282|474:282|474:277|474:277|448:216,1,132.00000402832,6|2,3:3|3:0,0:0:0:0:
375,107,139644,1,2,3:0:0:0:
258,168,140024,1,2,0:0:0:0:
191,54,140403,54,0,B|132:29|132:29|128:29|128:29|68:54,1,132.00000402832,6|2,3:1|3:0,0:0:0:0:
24,93,140973,1,8,0:0:0:0:
8,150,141163,2,0,L|14:299,1,132.00000402832,2|2,3:0|0:0,0:0:0:0:
114,366,141922,1,6,3:0:0:0:
217,283,142302,1,2,3:0:0:0:
271,258,142492,1,8,0:0:0:0:
327,281,142682,2,0,B|386:306|386:306|390:306|390:306|449:280,1,132.00000402832,2|2,3:0|0:0,0:0:0:0:
506,161,143441,54,0,L|515:35,2,99.0000030212403,6|2|10,3:1|0:0|0:0,0:0:0:0:
481,215,144201,2,0,L|472:341,2,99.0000030212403,2|0|0,3:0|0:0|3:0,0:0:0:0:
429,184,144960,2,0,B|371:154|371:154|366:154|366:154|308:174,1,132.00000402832,14|0,3:1|3:0,0:0:0:0:
256,205,145530,2,0,B|198:225|198:225|193:225|193:225|135:195,1,132.00000402832,14|0,3:1|3:0,0:0:0:0:
88,166,146100,1,14,1:1:0:0:
102,47,146479,22,0,L|172:34,1,60,6|8,0:2|0:0,0:0:0:0:
214,26,146859,1,2,3:0:0:0:
292,116,147239,1,2,3:0:0:0:
392,50,147619,1,2,0:0:0:0:
442,31,147808,1,8,0:0:0:0:
487,60,147998,2,0,P|510:109|484:183,1,120,6|2,3:0|3:0,0:0:0:0:
419,264,148758,1,2,3:0:0:0:
315,203,149138,1,2,0:0:0:0:
215,268,149517,54,0,L|205:339,1,60,6|8,3:3|0:0,0:0:0:0:
166,364,149897,1,2,3:0:0:0:
52,325,150277,1,2,3:0:0:0:
47,205,150657,1,2,0:0:0:0:
75,158,150846,1,8,0:0:0:0:
111,118,151036,2,0,B|152:111|152:111|179:121|179:121|243:114,1,120,6|2,3:0|3:0,0:0:0:0:
331,53,151796,1,2,3:0:0:0:
427,124,152175,1,2,0:0:0:0:
351,225,152555,54,0,P|341:251|344:297,1,60,6|8,3:2|0:0,0:0:0:0:
355,335,152935,1,2,3:0:0:0:
464,383,153315,1,2,3:0:0:0:
511,272,153694,1,2,0:0:0:0:
503,218,153884,1,8,0:0:0:0:
495,164,154074,2,0,L|476:34,1,120,6|2,3:0|3:0,0:0:0:0:
364,4,154834,1,2,3:0:0:0:
300,105,155213,1,2,0:0:0:0:
191,43,155593,54,0,P|165:32|128:35,1,60,6|8,3:1|0:0,0:0:0:0:
81,48,155973,1,2,3:0:0:0:
12,146,156353,1,2,3:0:0:0:
67,252,156732,1,2,3:0:0:0:
185,235,157112,2,0,L|193:166,1,60,14|10,0:1|0:1,0:0:0:0:
225,132,157492,2,0,L|233:63,1,60,10|10,0:1|0:1,0:0:0:0:
275,40,157872,1,10,0:1:0:0:
96,196,167745,69,6,3:1:0:0:
17,123,168125,1,6,3:1:0:0:
63,26,168505,1,6,3:1:0:0:
169,40,168884,1,6,3:1:0:0:
189,145,169264,2,0,B|198:176|198:176|192:209|192:209|204:257,1,107.999996704102,8|8,2:2|2:0,0:0:0:0:
391,353,170783,102,0,B|434:346|466:370|466:370|494:323,1,132.00000402832,6|0,3:2|3:0,0:0:0:0:
496,264,171353,1,10,0:0:0:0:
490,204,171543,2,0,L|468:67,1,132.00000402832,2|2,3:2|0:0,0:0:0:0:
425,33,172112,2,0,B|378:29|378:29|357:42|357:42|292:40,1,132.00000402832,10|8,0:0|0:0,0:0:0:0:
242,15,172682,1,2,3:0:0:0:
167,124,173062,1,2,3:0:0:0:
255,228,173441,53,2,0:0:0:0:
255,228,173631,2,0,P|271:270|220:352,1,132.00000402832,10|0,0:0|0:0,0:0:0:0:
183,374,174201,1,2,3:0:0:0:
122,377,174391,2,0,P|68:343|55:281,1,132.00000402832,10|10,0:0|0:0,0:0:0:0:
93,158,175150,1,10,0:0:0:0:
93,158,175340,2,0,L|224:135,1,132.00000402832,6|2,3:1|3:0,0:0:0:0:
286,251,176100,2,0,L|416:273,1,132.00000402832,2|2,0:0|0:0,0:0:0:0:
464,239,176669,1,8,0:0:0:0:
498,190,176859,54,0,P|516:119|481:50,1,132.00000402832,6|2,3:2|3:0,0:0:0:0:
449,27,177429,1,10,0:0:0:0:
319,51,177808,2,0,P|283:114|299:190,1,132.00000402832,10|10,0:0|0:0,0:0:0:0:
315,225,178378,1,6,3:0:0:0:
288,354,178758,1,2,3:0:0:0:
156,367,179138,1,2,3:0:0:0:
102,245,179517,1,2,0:0:0:0:
201,155,179897,6,0,P|243:107|207:34,1,132.00000402832,6|0,3:1|3:0,0:0:0:0:
177,22,180467,1,8,0:0:0:0:
177,22,180657,2,0,B|125:20|125:20|110:41|110:41|45:57,1,132.00000402832,2|0,3:0|3:0,0:0:0:0:
2,174,181416,2,0,P|-15:234|26:282,1,132.00000402832,14|0,3:1|3:0,0:0:0:0:
84,299,181986,1,10,3:1:0:0:
84,299,182175,1,2,3:1:0:0:
189,220,182555,2,0,L|199:141,1,66.0000020141602,10|10,3:1|3:1,0:0:0:0:
230,104,182935,102,0,B|288:77|288:77|352:114,1,132.00000402832,6|0,3:2|3:0,0:0:0:0:
390,150,183505,1,10,0:0:0:0:
425,197,183694,2,0,L|416:339,1,132.00000402832,2|2,3:2|0:0,0:0:0:0:
367,361,184264,2,0,B|318:359|318:359|303:367|303:367|238:363,1,132.00000402832,10|8,0:0|0:0,0:0:0:0:
181,347,184834,1,2,3:0:0:0:
77,265,185213,1,2,3:0:0:0:
178,168,185593,53,2,0:0:0:0:
178,168,185783,2,0,B|227:166|227:166|242:174|242:174|307:170,1,132.00000402832,10|0,0:0|0:0,0:0:0:0:
365,144,186353,1,2,3:0:0:0:
365,144,186543,1,10,0:0:0:0:
314,22,186922,1,10,0:0:0:0:
314,22,187112,2,0,L|238:16,1,66.0000020141602,2|10,0:0|0:0,0:0:0:0:
188,12,187492,2,0,B|140:22|140:22|127:34|127:34|63:47,1,132.00000402832,6|0,3:1|3:0,0:0:0:0:
3,165,188251,2,0,P|-12:207|15:303,2,132.00000402832,0|10|8,1:0|3:1|3:1,0:0:0:0:
46,124,189201,54,0,L|184:116,1,132.00000402832,12|8,0:0|0:0,0:0:0:0:
285,192,189960,2,0,B|295:232|295:232|290:259|290:259|305:336,1,132.00000402832,10|10,0:0|0:0,0:0:0:0:
352,353,190530,2,0,P|408:360|470:316,2,132.00000402832,6|2|2,3:0|3:0|3:0,0:0:0:0:
238,284,191669,1,2,0:0:0:0:
215,229,191859,1,10,0:0:0:0:
239,174,192049,6,0,B|263:111|263:111|227:54,1,132.00000402832,6|0,3:1|3:0,0:0:0:0:
98,35,192808,2,0,B|45:77|45:77|47:143,1,132.00000402832,6|0,3:1|0:0,0:0:0:0:
72,196,193378,1,8,0:0:0:0:
107,243,193568,2,0,B|174:231|174:231|214:288|214:288|332:339,1,264.000008056641,2|8,1:0|1:3,0:0:0:0:
445,371,194707,1,10,0:0:0:0:
501,272,195087,6,0,L|481:146,1,107.999996704102,14|10,2:1|0:0,0:0:0:0:
471,117,195657,1,0,3:0:0:0:
471,117,195846,2,0,P|419:91|358:111,1,107.999996704102,10|8,0:0|0:0,0:0:0:0:
276,151,196606,1,10,0:0:0:0:
182,97,196986,1,10,0:0:0:0:
98,165,197365,2,0,P|82:214|99:277,1,107.999996704102,10|10,0:0|0:0,0:0:0:0:
125,312,197935,1,0,3:0:0:0:
172,338,198125,54,0,L|292:325,1,107.999996704102,14|10,0:1|0:0,0:0:0:0:
376,372,198884,1,10,0:0:0:0:
457,300,199264,1,10,0:0:0:0:
392,213,199644,2,0,B|365:168|403:109|403:109|394:40|321:34,1,215.999993408203,14|8,0:1|0:0,0:0:0:0:
289,56,200593,1,2,3:0:0:0:
289,56,200783,2,0,L|277:114,1,53.9999983520508,10|2,0:0|3:0,0:0:0:0:
242,150,201163,22,0,B|188:143|173:75|173:75|131:29|72:52,1,215.999993408203,14|8,0:1|0:0,0:0:0:0:
1,127,202302,1,10,0:0:0:0:
29,231,202682,2,0,L|50:346,1,107.999996704102,10|8,0:0|0:0,0:0:0:0:
92,368,203251,1,2,3:0:0:0:
137,339,203441,2,0,P|191:315|250:323,1,107.999996704102,10|8,0:0|0:0,0:0:0:0:
347,363,204201,54,0,P|400:365|448:342,1,107.999996704102,14|8,0:1|0:0,0:0:0:0:
473,294,204770,1,2,3:0:0:0:
473,239,204960,2,0,L|468:136,1,80.9999975280763,10|2,0:0|3:0,0:0:0:0:
438,82,205530,1,0,3:0:0:0:
438,82,205720,2,0,B|302:72|392:164|223:151,1,215.999993408203,14|10,0:1|0:0,0:0:0:0:
143,117,206859,1,10,0:0:0:0:
45,191,207239,86,0,P|28:241|52:310,1,107.999996704102,14|10,3:1|0:0,0:0:0:0:
79,340,207808,1,0,3:0:0:0:
79,340,207998,2,0,L|199:333,1,107.999996704102,10|8,0:0|0:0,0:0:0:0:
289,299,208758,1,10,0:0:0:0:
371,368,209138,1,10,0:0:0:0:
464,314,209517,2,0,P|481:264|457:195,1,107.999996704102,10|10,0:0|0:0,0:0:0:0:
441,164,210087,1,0,3:0:0:0:
398,130,210277,54,0,L|290:123,1,107.999996704102,14|10,0:1|0:0,0:0:0:0:
186,153,211036,1,10,0:0:0:0:
89,100,211416,1,10,0:0:0:0:
13,177,211796,2,0,B|-42:303|63:363|63:363|79:299|137:281,1,323.999990112305,14|8,0:1|0:0,0:0:0:0:
243,247,213315,22,0,B|298:245|298:245|327:304|327:304|405:359,1,215.999993408203,14|8,0:1|0:0,0:0:0:0:
509,331,214454,1,10,0:0:0:0:
489,224,214834,2,0,L|468:109,1,107.999996704102,10|8,0:1|0:0,0:0:0:0:
453,66,215403,1,2,3:0:0:0:
423,20,215593,2,0,P|378:10|309:43,1,107.999996704102,10|8,0:0|0:0,0:0:0:0:
239,116,216353,6,0,B|232:155|232:155|235:169|235:169|225:241,1,107.999996704102,14|10,3:1|3:1,0:0:0:0:
219,276,216922,1,0,3:0:0:0:
213,329,217112,1,10,3:1:0:0:
115,375,217492,2,0,L|108:317,1,53.9999983520508,14|0,3:1|3:0,0:0:0:0:
65,24,219011,1,14,0:1:0:0:
100,64,219201,1,14,0:1:0:0:
152,52,219391,102,0,P|184:42|236:45,1,60,6|10,3:2|0:0,0:0:0:0:
258,64,219770,1,2,3:0:0:0:
320,152,220150,1,2,3:0:0:0:
264,244,220530,1,2,0:0:0:0:
216,217,220720,1,8,0:0:0:0:
163,230,220910,2,0,P|92:240|49:210,1,120,6|2,3:3|3:0,0:0:0:0:
2,106,221669,1,2,3:0:0:0:
88,22,222049,1,2,0:0:0:0:
205,61,222429,54,0,L|283:67,1,60,6|10,3:1|0:0,0:0:0:0:
303,103,222808,1,2,3:0:0:0:
404,39,223188,1,2,3:0:0:0:
486,126,223568,1,2,0:0:0:0:
485,179,223758,1,8,0:0:0:0:
485,233,223948,2,0,B|480:318|480:318|448:344,1,120,6|2,0:3|3:0,0:0:0:0:
342,381,224707,2,0,B|314:359|314:359|309:274,1,120,2|2,3:0|0:0,0:0:0:0:
324,156,225467,54,0,P|348:102|326:48,1,120,6|0,3:2|3:0,0:0:0:0:
275,29,226036,2,0,L|151:19,1,120,10|10,0:0|0:0,0:0:0:0:
101,26,226606,1,2,0:0:0:0:
51,47,226796,1,10,0:0:0:0:
6,77,226986,2,0,P|-18:130|4:184,1,120,6|2,0:1|3:0,0:0:0:0:
93,264,227745,1,2,3:3:0:0:
197,205,228125,1,2,0:0:0:0:
248,220,228315,1,10,0:0:0:0:
296,196,228505,54,0,P|350:180|424:201,1,120,6|0,3:1|3:0,0:0:0:0:
451,306,229264,2,0,P|412:346|337:365,1,120,6|0,3:3|3:0,0:0:0:0:
236,336,230024,1,14,3:1:0:0:
278,223,230403,1,6,3:3:0:0:
175,160,230783,1,6,3:1:0:0:
204,43,231163,1,14,3:1:0:0:
330,43,231543,54,0,L|394:36,1,60,6|10,3:2|0:0,0:0:0:0:
438,12,231922,1,2,3:0:0:0:
511,106,232302,1,2,3:0:0:0:
421,185,232682,1,2,0:0:0:0:
370,204,232872,1,8,0:0:0:0:
317,217,233062,2,0,L|193:204,1,120,6|2,3:3|3:0,0:0:0:0:
127,106,233821,1,2,3:0:0:0:
12,142,234201,1,2,0:0:0:0:
14,269,234581,54,0,L|25:337,1,60,6|10,3:1|0:0,0:0:0:0:
54,372,234960,1,2,3:0:0:0:
160,315,235340,1,2,3:0:0:0:
266,370,235720,1,2,0:0:0:0:
279,318,235910,1,8,0:0:0:0:
294,266,236100,2,0,B|300:233|300:233|278:198|276:132,1,120,6|2,0:3|3:0,0:0:0:0:
315,36,236859,2,0,B|347:42|347:42|382:20|430:19,1,120,2|2,3:0|0:0,0:0:0:0:
504,122,237619,54,0,L|493:260,1,120,6|0,3:2|3:2,0:0:0:0:
474,292,238188,2,0,P|416:308|365:273,1,120,10|10,3:2|3:2,0:0:0:0:
345,228,238758,1,2,3:2:0:0:
326,177,238948,1,10,3:2:0:0:
304,127,239138,2,0,P|254:96|198:112,1,120,2|2,3:2|3:2,0:0:0:0:
105,188,239897,1,2,3:2:0:0:
154,297,240277,1,2,3:2:0:0:
204,279,240467,1,10,0:0:0:0:
245,314,240657,54,0,B|293:343|293:343|360:309,1,120,6|0,0:1|3:0,0:0:0:0:
409,209,241416,2,0,L|393:67,1,120,14|0,3:1|3:0,0:0:0:0:
292,28,242175,2,0,B|248:30|248:30|227:48|227:48|168:56,1,120,14|0,3:1|3:0,0:0:0:0:
120,42,242745,2,0,B|62:20|62:20|11:57,1,120,14|0,3:1|3:0,0:0:0:0:
11,108,243315,1,14,0:1:0:0:
29,158,243505,1,14,0:1:0:0:
